Subcategories

Ahmad Jamal Trio - The Awakening (1970) [Repost]

Posted By: tiburon
Ahmad Jamal Trio - The Awakening (1970) [Repost]

Ahmad Jamal Trio - The Awakening (1970)
EAC 0.99pb4 | FLAC tracks level 8 | Cue+Log+M3U | Full Scans 300dpi | 252MB + 5% Recovery
Genre: Jazz

The music on this CD has been reissued many times, most recently in 1997. By 1970, pianist Ahmad Jamal's style had changed a bit since the 1950s, becoming denser and more adventurous while still retaining his musical identity. With bassist Jamil Nasser (whose doubletiming lines are sometimes furious) and drummer Frank Gant, Jamal performs two originals (playing over a vamp on "Patterns"), the obscure "I Love Music" and four jazz standards. Intriguing performances showing that Ahmad Jamal was continuing to evolve.
Track List
1. The Awakening 6:19
2. I Love Music 7:19
3. Patterns 6:19
4. Dolphin Dance 5:05
5. You're My Everything 4:40
6. Stolen Moments 6:27
7. Wave 4:25

musicians
Ahmad Jamal - piano
Jamil Nasser - bass
Frank Gant - drums

Produced by Ed Michel


Exact Audio Copy V0.99 prebeta 4 from 23. January 2008

EAC extraction logfile from 6. June 2008, 22:04

The Ahmad Jamal Trio / The Awakening

Used drive : PLEXTOR CD-R PREMIUM2 Adapter: 1 ID: 1

Read mode : Secure
Utilize accurate stream : Yes
Defeat audio cache : Yes
Make use of C2 pointers : No

Read offset correction : 30
Overread into Lead-In and Lead-Out : No
Fill up missing offset samples with silence : Yes
Delete leading and trailing silent blocks : No
Null samples used in CRC calculations : Yes
Used interface : Installed external ASPI interface
Gap handling : Appended to previous track

Used output format : User Defined Encoder
Selected bitrate : 32 kBit/s
Quality : High
Add ID3 tag : No
Command line compressor : C:\Programmi\FLAC\flac.exe
Additional command line options : -8 -V -T "ARTIST=%a" -T "TITLE=%t" -T "ALBUM=%g" -T "DATE=%y" -T "TRACKNUMBER=%n" -T "GENRE=%m" -T "COMMENT=EAC FLAC -8" %s


TOC of the extracted CD

Track | Start | Length | Start sector | End sector
––––––––––––––––––––––––––––-
1 | 0:00.00 | 6:21.67 | 0 | 28641
2 | 6:21.67 | 7:22.33 | 28642 | 61824
3 | 13:44.25 | 6:18.32 | 61825 | 90206
4 | 20:02.57 | 5:09.15 | 90207 | 113396
5 | 25:11.72 | 4:44.18 | 113397 | 134714
6 | 29:56.15 | 6:32.02 | 134715 | 164116
7 | 36:28.17 | 4:25.65 | 164117 | 184056


Track 1

Filename C:\My Rip\01 - The Awakening.wav

Pre-gap length 0:00:02.00

Peak level 98.0 %
Track quality 99.9 %
Test CRC 1FFBCAF8
Copy CRC 1FFBCAF8
Cannot be verified as accurate (confidence 2) [453F6D3A], AccurateRip returned [D9FEB8C2]
Copy OK

Track 2

Filename C:\My Rip\02 - I Love Music.wav

Pre-gap length 0:00:02.96

Peak level 88.7 %
Track quality 100.0 %
Test CRC B9305125
Copy CRC B9305125
Cannot be verified as accurate (confidence 2) [7D38C202], AccurateRip returned [17EE48AA]
Copy OK

Track 3

Filename C:\My Rip\03 - Patterns.wav

Pre-gap length 0:00:03.17

Peak level 89.3 %
Track quality 100.0 %
Test CRC B4A67DC4
Copy CRC B4A67DC4
Cannot be verified as accurate (confidence 2) [8B897EF4], AccurateRip returned [FEEF7854]
Copy OK

Track 4

Filename C:\My Rip\04 - Dolphin Dance.wav

Pre-gap length 0:00:03.06

Peak level 86.6 %
Track quality 100.0 %
Test CRC 5AC28D24
Copy CRC 5AC28D24
Cannot be verified as accurate (confidence 2) [A70A9EC2], AccurateRip returned [F6986DCA]
Copy OK

Track 5

Filename C:\My Rip\05 - You're My Everything.wav

Pre-gap length 0:00:03.00

Peak level 100.0 %
Track quality 99.9 %
Test CRC F60E7E0D
Copy CRC F60E7E0D
Cannot be verified as accurate (confidence 2) [CDCB814F], AccurateRip returned [43EA2537]
Copy OK

Track 6

Filename C:\My Rip\06 - Stolen Moments.wav

Pre-gap length 0:00:03.00

Peak level 92.1 %
Track quality 100.0 %
Test CRC 6128F9D1
Copy CRC 6128F9D1
Cannot be verified as accurate (confidence 2) [C03550AD], AccurateRip returned [757197BD]
Copy OK

Track 7

Filename C:\My Rip\07 - Wave.wav

Pre-gap length 0:00:02.93

Peak level 93.6 %
Track quality 100.0 %
Test CRC 96AE326A
Copy CRC 96AE326A
Cannot be verified as accurate (confidence 2) [11343236], AccurateRip returned [B016D136]
Copy OK


No tracks could be verified as accurate
You may have a different pressing from the one(s) in the database

No errors occurred

End of status report


––––––––––––––––––––––––––––––––––––––––
Analyzed: The Ahmad Jamal Trio / The Awakening
––––––––––––––––––––––––––––––––––––––––

DR Peak RMS Duration Track
––––––––––––––––––––––––––––––––––––––––
DR12 -0.17 dB -15.57 dB 6:22 01-The Awakening
DR10 -1.04 dB -14.64 dB 7:22 02-I Love Music
DR11 -0.98 dB -13.11 dB 6:18 03-Patterns
DR11 -1.25 dB -15.19 dB 5:09 04-Dolphin Dance
DR12 0.00 dB -16.25 dB 4:44 05-You're My Everything
DR11 -0.71 dB -14.61 dB 6:32 06-Stolen Moments
DR11 -0.57 dB -14.47 dB 4:26 07-Wave
––––––––––––––––––––––––––––––––––––––––

Number of tracks: 7
Official DR value: DR11

Samplerate: 44100 Hz
Channels: 2
Bits per sample: 16
Bitrate: 806 kbps
Codec: FLAC
================================================================================

Ahmad Jamal Trio - The Awakening (1970) [Repost]
Ahmad Jamal Trio - The Awakening (1970) [Repost]
Ahmad Jamal Trio - The Awakening (1970) [Repost]


Rip by Sarchiapone