Subcategories

Airto Moreira - Fingers (1973) [Repost]

Posted By: tiburon
Airto Moreira - Fingers (1973) [Repost]

Airto Moreira - Fingers (1973)
EAC 1.0b3 | FLAC tracks level 8 | Cue+Log+M3U | Full Scans 300dpi | 241MB + 5% Recovery
Genre: Fusion, Latin Jazz

The 1970s were banner years for Airto Moreira–not only because of his association with Chick Corea's Return to Forever and his work on wife Flora Purim's Milestone dates, but also, because of the generally superb work he did under Creed Taylor's supervision at CTI from 1972-74. One of the five-star gems that the Brazilian percussionist recorded for CTI was Fingers, which employs Purim on percussion and vocals, David Amaro on guitar, Hugo Fattoruso on keyboards and harmonica, Jorge Fattoruso on drums and Ringo Thielmann on electric bass. Produced by Taylor and recorded at Rudy Van Gelder's famous New Jersey studio, this LP demonstrates just how exciting and creative 1970s fusion could be.
Track List
01. Fingers (El Rada) (Ruben Rada - Eduardo Useta)
02. Romance Of Death (Hugo Fattoruso)
03. Merry-Go-Round (Airto Moreira - Flora Purim)
04. Wind Chant (Hugo Fattoruso)
05. Parana (Hugo Fattoruso)
06. San Francisco River (Flora Purim)
07. Tombo in 7/4 (Airto Moreira )

musicians
Airto Moreira - percussion, drums, vocals
Hugo Fattoruso - keyboards, harmonica, vocals
David Amaro - acoustic guitar, electric guitar, 12 string guitar
Ringo Thielmann - bass, vocals
Jorge Osvaldo Fattoruso - drums, vocals
Flora Purim - percussion, vocals

Produced by Creed Talylor


Exact Audio Copy V1.0 beta 3 from 29. August 2011

EAC extraction logfile from 4. January 2013, 18:22

Airto Moreira / Fingers

Used drive : TSSTcorpCDDVDW SH-S203D Adapter: 2 ID: 2

Read mode : Secure
Utilize accurate stream : Yes
Defeat audio cache : Yes
Make use of C2 pointers : No

Read offset correction : 6
Overread into Lead-In and Lead-Out : No
Fill up missing offset samples with silence : Yes
Delete leading and trailing silent blocks : No
Null samples used in CRC calculations : Yes
Used interface : Native Win32 interface for Win NT & 2000
Gap handling : Appended to previous track

Used output format : User Defined Encoder
Selected bitrate : 1024 kBit/s
Quality : High
Add ID3 tag : No
Command line compressor : C:\Archivos de programa\Exact Audio Copy\FLAC\FLAC.EXE
Additional command line options : -8 -V -T "ARTIST=%artist%" -T "TITLE=%title%" -T "ALBUM=%albumtitle%" -T "DATE=%year%" -T "TRACKNUMBER=%tracknr%" -T "GENRE=%genre%" -T "PERFORMER=%albuminterpret%" -T "COMPOSER=%composer%" %haslyrics%–tag-from-file=LYRICS="%lyricsfile%"%haslyrics% -T "ALBUMARTIST=%albumartist%" -T "DISCNUMBER=%cdnumber%" -T "TOTALDISCS=%totalcds%" -T "TOTALTRACKS=%numtracks%" -T "COMMENT=EAC V1.0b3_SecuMode_Test&Copy_AccuRip_Flac-8_by Goldenwings" %hascover%–picture="%coverfile%"%hascover% %source% -o %dest%


TOC of the extracted CD

Track | Start | Length | Start sector | End sector
––––––––––––––––––––––––––––-
1 | 0:00.14 | 4:33.32 | 14 | 20520
2 | 4:33.46 | 5:36.57 | 20521 | 45777
3 | 10:10.28 | 2:47.15 | 45778 | 58317
4 | 12:57.43 | 5:50.62 | 58318 | 84629
5 | 18:48.30 | 6:03.27 | 84630 | 111881
6 | 24:51.57 | 4:11.40 | 111882 | 130746
7 | 29:03.22 | 6:22.49 | 130747 | 159445


Track 1

Filename G:\Lossless con Tags\3. Brasil\Airto Moreira - Fingers (1973) {CTI Records 40th Anniversary Edition - 88697 93203 2}\01 - Fingers (El Rada).wav

Pre-gap length 0:00:02.14

Peak level 95.4 %
Extraction speed 2.0 X
Track quality 100.0 %
Test CRC 9C54BB7E
Copy CRC 9C54BB7E
Track not present in AccurateRip database
Copy OK

Track 2

Filename G:\Lossless con Tags\3. Brasil\Airto Moreira - Fingers (1973) {CTI Records 40th Anniversary Edition - 88697 93203 2}\02 - Romance Of Death.wav

Pre-gap length 0:00:02.58

Peak level 87.9 %
Extraction speed 2.3 X
Track quality 100.0 %
Test CRC 2C521627
Copy CRC 2C521627
Track not present in AccurateRip database
Copy OK

Track 3

Filename G:\Lossless con Tags\3. Brasil\Airto Moreira - Fingers (1973) {CTI Records 40th Anniversary Edition - 88697 93203 2}\03 - Merry-Go-Round.wav

Pre-gap length 0:00:02.41

Peak level 81.2 %
Extraction speed 2.2 X
Track quality 100.0 %
Test CRC ECEC3B42
Copy CRC ECEC3B42
Track not present in AccurateRip database
Copy OK

Track 4

Filename G:\Lossless con Tags\3. Brasil\Airto Moreira - Fingers (1973) {CTI Records 40th Anniversary Edition - 88697 93203 2}\04 - Wind Chant.wav

Pre-gap length 0:00:02.53

Peak level 83.7 %
Extraction speed 2.6 X
Track quality 100.0 %
Test CRC F21FBD9D
Copy CRC F21FBD9D
Track not present in AccurateRip database
Copy OK

Track 5

Filename G:\Lossless con Tags\3. Brasil\Airto Moreira - Fingers (1973) {CTI Records 40th Anniversary Edition - 88697 93203 2}\05 - Parana.wav

Pre-gap length 0:00:02.56

Peak level 97.9 %
Extraction speed 2.9 X
Track quality 100.0 %
Test CRC 66DE463B
Copy CRC 66DE463B
Track not present in AccurateRip database
Copy OK

Track 6

Filename G:\Lossless con Tags\3. Brasil\Airto Moreira - Fingers (1973) {CTI Records 40th Anniversary Edition - 88697 93203 2}\06 - San Francisco River.wav

Pre-gap length 0:00:02.23

Peak level 76.0 %
Extraction speed 2.9 X
Track quality 100.0 %
Test CRC 45D3E464
Copy CRC 45D3E464
Track not present in AccurateRip database
Copy OK

Track 7

Filename G:\Lossless con Tags\3. Brasil\Airto Moreira - Fingers (1973) {CTI Records 40th Anniversary Edition - 88697 93203 2}\07 - Tombo In 7-4.wav

Pre-gap length 0:00:02.74

Peak level 93.3 %
Extraction speed 3.2 X
Track quality 100.0 %
Test CRC F95BC155
Copy CRC F95BC155
Track not present in AccurateRip database
Copy OK


None of the tracks are present in the AccurateRip database

No errors occurred

End of status report

==== Log checksum FBE05CA7621AB0702774980C8C70C71C752DD99A3D1FB21A8E5A67D2FED9C5FC ====


––––––––––––––––––––––––––––––––––––––––
Analyzed: Airto Moreira / Fingers
––––––––––––––––––––––––––––––––––––––––

DR Peak RMS Duration Track
––––––––––––––––––––––––––––––––––––––––
DR11 -0.41 dB -15.02 dB 4:33 01-Fingers (El Rada)
DR10 -1.12 dB -12.90 dB 5:37 02-Romance Of Death
DR12 -1.80 dB -16.34 dB 2:47 03-Merry-Go-Round
DR10 -1.54 dB -13.88 dB 5:51 04-Wind Chant
DR10 -0.18 dB -13.91 dB 6:03 05-Parana
DR10 -2.37 dB -13.95 dB 4:12 06-San Francisco River
DR11 -0.60 dB -14.79 dB 6:23 07-Tombo In 7-4
––––––––––––––––––––––––––––––––––––––––

Number of tracks: 7
Official DR value: DR11

Samplerate: 44100 Hz
Channels: 2
Bits per sample: 16
Bitrate: 828 kbps
Codec: FLAC
================================================================================

Airto Moreira - Fingers (1973) [Repost]
Airto Moreira - Fingers (1973) [Repost]
Airto Moreira - Fingers (1973) [Repost]


Rip by goldenwings