Tags
Language
Tags

Al Bano & Romina Power - Original Album Classics (2019)

Posted By: Rtax
Al Bano & Romina Power - Original Album Classics (2019)

Al Bano & Romina Power - Original Album Classics (2019)
EAC Rip | FLAC (tracks, cue, log, scans) - 2.05 GB | MP3 CBR 320kbps - 654 MB
4:44:20 | Pop Rock, Italo-Disco, Ballad | Label: Sony Music

The "Original Album Classics" series presents the most successful artists with their most important original albums. 5 CDs each in a nice cardboard case. Unified view of the series with large artist photo and 5 album cover images on the front of the box.
This original Al Bano & Romina Power album includes 5 Romantica / Felicita / Sharazan / Prima Notte D'Amore and Love Songs albums with all their hits.
Al Bano and Romina Power are an Italian family duo of the last quarter of the 20th century. World famous for the hits "Sharazan", "Felicità", "Ci sarà", "Libertà". In 1984 they won the main prize of the San Remo festival with the song "Ci sarà".

Tracklist

CD 1 - Romantica

01. Sharazan (4:26)
02. Tu Soltanto Tu (Mi Hai Fatto Innamorare) (3:41)
03. It's Forever (2:57)
04. Magic Oh Magic (3:38)
05. Cato Di Libertá (3:02)
06. Prima Notte d'Amore (Enlacés Sur le Sable) (2:55)
07. Canzone Blu (3:26)
08. Quando un Amore Se Ne Va (3:21)
09. Felicitá (3:14)
10. Al Ritmo Di Beguine (Ti Amo) (3:45)
11. Che Angelo Sei (Amore Mio) (3:34)
12. Ciao, Aufweidersehen, Goodbye (3:40)
13. Abbandonati (3:02)
14. Parigi É Bella (3:17)
15. Angeli (3:31)
16. Ci Sará (3:28)

CD 2 - Felicitá

01. Felicitá (3:14)
02. Prima Notte D'Amore (Enlaces Sur Le Sable) (2:55)
03. Sharazan (4:25)
04. L’amore é (3:58)
05. Meditando (3:11)
06. Canzone Blu (3:26)
07. Magic Oh Magic (3:38)
08. Anche Tu (3:29)
09. Perché (3:57)
10. Grazie (3:35)
11. Che Angelo Sei (3:35)
12. Angeli (3:31)
13. Tu Soltanto Tu (Mi Hai Fatto Innamorare) (3:41)
14. Gli Innamorati (2:52)
15. It’s Forever (2:57)
16. Ciao, Aufwiedersehen, Goodbye (3:38)

CD 3 - Sherazan

01. Sharazan (4:26)
02. Canzone Blu (3:25)
03. Arrivederci A Bahia (3:04)
04. Canto Di Libertá (3:01)
05. Ci Sará (3:30)
06. Felicitá (3:14)
07. Magic Oh Magic (3:38)
08. Ciao, Auf Wiedersehen, Goodbye (3:39)
09. Meditando (3:11)
10. Perché (3:58)
11. Angeli (3:31)
12. Che Angelo Sei (Amore Mio) (3:35)
13. Tu Soltanto Tu (Mi Hai Fatto Innamorare) (3:41)
14. Grazie (3:35)
15. Prima Notte D'Amore (2:54)

CD 4 - Prima Notte D'amore

01. Prima Notte D'amore (2:56)
02. Felicitá (3:14)
03. Canzone Blu (3:25)
04. Sharazan (4:44)
05. Magic Oh Magic (3:38)
06. Anche Tu (3:30)
07. Angeli (3:31)
08. Tu Soltanto Tu (Mi Hai Fatto Innamorare) (3:41)
09. L' Amore E (3:58)
10. Che Angelo Sei (Amore Mio) (3:35)
11. Ci Sará (3:30)
12. Perché (3:58)
13. Quando un Amore Se Ne Va (3:21)
14. Canto Di Libertá (3:01)
15. Abbandonati (3:02)
16. Ciao, Aufwiedersehen, Goodbye (3:38)

CD 5 - Love Songs

01. Ci Sará (3:29)
02. L' Amore É (3:58)
03. Canzone Blu (3:25)
04. Quando Un Amore Se Ne Va (3:21)
05. Gli Innamorati (2:53)
06. Tu Soltanto Tu (3:41)
07. Che Angelo Sei (Amore Mio) (3:35)
08. Angeli (3:31)
09. Prima Notte D'Amore (2:55)
10. Aria Pura (3:14)
11. E Fu Subito Amore (4:02)
12. Perché (3:58)
13. Parigi É Bella (3:17)
14. Io Ti Cerco (3:41)
15. Caro Gesú (3:57)
16. Il Covo Delle Aquile (4:12)
17. Ciao, Aufwiedersehen, Goodbye (3:39)
18. Grazie (3:33)
Exact Audio Copy V1.6 from 23. October 2020

EAC extraction logfile from 30. August 2021, 22:17

Al Bano & Romina Power / Romantica

Used drive : PLEXTOR PX-891SAF PLUS Adapter: 1 ID: 0

Read mode : Secure
Utilize accurate stream : Yes
Defeat audio cache : Yes
Make use of C2 pointers : No

Read offset correction : 6
Overread into Lead-In and Lead-Out : No
Fill up missing offset samples with silence : Yes
Delete leading and trailing silent blocks : No
Null samples used in CRC calculations : Yes
Used interface : Native Win32 interface for Win NT & 2000
Gap handling : Appended to previous track

Used output format : User Defined Encoder
Selected bitrate : 1024 kBit/s
Quality : High
Add ID3 tag : No
Command line compressor : C:\Program Files (x86)\Exact Audio Copy\Flac\flac.exe
Additional command line options : -0 -V -T "ARTIST=%artist%" -T "TITLE=%title%" -T "ALBUM=%albumtitle%" -T "DATE=%year%" -T "TRACKNUMBER=%tracknr%" -T "TOTALTRACKS=%numtracks%" -T "GENRE=%genre%" -T "COMMENT=%comment%" %source%


TOC of the extracted CD

Track | Start | Length | Start sector | End sector
––––––––––––––––––––––––––––-
1 | 0:00.00 | 4:26.12 | 0 | 19961
2 | 4:26.12 | 3:41.13 | 19962 | 36549
3 | 8:07.25 | 2:56.65 | 36550 | 49814
4 | 11:04.15 | 3:37.69 | 49815 | 66158
5 | 14:42.09 | 3:01.55 | 66159 | 79788
6 | 17:43.64 | 2:55.20 | 79789 | 92933
7 | 20:39.09 | 3:25.53 | 92934 | 108361
8 | 24:04.62 | 3:20.38 | 108362 | 123399
9 | 27:25.25 | 3:13.56 | 123400 | 137930
10 | 30:39.06 | 3:44.52 | 137931 | 154782
11 | 34:23.58 | 3:34.37 | 154783 | 170869
12 | 37:58.20 | 3:39.54 | 170870 | 187348
13 | 41:37.74 | 3:02.19 | 187349 | 201017
14 | 44:40.18 | 3:17.28 | 201018 | 215820
15 | 47:57.46 | 3:31.14 | 215821 | 231659
16 | 51:28.60 | 3:27.58 | 231660 | 247242


Track 1

Filename E:\Al Bano & Romina Power - Original Album Series (5 CD Box Set 2019)[FLAC]\CD 1 - Romantica\01 - Sharazan.wav

Pre-gap length 0:00:02.00

Peak level 99.0 %
Extraction speed 1.9 X
Track quality 100.0 %
Test CRC 264A0ECD
Copy CRC 264A0ECD
Accurately ripped (confidence 2) [887E8D55] (AR v2)
Copy OK

Track 2

Filename E:\Al Bano & Romina Power - Original Album Series (5 CD Box Set 2019)[FLAC]\CD 1 - Romantica\02 - Tu Soltanto Tu (Mi Hai Fatto Innamorare).wav

Pre-gap length 0:00:01.15

Peak level 95.6 %
Extraction speed 2.1 X
Track quality 100.0 %
Test CRC 09801FCB
Copy CRC 09801FCB
Accurately ripped (confidence 2) [2258F4B0] (AR v2)
Copy OK

Track 3

Filename E:\Al Bano & Romina Power - Original Album Series (5 CD Box Set 2019)[FLAC]\CD 1 - Romantica\03 - It's Forever.wav

Pre-gap length 0:00:02.08

Peak level 99.0 %
Extraction speed 2.1 X
Track quality 100.0 %
Test CRC 85AA4C33
Copy CRC 85AA4C33
Accurately ripped (confidence 2) [6A7B732B] (AR v2)
Copy OK

Track 4

Filename E:\Al Bano & Romina Power - Original Album Series (5 CD Box Set 2019)[FLAC]\CD 1 - Romantica\04 - Magic Oh Magic.wav

Pre-gap length 0:00:01.43

Peak level 99.0 %
Extraction speed 2.4 X
Track quality 100.0 %
Test CRC 0C6A002A
Copy CRC 0C6A002A
Accurately ripped (confidence 2) [E4D225F5] (AR v2)
Copy OK

Track 5

Filename E:\Al Bano & Romina Power - Original Album Series (5 CD Box Set 2019)[FLAC]\CD 1 - Romantica\05 - Cato Di Libertá.wav

Pre-gap length 0:00:01.35

Peak level 99.0 %
Extraction speed 2.4 X
Track quality 100.0 %
Test CRC 58B68D04
Copy CRC 58B68D04
Accurately ripped (confidence 2) [D2C56CA6] (AR v2)
Copy OK

Track 6

Filename E:\Al Bano & Romina Power - Original Album Series (5 CD Box Set 2019)[FLAC]\CD 1 - Romantica\06 - Prima Notte d'Amore (Enlacés Sur le Sable).wav

Pre-gap length 0:00:01.56

Peak level 99.0 %
Extraction speed 1.7 X
Track quality 99.9 %
Test CRC 2D885F0D
Copy CRC 2D885F0D
Accurately ripped (confidence 2) [1D09CF8B] (AR v2)
Copy OK

Track 7

Filename E:\Al Bano & Romina Power - Original Album Series (5 CD Box Set 2019)[FLAC]\CD 1 - Romantica\07 - Canzone Blu.wav

Pre-gap length 0:00:01.71

Peak level 99.0 %
Extraction speed 2.7 X
Track quality 100.0 %
Test CRC 40C74244
Copy CRC 40C74244
Accurately ripped (confidence 2) [53D22D59] (AR v2)
Copy OK

Track 8

Filename E:\Al Bano & Romina Power - Original Album Series (5 CD Box Set 2019)[FLAC]\CD 1 - Romantica\08 - Quando un Amore Se Ne Va.wav

Pre-gap length 0:00:01.60

Peak level 99.0 %
Extraction speed 2.0 X
Track quality 99.9 %
Test CRC 136FF4B7
Copy CRC 136FF4B7
Accurately ripped (confidence 2) [4D448F42] (AR v2)
Copy OK

Track 9

Filename E:\Al Bano & Romina Power - Original Album Series (5 CD Box Set 2019)[FLAC]\CD 1 - Romantica\09 - Felicitá.wav

Pre-gap length 0:00:01.66

Peak level 94.2 %
Extraction speed 2.9 X
Track quality 100.0 %
Test CRC BABAA965
Copy CRC BABAA965
Accurately ripped (confidence 2) [E2784248] (AR v2)
Copy OK

Track 10

Filename E:\Al Bano & Romina Power - Original Album Series (5 CD Box Set 2019)[FLAC]\CD 1 - Romantica\10 - Al Ritmo Di Beguine (Ti Amo).wav

Pre-gap length 0:00:01.60

Peak level 95.6 %
Extraction speed 3.1 X
Track quality 100.0 %
Test CRC 9A5E627C
Copy CRC 9A5E627C
Accurately ripped (confidence 2) [4CB4346A] (AR v2)
Copy OK

Track 11

Filename E:\Al Bano & Romina Power - Original Album Series (5 CD Box Set 2019)[FLAC]\CD 1 - Romantica\11 - Che Angelo Sei (Amore Mio).wav

Pre-gap length 0:00:01.32

Peak level 99.0 %
Extraction speed 3.1 X
Track quality 100.0 %
Test CRC 6F3B9BD5
Copy CRC 6F3B9BD5
Accurately ripped (confidence 2) [4F7A5EFC] (AR v2)
Copy OK

Track 12

Filename E:\Al Bano & Romina Power - Original Album Series (5 CD Box Set 2019)[FLAC]\CD 1 - Romantica\12 - Ciao, Aufweidersehen, Goodbye.wav

Pre-gap length 0:00:01.46

Peak level 99.0 %
Extraction speed 3.3 X
Track quality 100.0 %
Test CRC FB402390
Copy CRC FB402390
Accurately ripped (confidence 2) [BEF0DF56] (AR v2)
Copy OK

Track 13

Filename E:\Al Bano & Romina Power - Original Album Series (5 CD Box Set 2019)[FLAC]\CD 1 - Romantica\13 - Abbandonati.wav

Pre-gap length 0:00:02.30

Peak level 99.0 %
Extraction speed 2.2 X
Track quality 99.9 %
Test CRC 732B745C
Copy CRC 732B745C
Accurately ripped (confidence 2) [AE062685] (AR v2)
Copy OK

Track 14

Filename E:\Al Bano & Romina Power - Original Album Series (5 CD Box Set 2019)[FLAC]\CD 1 - Romantica\14 - Parigi É Bella.wav

Pre-gap length 0:00:01.47

Peak level 99.0 %
Extraction speed 3.4 X
Track quality 100.0 %
Test CRC 13D42C09
Copy CRC 13D42C09
Accurately ripped (confidence 2) [ECE06607] (AR v2)
Copy OK

Track 15

Filename E:\Al Bano & Romina Power - Original Album Series (5 CD Box Set 2019)[FLAC]\CD 1 - Romantica\15 - Angeli.wav

Pre-gap length 0:00:01.31

Peak level 99.0 %
Extraction speed 3.5 X
Track quality 100.0 %
Test CRC 874F2A33
Copy CRC 874F2A33
Accurately ripped (confidence 2) [DB60EFAB] (AR v2)
Copy OK

Track 16

Filename E:\Al Bano & Romina Power - Original Album Series (5 CD Box Set 2019)[FLAC]\CD 1 - Romantica\16 - Ci Sará.wav

Pre-gap length 0:00:01.74

Peak level 99.0 %
Extraction speed 3.6 X
Track quality 100.0 %
Test CRC 7CBC756D
Copy CRC 7CBC756D
Accurately ripped (confidence 2) [6ACC50BA] (AR v2)
Copy OK


All tracks accurately ripped

No errors occurred

End of status report

==== Log checksum C2100D333901DEA2D846E193653847AA09213A0CB6D6699D1237F81C90EBCCB3 ====

Exact Audio Copy V1.6 from 23. October 2020

EAC extraction logfile from 30. August 2021, 23:24

Al Bano & Romina Power / Felicitá

Used drive : PLEXTOR PX-891SAF PLUS Adapter: 1 ID: 0

Read mode : Secure
Utilize accurate stream : Yes
Defeat audio cache : Yes
Make use of C2 pointers : No

Read offset correction : 6
Overread into Lead-In and Lead-Out : No
Fill up missing offset samples with silence : Yes
Delete leading and trailing silent blocks : No
Null samples used in CRC calculations : Yes
Used interface : Native Win32 interface for Win NT & 2000
Gap handling : Appended to previous track

Used output format : User Defined Encoder
Selected bitrate : 1024 kBit/s
Quality : High
Add ID3 tag : No
Command line compressor : C:\Program Files (x86)\Exact Audio Copy\Flac\flac.exe
Additional command line options : -0 -V -T "ARTIST=%artist%" -T "TITLE=%title%" -T "ALBUM=%albumtitle%" -T "DATE=%year%" -T "TRACKNUMBER=%tracknr%" -T "TOTALTRACKS=%numtracks%" -T "GENRE=%genre%" -T "COMMENT=%comment%" %source%


TOC of the extracted CD

Track | Start | Length | Start sector | End sector
––––––––––––––––––––––––––––-
1 | 0:00.00 | 3:14.11 | 0 | 14560
2 | 3:14.11 | 2:54.47 | 14561 | 27657
3 | 6:08.58 | 4:25.32 | 27658 | 47564
4 | 10:34.15 | 3:57.59 | 47565 | 65398
5 | 14:31.74 | 3:10.69 | 65399 | 79717
6 | 17:42.68 | 3:25.69 | 79718 | 95161
7 | 21:08.62 | 3:37.43 | 95162 | 111479
8 | 24:46.30 | 3:29.19 | 111480 | 127173
9 | 28:15.49 | 3:57.07 | 127174 | 144955
10 | 32:12.56 | 3:34.61 | 144956 | 161066
11 | 35:47.42 | 3:34.64 | 161067 | 177180
12 | 39:22.31 | 3:30.47 | 177181 | 192977
13 | 42:53.03 | 3:40.58 | 192978 | 209535
14 | 46:33.61 | 2:51.74 | 209536 | 222434
15 | 49:25.60 | 2:56.57 | 222435 | 235691
16 | 52:22.42 | 3:37.44 | 235692 | 252010


Track 1

Filename E:\Al Bano & Romina Power - Original Album Series (5 CD Box Set 2019)[FLAC]\CD 2 - Felicitá\01 - Felicitá.wav

Pre-gap length 0:00:02.00

Peak level 94.2 %
Extraction speed 1.8 X
Track quality 100.0 %
Test CRC 9500FFE0
Copy CRC 9500FFE0
Accurately ripped (confidence 2) [2BCE3EB5] (AR v2)
Copy OK

Track 2

Filename E:\Al Bano & Romina Power - Original Album Series (5 CD Box Set 2019)[FLAC]\CD 2 - Felicitá\02 - Prima Notte D'Amore (Enlaces Sur Le Sable).wav

Pre-gap length 0:00:01.40

Peak level 99.0 %
Extraction speed 1.3 X
Track quality 99.9 %
Test CRC 3D084D4F
Copy CRC 3D084D4F
Accurately ripped (confidence 2) [C48CE193] (AR v2)
Copy OK

Track 3

Filename E:\Al Bano & Romina Power - Original Album Series (5 CD Box Set 2019)[FLAC]\CD 2 - Felicitá\03 - Sharazan.wav

Pre-gap length 0:00:01.23

Peak level 99.0 %
Extraction speed 2.2 X
Track quality 100.0 %
Test CRC 0CD5DD57
Copy CRC 0CD5DD57
Accurately ripped (confidence 2) [7E56BF4D] (AR v2)
Copy OK

Track 4

Filename E:\Al Bano & Romina Power - Original Album Series (5 CD Box Set 2019)[FLAC]\CD 2 - Felicitá\04 - L’amore é.wav

Pre-gap length 0:00:01.10

Peak level 94.6 %
Extraction speed 2.4 X
Track quality 100.0 %
Test CRC A4B9A627
Copy CRC A4B9A627
Accurately ripped (confidence 2) [38D36943] (AR v2)
Copy OK

Track 5

Filename E:\Al Bano & Romina Power - Original Album Series (5 CD Box Set 2019)[FLAC]\CD 2 - Felicitá\05 - Meditando.wav

Pre-gap length 0:00:01.30

Peak level 99.0 %
Extraction speed 1.7 X
Track quality 99.9 %
Test CRC 45724B4D
Copy CRC 45724B4D
Accurately ripped (confidence 2) [E1B5AEEE] (AR v2)
Copy OK

Track 6

Filename E:\Al Bano & Romina Power - Original Album Series (5 CD Box Set 2019)[FLAC]\CD 2 - Felicitá\06 - Canzone Blu.wav

Pre-gap length 0:00:01.32

Peak level 99.0 %
Extraction speed 2.6 X
Track quality 100.0 %
Test CRC BF5C0818
Copy CRC BF5C0818
Accurately ripped (confidence 2) [C70CF1E7] (AR v2)
Copy OK

Track 7

Filename E:\Al Bano & Romina Power - Original Album Series (5 CD Box Set 2019)[FLAC]\CD 2 - Felicitá\07 - Magic Oh Magic.wav

Pre-gap length 0:00:02.02

Peak level 99.0 %
Extraction speed 2.8 X
Track quality 100.0 %
Test CRC 0FD4C033
Copy CRC 0FD4C033
Accurately ripped (confidence 2) [8965B7D9] (AR v2)
Copy OK

Track 8

Filename E:\Al Bano & Romina Power - Original Album Series (5 CD Box Set 2019)[FLAC]\CD 2 - Felicitá\08 - Anche Tu.wav

Pre-gap length 0:00:01.09

Peak level 99.0 %
Extraction speed 2.9 X
Track quality 100.0 %
Test CRC 4627A611
Copy CRC 4627A611
Accurately ripped (confidence 2) [23607CEC] (AR v2)
Copy OK

Track 9

Filename E:\Al Bano & Romina Power - Original Album Series (5 CD Box Set 2019)[FLAC]\CD 2 - Felicitá\09 - Perché.wav

Pre-gap length 0:00:01.33

Peak level 99.0 %
Extraction speed 3.0 X
Track quality 100.0 %
Test CRC 5F7A261E
Copy CRC 5F7A261E
Accurately ripped (confidence 2) [46A943F3] (AR v2)
Copy OK

Track 10

Filename E:\Al Bano & Romina Power - Original Album Series (5 CD Box Set 2019)[FLAC]\CD 2 - Felicitá\10 - Grazie.wav

Pre-gap length 0:00:01.26

Peak level 95.7 %
Extraction speed 2.2 X
Track quality 99.9 %
Test CRC EE78D225
Copy CRC EE78D225
Accurately ripped (confidence 2) [A0709380] (AR v2)
Copy OK

Track 11

Filename E:\Al Bano & Romina Power - Original Album Series (5 CD Box Set 2019)[FLAC]\CD 2 - Felicitá\11 - Che Angelo Sei.wav

Pre-gap length 0:00:01.66

Peak level 99.0 %
Extraction speed 3.2 X
Track quality 100.0 %
Test CRC 810529A8
Copy CRC 810529A8
Accurately ripped (confidence 2) [99C5FECE] (AR v2)
Copy OK

Track 12

Filename E:\Al Bano & Romina Power - Original Album Series (5 CD Box Set 2019)[FLAC]\CD 2 - Felicitá\12 - Angeli.wav

Pre-gap length 0:00:01.74

Peak level 99.0 %
Extraction speed 3.3 X
Track quality 100.0 %
Test CRC 399A1525
Copy CRC 399A1525
Accurately ripped (confidence 2) [5DAC73C4] (AR v2)
Copy OK

Track 13

Filename E:\Al Bano & Romina Power - Original Album Series (5 CD Box Set 2019)[FLAC]\CD 2 - Felicitá\13 - Tu Soltanto Tu (Mi Hai Fatto Innamorare).wav

Pre-gap length 0:00:01.33

Peak level 95.6 %
Extraction speed 2.5 X
Track quality 99.9 %
Test CRC 69FD636A
Copy CRC 69FD636A
Accurately ripped (confidence 2) [89153BFD] (AR v2)
Copy OK

Track 14

Filename E:\Al Bano & Romina Power - Original Album Series (5 CD Box Set 2019)[FLAC]\CD 2 - Felicitá\14 - Gli Innamorati.wav

Pre-gap length 0:00:01.53

Peak level 99.0 %
Extraction speed 2.3 X
Track quality 99.9 %
Test CRC FE9E3239
Copy CRC FE9E3239
Accurately ripped (confidence 2) [DCF19512] (AR v2)
Copy OK

Track 15

Filename E:\Al Bano & Romina Power - Original Album Series (5 CD Box Set 2019)[FLAC]\CD 2 - Felicitá\15 - It’s Forever.wav

Pre-gap length 0:00:01.20

Peak level 99.0 %
Extraction speed 3.5 X
Track quality 100.0 %
Test CRC B8C12473
Copy CRC B8C12473
Accurately ripped (confidence 2) [E030F0E5] (AR v2)
Copy OK

Track 16

Filename E:\Al Bano & Romina Power - Original Album Series (5 CD Box Set 2019)[FLAC]\CD 2 - Felicitá\16 - Ciao, Aufwiedersehen, Goodbye.wav

Pre-gap length 0:00:01.35

Peak level 99.0 %
Extraction speed 3.7 X
Track quality 100.0 %
Test CRC CB6412C8
Copy CRC CB6412C8
Accurately ripped (confidence 2) [1A22CE4C] (AR v2)
Copy OK


All tracks accurately ripped

No errors occurred

End of status report

==== Log checksum 221F51411B1DAC20E30ED7DF8831D8D374A03D23C88CE8E154AEA2F079A05B01 ====


Exact Audio Copy V1.6 from 23. October 2020

EAC extraction logfile from 31. August 2021, 10:19

Al Bano & Romina Power / Sharazan

Used drive : PLEXTOR PX-891SAF PLUS Adapter: 1 ID: 0

Read mode : Secure
Utilize accurate stream : Yes
Defeat audio cache : Yes
Make use of C2 pointers : No

Read offset correction : 6
Overread into Lead-In and Lead-Out : No
Fill up missing offset samples with silence : Yes
Delete leading and trailing silent blocks : No
Null samples used in CRC calculations : Yes
Used interface : Native Win32 interface for Win NT & 2000
Gap handling : Appended to previous track

Used output format : User Defined Encoder
Selected bitrate : 1024 kBit/s
Quality : High
Add ID3 tag : No
Command line compressor : C:\Program Files (x86)\Exact Audio Copy\Flac\flac.exe
Additional command line options : -0 -V -T "ARTIST=%artist%" -T "TITLE=%title%" -T "ALBUM=%albumtitle%" -T "DATE=%year%" -T "TRACKNUMBER=%tracknr%" -T "TOTALTRACKS=%numtracks%" -T "GENRE=%genre%" -T "COMMENT=%comment%" %source%


TOC of the extracted CD

Track | Start | Length | Start sector | End sector
––––––––––––––––––––––––––––-
1 | 0:00.00 | 4:26.14 | 0 | 19963
2 | 4:26.14 | 3:25.19 | 19964 | 35357
3 | 7:51.33 | 3:04.07 | 35358 | 49164
4 | 10:55.40 | 3:01.37 | 49165 | 62776
5 | 13:57.02 | 3:29.57 | 62777 | 78508
6 | 17:26.59 | 3:13.63 | 78509 | 93046
7 | 20:40.47 | 3:37.73 | 93047 | 109394
8 | 24:18.45 | 3:39.18 | 109395 | 125837
9 | 27:57.63 | 3:11.13 | 125838 | 140175
10 | 31:09.01 | 3:57.42 | 140176 | 157992
11 | 35:06.43 | 3:31.17 | 157993 | 173834
12 | 38:37.60 | 3:35.02 | 173835 | 189961
13 | 42:12.62 | 3:41.18 | 189962 | 206554
14 | 45:54.05 | 3:34.53 | 206555 | 222657
15 | 49:28.58 | 2:53.44 | 222658 | 235676


Track 1

Filename E:\Al Bano & Romina Power - Original Album Series (5 CD Box Set 2019)[FLAC]\CD 3 - Sherazan\01 - Sharazan.wav

Pre-gap length 0:00:02.00

Peak level 99.0 %
Extraction speed 1.9 X
Track quality 100.0 %
Test CRC 85EE59C4
Copy CRC 85EE59C4
Accurately ripped (confidence 2) [887E8D55] (AR v2)
Copy OK

Track 2

Filename E:\Al Bano & Romina Power - Original Album Series (5 CD Box Set 2019)[FLAC]\CD 3 - Sherazan\02 - Canzone Blu.wav

Pre-gap length 0:00:01.17

Peak level 99.0 %
Extraction speed 2.0 X
Track quality 100.0 %
Test CRC C1E7B6FC
Copy CRC C1E7B6FC
Accurately ripped (confidence 2) [42A6C01D] (AR v2)
Copy OK

Track 3

Filename E:\Al Bano & Romina Power - Original Album Series (5 CD Box Set 2019)[FLAC]\CD 3 - Sherazan\03 - Arrivederci A Bahia.wav

Pre-gap length 0:00:01.27

Peak level 99.0 %
Extraction speed 2.2 X
Track quality 100.0 %
Test CRC 49457B5C
Copy CRC 49457B5C
Accurately ripped (confidence 2) [93C5CD6B] (AR v2)
Copy OK

Track 4

Filename E:\Al Bano & Romina Power - Original Album Series (5 CD Box Set 2019)[FLAC]\CD 3 - Sherazan\04 - Canto Di Libertá.wav

Pre-gap length 0:00:01.39

Peak level 99.0 %
Extraction speed 2.3 X
Track quality 100.0 %
Test CRC 23AAA748
Copy CRC 23AAA748
Accurately ripped (confidence 2) [54DFF678] (AR v2)
Copy OK

Track 5

Filename E:\Al Bano & Romina Power - Original Album Series (5 CD Box Set 2019)[FLAC]\CD 3 - Sherazan\05 - Ci Sará.wav

Pre-gap length 0:00:01.37

Peak level 99.0 %
Extraction speed 2.5 X
Track quality 100.0 %
Test CRC 46B28A2D
Copy CRC 46B28A2D
Accurately ripped (confidence 2) [EF1AA888] (AR v2)
Copy OK

Track 6

Filename E:\Al Bano & Romina Power - Original Album Series (5 CD Box Set 2019)[FLAC]\CD 3 - Sherazan\06 - Felicitá.wav

Pre-gap length 0:00:02.19

Peak level 94.2 %
Extraction speed 1.8 X
Track quality 99.9 %
Test CRC B28A4628
Copy CRC B28A4628
Accurately ripped (confidence 2) [7FB9FF57] (AR v2)
Copy OK

Track 7

Filename E:\Al Bano & Romina Power - Original Album Series (5 CD Box Set 2019)[FLAC]\CD 3 - Sherazan\07 - Magic Oh Magic.wav

Pre-gap length 0:00:01.66

Peak level 99.0 %
Extraction speed 2.7 X
Track quality 100.0 %
Test CRC DA416435
Copy CRC DA416435
Accurately ripped (confidence 2) [3F285C80] (AR v2)
Copy OK

Track 8

Filename E:\Al Bano & Romina Power - Original Album Series (5 CD Box Set 2019)[FLAC]\CD 3 - Sherazan\08 - Ciao, Auf Wiedersehen, Goodbye.wav

Pre-gap length 0:00:01.38

Peak level 99.0 %
Extraction speed 2.9 X
Track quality 100.0 %
Test CRC FDFC6C63
Copy CRC FDFC6C63
Accurately ripped (confidence 2) [8D28DA72] (AR v2)
Copy OK

Track 9

Filename E:\Al Bano & Romina Power - Original Album Series (5 CD Box Set 2019)[FLAC]\CD 3 - Sherazan\09 - Meditando.wav

Pre-gap length 0:00:01.68

Peak level 99.0 %
Extraction speed 2.9 X
Track quality 100.0 %
Test CRC A91E7883
Copy CRC A91E7883
Accurately ripped (confidence 2) [41C80FD8] (AR v2)
Copy OK

Track 10

Filename E:\Al Bano & Romina Power - Original Album Series (5 CD Box Set 2019)[FLAC]\CD 3 - Sherazan\10 - Perché.wav

Pre-gap length 0:00:01.52

Peak level 99.0 %
Extraction speed 3.1 X
Track quality 100.0 %
Test CRC 7189387C
Copy CRC 7189387C
Accurately ripped (confidence 2) [7BE0E843] (AR v2)
Copy OK

Track 11

Filename E:\Al Bano & Romina Power - Original Album Series (5 CD Box Set 2019)[FLAC]\CD 3 - Sherazan\11 - Angeli.wav

Pre-gap length 0:00:01.61

Peak level 99.0 %
Extraction speed 3.2 X
Track quality 100.0 %
Test CRC 0C8385FE
Copy CRC 0C8385FE
Accurately ripped (confidence 2) [D0854BAC] (AR v2)
Copy OK

Track 12

Filename E:\Al Bano & Romina Power - Original Album Series (5 CD Box Set 2019)[FLAC]\CD 3 - Sherazan\12 - Che Angelo Sei (Amore Mio).wav

Pre-gap length 0:00:02.02

Peak level 99.0 %
Extraction speed 3.3 X
Track quality 100.0 %
Test CRC 81A27EDF
Copy CRC 81A27EDF
Accurately ripped (confidence 2) [5375BF2F] (AR v2)
Copy OK

Track 13

Filename E:\Al Bano & Romina Power - Original Album Series (5 CD Box Set 2019)[FLAC]\CD 3 - Sherazan\13 - Tu Soltanto Tu (Mi Hai Fatto Innamorare).wav

Pre-gap length 0:00:02.11

Peak level 95.6 %
Extraction speed 3.4 X
Track quality 100.0 %
Test CRC 4B4D199F
Copy CRC 4B4D199F
Accurately ripped (confidence 2) [F32C600A] (AR v2)
Copy OK

Track 14

Filename E:\Al Bano & Romina Power - Original Album Series (5 CD Box Set 2019)[FLAC]\CD 3 - Sherazan\14 - Grazie.wav

Pre-gap length 0:00:02.13

Peak level 95.7 %
Extraction speed 3.5 X
Track quality 100.0 %
Test CRC 33887655
Copy CRC 33887655
Accurately ripped (confidence 2) [E10AC140] (AR v2)
Copy OK

Track 15

Filename E:\Al Bano & Romina Power - Original Album Series (5 CD Box Set 2019)[FLAC]\CD 3 - Sherazan\15 - Prima Notte D'Amore.wav

Pre-gap length 0:00:01.59

Peak level 99.0 %
Extraction speed 3.4 X
Track quality 100.0 %
Test CRC 17114EE4
Copy CRC 17114EE4
Accurately ripped (confidence 2) [B7E46192] (AR v2)
Copy OK


All tracks accurately ripped

No errors occurred

End of status report

==== Log checksum 339F8BAA91F1FBDACC673F9342EAECB162F2DB3A68262FBCC411C5F8B0840C3A ====


Exact Audio Copy V1.6 from 23. October 2020

EAC extraction logfile from 31. August 2021, 16:02

Al Bano & Romina Power / Prima Notte D'amore

Used drive : PLEXTOR PX-891SAF PLUS Adapter: 1 ID: 0

Read mode : Secure
Utilize accurate stream : Yes
Defeat audio cache : Yes
Make use of C2 pointers : No

Read offset correction : 6
Overread into Lead-In and Lead-Out : No
Fill up missing offset samples with silence : Yes
Delete leading and trailing silent blocks : No
Null samples used in CRC calculations : Yes
Used interface : Native Win32 interface for Win NT & 2000
Gap handling : Appended to previous track

Used output format : User Defined Encoder
Selected bitrate : 1024 kBit/s
Quality : High
Add ID3 tag : No
Command line compressor : C:\Program Files (x86)\Exact Audio Copy\Flac\flac.exe
Additional command line options : -0 -V -T "ARTIST=%artist%" -T "TITLE=%title%" -T "ALBUM=%albumtitle%" -T "DATE=%year%" -T "TRACKNUMBER=%tracknr%" -T "TOTALTRACKS=%numtracks%" -T "GENRE=%genre%" -T "COMMENT=%comment%" %source%


TOC of the extracted CD

Track | Start | Length | Start sector | End sector
––––––––––––––––––––––––––––-
1 | 0:00.00 | 2:55.57 | 0 | 13181
2 | 2:55.57 | 3:13.39 | 13182 | 27695
3 | 6:09.21 | 3:25.25 | 27696 | 43095
4 | 9:34.46 | 4:43.67 | 43096 | 64387
5 | 14:18.38 | 3:38.16 | 64388 | 80753
6 | 17:56.54 | 3:29.40 | 80754 | 96468
7 | 21:26.19 | 3:31.00 | 96469 | 112293
8 | 24:57.19 | 3:41.03 | 112294 | 128871
9 | 28:38.22 | 3:58.14 | 128872 | 146735
10 | 32:36.36 | 3:34.59 | 146736 | 162844
11 | 36:11.20 | 3:29.71 | 162845 | 178590
12 | 39:41.16 | 3:57.69 | 178591 | 196434
13 | 43:39.10 | 3:20.39 | 196435 | 211473
14 | 46:59.49 | 3:00.48 | 211474 | 225021
15 | 50:00.22 | 3:02.20 | 225022 | 238691
16 | 53:02.42 | 3:37.45 | 238692 | 255011


Track 1

Filename E:\Al Bano & Romina Power - Original Album Series (5 CD Box Set 2019)[FLAC]\CD 4 - Prima Notte D'amore\01 - Prima Notte D'amore.wav

Pre-gap length 0:00:02.00

Peak level 99.0 %
Extraction speed 1.7 X
Track quality 100.0 %
Test CRC 19D584D9
Copy CRC 19D584D9
Accurately ripped (confidence 2) [A2FBF570] (AR v2)
Copy OK

Track 2

Filename E:\Al Bano & Romina Power - Original Album Series (5 CD Box Set 2019)[FLAC]\CD 4 - Prima Notte D'amore\02 - Felicitá.wav

Pre-gap length 0:00:01.59

Peak level 94.2 %
Extraction speed 1.4 X
Track quality 99.9 %
Test CRC AAFB7B33
Copy CRC AAFB7B33
Accurately ripped (confidence 2) [9F2D89F7] (AR v2)
Copy OK

Track 3

Filename E:\Al Bano & Romina Power - Original Album Series (5 CD Box Set 2019)[FLAC]\CD 4 - Prima Notte D'amore\03 - Canzone Blu.wav

Pre-gap length 0:00:01.42

Peak level 99.0 %
Extraction speed 2.1 X
Track quality 100.0 %
Test CRC FC8958BF
Copy CRC FC8958BF
Accurately ripped (confidence 2) [39DA7397] (AR v2)
Copy OK

Track 4

Filename E:\Al Bano & Romina Power - Original Album Series (5 CD Box Set 2019)[FLAC]\CD 4 - Prima Notte D'amore\04 - Sharazan.wav

Pre-gap length 0:00:01.33

Peak level 99.0 %
Extraction speed 2.4 X
Track quality 100.0 %
Test CRC B9B61F91
Copy CRC B9B61F91
Accurately ripped (confidence 2) [8AD00EC3] (AR v2)
Copy OK

Track 5

Filename E:\Al Bano & Romina Power - Original Album Series (5 CD Box Set 2019)[FLAC]\CD 4 - Prima Notte D'amore\05 - Magic Oh Magic.wav

Pre-gap length 0:00:01.14

Peak level 99.0 %
Extraction speed 2.5 X
Track quality 100.0 %
Test CRC 93C03691
Copy CRC 93C03691
Accurately ripped (confidence 2) [E5E86B06] (AR v2)
Copy OK

Track 6

Filename E:\Al Bano & Romina Power - Original Album Series (5 CD Box Set 2019)[FLAC]\CD 4 - Prima Notte D'amore\06 - Anche Tu.wav

Pre-gap length 0:00:01.57

Peak level 99.0 %
Extraction speed 2.6 X
Track quality 100.0 %
Test CRC D39C070B
Copy CRC D39C070B
Accurately ripped (confidence 2) [2C52A1B6] (AR v2)
Copy OK

Track 7

Filename E:\Al Bano & Romina Power - Original Album Series (5 CD Box Set 2019)[FLAC]\CD 4 - Prima Notte D'amore\07 - Angeli.wav

Pre-gap length 0:00:01.54

Peak level 99.0 %
Extraction speed 2.7 X
Track quality 100.0 %
Test CRC 576FB3C6
Copy CRC 576FB3C6
Accurately ripped (confidence 2) [435E2AE3] (AR v2)
Copy OK

Track 8

Filename E:\Al Bano & Romina Power - Original Album Series (5 CD Box Set 2019)[FLAC]\CD 4 - Prima Notte D'amore\08 - Tu Soltanto Tu (Mi Hai Fatto Innamorare).wav

Pre-gap length 0:00:01.60

Peak level 95.6 %
Extraction speed 2.9 X
Track quality 100.0 %
Test CRC A368AAF4
Copy CRC A368AAF4
Accurately ripped (confidence 2) [A1824430] (AR v2)
Copy OK

Track 9

Filename E:\Al Bano & Romina Power - Original Album Series (5 CD Box Set 2019)[FLAC]\CD 4 - Prima Notte D'amore\09 - L' Amore E.wav

Pre-gap length 0:00:01.73

Peak level 94.6 %
Extraction speed 3.1 X
Track quality 100.0 %
Test CRC 693E02CD
Copy CRC 693E02CD
Accurately ripped (confidence 2) [0BA05968] (AR v2)
Copy OK

Track 10

Filename E:\Al Bano & Romina Power - Original Album Series (5 CD Box Set 2019)[FLAC]\CD 4 - Prima Notte D'amore\10 - Che Angelo Sei (Amore Mio).wav

Pre-gap length 0:00:01.60

Peak level 99.0 %
Extraction speed 2.2 X
Track quality 99.9 %
Test CRC 52EF2CA7
Copy CRC 52EF2CA7
Accurately ripped (confidence 2) [1E690DDD] (AR v2)
Copy OK

Track 11

Filename E:\Al Bano & Romina Power - Original Album Series (5 CD Box Set 2019)[FLAC]\CD 4 - Prima Notte D'amore\11 - Ci Sará.wav

Pre-gap length 0:00:01.68

Peak level 99.0 %
Extraction speed 3.2 X
Track quality 100.0 %
Test CRC 5D4102F1
Copy CRC 5D4102F1
Accurately ripped (confidence 2) [F67D83A3] (AR v2)
Copy OK

Track 12

Filename E:\Al Bano & Romina Power - Original Album Series (5 CD Box Set 2019)[FLAC]\CD 4 - Prima Notte D'amore\12 - Perché.wav

Pre-gap length 0:00:02.33

Peak level 99.0 %
Extraction speed 3.4 X
Track quality 100.0 %
Test CRC 3113D88E
Copy CRC 3113D88E
Accurately ripped (confidence 2) [3787F108] (AR v2)
Copy OK

Track 13

Filename E:\Al Bano & Romina Power - Original Album Series (5 CD Box Set 2019)[FLAC]\CD 4 - Prima Notte D'amore\13 - Quando un Amore Se Ne Va.wav

Pre-gap length 0:00:02.13

Peak level 99.0 %
Extraction speed 2.4 X
Track quality 99.9 %
Test CRC 097D7E24
Copy CRC 097D7E24
Accurately ripped (confidence 2) [8C7799CE] (AR v2)
Copy OK

Track 14

Filename E:\Al Bano & Romina Power - Original Album Series (5 CD Box Set 2019)[FLAC]\CD 4 - Prima Notte D'amore\14 - Canto Di Libertá.wav

Pre-gap length 0:00:01.67

Peak level 99.0 %
Extraction speed 3.4 X
Track quality 100.0 %
Test CRC 49B0AB96
Copy CRC 49B0AB96
Accurately ripped (confidence 2) [13A8314D] (AR v2)
Copy OK

Track 15

Filename E:\Al Bano & Romina Power - Original Album Series (5 CD Box Set 2019)[FLAC]\CD 4 - Prima Notte D'amore\15 - Abbandonati.wav

Pre-gap length 0:00:01.66

Peak level 99.0 %
Extraction speed 2.4 X
Track quality 99.9 %
Test CRC 531CF41A
Copy CRC 531CF41A
Accurately ripped (confidence 2) [D37E9019] (AR v2)
Copy OK

Track 16

Filename E:\Al Bano & Romina Power - Original Album Series (5 CD Box Set 2019)[FLAC]\CD 4 - Prima Notte D'amore\16 - Ciao, Aufwiedersehen, Goodbye.wav

Pre-gap length 0:00:01.48

Peak level 99.0 %
Extraction speed 3.7 X
Track quality 100.0 %
Test CRC 4431F30D
Copy CRC 4431F30D
Accurately ripped (confidence 2) [C67576DA] (AR v2)
Copy OK


All tracks accurately ripped

No errors occurred

End of status report

==== Log checksum D010EE7DA5A18F5615DC6BC7759E118C2D67E979B2C43F0AFB9C228F3E142B49 ====


Exact Audio Copy V1.6 from 23. October 2020

EAC extraction logfile from 31. August 2021, 23:38

Al Bano & Romina Power / Love Songs

Used drive : PLEXTOR PX-891SAF PLUS Adapter: 1 ID: 0

Read mode : Secure
Utilize accurate stream : Yes
Defeat audio cache : Yes
Make use of C2 pointers : No

Read offset correction : 6
Overread into Lead-In and Lead-Out : No
Fill up missing offset samples with silence : Yes
Delete leading and trailing silent blocks : No
Null samples used in CRC calculations : Yes
Used interface : Native Win32 interface for Win NT & 2000
Gap handling : Appended to previous track

Used output format : User Defined Encoder
Selected bitrate : 1024 kBit/s
Quality : High
Add ID3 tag : No
Command line compressor : C:\Program Files (x86)\Exact Audio Copy\Flac\flac.exe
Additional command line options : -0 -V -T "ARTIST=%artist%" -T "TITLE=%title%" -T "ALBUM=%albumtitle%" -T "DATE=%year%" -T "TRACKNUMBER=%tracknr%" -T "TOTALTRACKS=%numtracks%" -T "GENRE=%genre%" -T "COMMENT=%comment%" %source%


TOC of the extracted CD

Track | Start | Length | Start sector | End sector
––––––––––––––––––––––––––––-
1 | 0:00.00 | 3:29.33 | 0 | 15707
2 | 3:29.33 | 3:58.02 | 15708 | 33559
3 | 7:27.35 | 3:25.28 | 33560 | 48962
4 | 10:52.63 | 3:20.70 | 48963 | 64032
5 | 14:13.58 | 2:52.47 | 64033 | 76979
6 | 17:06.30 | 3:41.29 | 76980 | 93583
7 | 20:47.59 | 3:34.64 | 93584 | 109697
8 | 24:22.48 | 3:30.47 | 109698 | 125494
9 | 27:53.20 | 2:55.16 | 125495 | 138635
10 | 30:48.36 | 3:14.11 | 138636 | 153196
11 | 34:02.47 | 4:01.56 | 153197 | 171327
12 | 38:04.28 | 3:57.44 | 171328 | 189146
13 | 42:01.72 | 3:17.34 | 189147 | 203955
14 | 45:19.31 | 3:40.48 | 203956 | 220503
15 | 49:00.04 | 3:56.39 | 220504 | 238242
16 | 52:56.43 | 4:11.40 | 238243 | 257107
17 | 57:08.08 | 3:39.14 | 257108 | 273546
18 | 60:47.22 | 3:33.14 | 273547 | 289535


Track 1

Filename E:\Al Bano & Romina Power - Original Album Series (5 CD Box Set 2019)[FLAC]\CD 5 - Love Songs\01 - Ci Sará.wav

Pre-gap length 0:00:02.00

Peak level 99.0 %
Extraction speed 2.0 X
Track quality 100.0 %
Test CRC 802C0713
Copy CRC 802C0713
Accurately ripped (confidence 2) [866BAD6F] (AR v2)
Copy OK

Track 2

Filename E:\Al Bano & Romina Power - Original Album Series (5 CD Box Set 2019)[FLAC]\CD 5 - Love Songs\02 - L' Amore É.wav

Pre-gap length 0:00:01.21

Peak level 94.6 %
Extraction speed 1.7 X
Track quality 99.9 %
Test CRC 433EB25D
Copy CRC 433EB25D
Accurately ripped (confidence 2) [C06CBEAD] (AR v2)
Copy OK

Track 3

Filename E:\Al Bano & Romina Power - Original Album Series (5 CD Box Set 2019)[FLAC]\CD 5 - Love Songs\03 - Canzone Blu.wav

Pre-gap length 0:00:01.49

Peak level 99.0 %
Extraction speed 2.4 X
Track quality 100.0 %
Test CRC 30BAD874
Copy CRC 30BAD874
Accurately ripped (confidence 2) [39DA7397] (AR v2)
Copy OK

Track 4

Filename E:\Al Bano & Romina Power - Original Album Series (5 CD Box Set 2019)[FLAC]\CD 5 - Love Songs\04 - Quando Un Amore Se Ne Va.wav

Pre-gap length 0:00:01.36

Peak level 99.0 %
Extraction speed 2.5 X
Track quality 100.0 %
Test CRC 5CB3D5E9
Copy CRC 5CB3D5E9
Accurately ripped (confidence 2) [86D6BE56] (AR v2)
Copy OK

Track 5

Filename E:\Al Bano & Romina Power - Original Album Series (5 CD Box Set 2019)[FLAC]\CD 5 - Love Songs\05 - Gli Innamorati.wav

Pre-gap length 0:00:02.23

Peak level 99.0 %
Extraction speed 1.7 X
Track quality 99.9 %
Test CRC 56274A14
Copy CRC 56274A14
Accurately ripped (confidence 2) [8F8305A4] (AR v2)
Copy OK

Track 6

Filename E:\Al Bano & Romina Power - Original Album Series (5 CD Box Set 2019)[FLAC]\CD 5 - Love Songs\06 - Tu Soltanto Tu.wav

Pre-gap length 0:00:01.68

Peak level 95.6 %
Extraction speed 2.8 X
Track quality 100.0 %
Test CRC 39A6C0A1
Copy CRC 39A6C0A1
Accurately ripped (confidence 2) [947506E1] (AR v2)
Copy OK

Track 7

Filename E:\Al Bano & Romina Power - Original Album Series (5 CD Box Set 2019)[FLAC]\CD 5 - Love Songs\07 - Che Angelo Sei (Amore Mio).wav

Pre-gap length 0:00:02.24

Peak level 99.0 %
Extraction speed 2.9 X
Track quality 100.0 %
Test CRC 1F80D5AF
Copy CRC 1F80D5AF
Accurately ripped (confidence 2) [5CC281EA] (AR v2)
Copy OK

Track 8

Filename E:\Al Bano & Romina Power - Original Album Series (5 CD Box Set 2019)[FLAC]\CD 5 - Love Songs\08 - Angeli.wav

Pre-gap length 0:00:01.74

Peak level 99.0 %
Extraction speed 3.0 X
Track quality 100.0 %
Test CRC 48D4889E
Copy CRC 48D4889E
Accurately ripped (confidence 2) [F0ACC9F1] (AR v2)
Copy OK

Track 9

Filename E:\Al Bano & Romina Power - Original Album Series (5 CD Box Set 2019)[FLAC]\CD 5 - Love Songs\09 - Prima Notte D'Amore.wav

Pre-gap length 0:00:01.33

Peak level 99.0 %
Extraction speed 3.0 X
Track quality 100.0 %
Test CRC 3A52C1E3
Copy CRC 3A52C1E3
Accurately ripped (confidence 2) [C79FF9CA] (AR v2)
Copy OK

Track 10

Filename E:\Al Bano & Romina Power - Original Album Series (5 CD Box Set 2019)[FLAC]\CD 5 - Love Songs\10 - Aria Pura.wav

Pre-gap length 0:00:01.68

Peak level 99.0 %
Extraction speed 3.2 X
Track quality 100.0 %
Test CRC A5A48C7A
Copy CRC A5A48C7A
Accurately ripped (confidence 2) [9C20BB2C] (AR v2)
Copy OK

Track 11

Filename E:\Al Bano & Romina Power - Original Album Series (5 CD Box Set 2019)[FLAC]\CD 5 - Love Songs\11 - E Fu Subito Amore.wav

Pre-gap length 0:00:01.45

Peak level 99.0 %
Extraction speed 3.4 X
Track quality 100.0 %
Test CRC DF742BA3
Copy CRC DF742BA3
Accurately ripped (confidence 2) [BFDAAAF4] (AR v2)
Copy OK

Track 12

Filename E:\Al Bano & Romina Power - Original Album Series (5 CD Box Set 2019)[FLAC]\CD 5 - Love Songs\12 - Perché.wav

Pre-gap length 0:00:01.42

Peak level 99.0 %
Extraction speed 3.5 X
Track quality 100.0 %
Test CRC 074E502F
Copy CRC 074E502F
Accurately ripped (confidence 2) [6C92E836] (AR v2)
Copy OK

Track 13

Filename E:\Al Bano & Romina Power - Original Album Series (5 CD Box Set 2019)[FLAC]\CD 5 - Love Songs\13 - Parigi É Bella.wav

Pre-gap length 0:00:01.64

Peak level 99.0 %
Extraction speed 3.6 X
Track quality 100.0 %
Test CRC F84E4A44
Copy CRC F84E4A44
Accurately ripped (confidence 2) [52874816] (AR v2)
Copy OK

Track 14

Filename E:\Al Bano & Romina Power - Original Album Series (5 CD Box Set 2019)[FLAC]\CD 5 - Love Songs\14 - Io Ti Cerco.wav

Pre-gap length 0:00:01.38

Peak level 95.6 %
Extraction speed 3.7 X
Track quality 100.0 %
Test CRC 1EBC4C0A
Copy CRC 1EBC4C0A
Accurately ripped (confidence 2) [67C82BB9] (AR v2)
Copy OK

Track 15

Filename E:\Al Bano & Romina Power - Original Album Series (5 CD Box Set 2019)[FLAC]\CD 5 - Love Songs\15 - Caro Gesú.wav

Pre-gap length 0:00:01.58

Peak level 99.0 %
Extraction speed 3.8 X
Track quality 100.0 %
Test CRC 76E01005
Copy CRC 76E01005
Accurately ripped (confidence 2) [B053160D] (AR v2)
Copy OK

Track 16

Filename E:\Al Bano & Romina Power - Original Album Series (5 CD Box Set 2019)[FLAC]\CD 5 - Love Songs\16 - Il Covo Delle Aquile.wav

Pre-gap length 0:00:01.64

Peak level 99.0 %
Extraction speed 3.9 X
Track quality 100.0 %
Test CRC 236519FA
Copy CRC 236519FA
Accurately ripped (confidence 2) [6C117CDE] (AR v2)
Copy OK

Track 17

Filename E:\Al Bano & Romina Power - Original Album Series (5 CD Box Set 2019)[FLAC]\CD 5 - Love Songs\17 - Ciao, Aufwiedersehen, Goodbye.wav

Pre-gap length 0:00:01.71

Peak level 99.0 %
Extraction speed 4.0 X
Track quality 100.0 %
Test CRC 9746131E
Copy CRC 9746131E
Accurately ripped (confidence 2) [9440B626] (AR v2)
Copy OK

Track 18

Filename E:\Al Bano & Romina Power - Original Album Series (5 CD Box Set 2019)[FLAC]\CD 5 - Love Songs\18 - Grazie.wav

Pre-gap length 0:00:01.64

Peak level 95.7 %
Extraction speed 4.0 X
Track quality 100.0 %
Test CRC DAA425B4
Copy CRC DAA425B4
Accurately ripped (confidence 2) [46F179C8] (AR v2)
Copy OK


All tracks accurately ripped

No errors occurred

End of status report

==== Log checksum 567E477E187BB2F3035349E9DC748B49CD298BB386B60CFF2B849DEAD195849A ====