Al Stewart - A Piece Of Yesterday: The Anthology (2006)

Posted By: v3122
Al Stewart - A Piece Of Yesterday: The Anthology (2006)

Al Stewart - A Piece Of Yesterday: The Anthology (2006)
EAC | Flac(Image) + Cue + Log & MP3 CBR 320Kbps
2CD | EMI, 9463764742 | ~ 956 or 352 Mb | Scans Included
Folk Rock / Soft Rock

For Al Stewart fans who can't afford the five-CD set Just Yesterday, this 30-song double-disc collection is a fair – but only a fair – alternative. It is lacking a few items, however, that would make it more satisfying. For starters, the studio renditions of "Roads to Moscow" and "Nostradamus" are nowhere to be found, and then there's the absence of Stewart's debut single, "The Elf." Additionally, for anyone familiar with the breadth of Stewart's career and sound, this set runs through them in too brisk fashion, leaving out much that's worth hearing. In the final analysis, if one is weighing which collection to get, it is probably best to sacrifice and save in order to purchase Just Yesterday – anyone forced to ponder such a question really wants the bigger set, after all – and leave this for more casual listeners who won't even have to debate buying it or not.

by Bruce Eder, AMG
Al Stewart - A Piece Of Yesterday: The Anthology (2006):

Al Stewart - A Piece Of Yesterday: The Anthology (2006)

Tracklist CD1:

01. Bedsitter Images (03:21)
02. Samuel, Oh How You’ve Changed! (03:59)
03. In Brooklyn (03:42)
04. Electric Los Angeles Sunset (03:48)
05. Manuscript (04:46)
06. A Small Fruit Song (02:01)
07. Nostradamus / The World Goes to Riyadh (live) (13:09)
08. On the Border (03:21)
09. Flying Sorcery (04:22)
10. Year of the Cat (06:42)
11. Almost Lucy (03:41)
12. Time Passages (06:36)
13. Running Man (05:09)
14. Merlin’s Time (02:45)
15. If It Doesn’t Come Naturally, Leave It (live) (04:28)

Converted to Image (CUETools 2.1.4)

Exact Audio Copy V1.0 beta 1 from 15. November 2010

EAC extraction logfile from 8. October 2011, 16:46

Al Stewart / Piece of Yesterday. The Anthology (disc 1)

Used drive : HL-DT-STDVD-RAM GH22LP20 Adapter: 0 ID: 0

Read mode : Secure
Utilize accurate stream : Yes
Defeat audio cache : Yes
Make use of C2 pointers : No

Read offset correction : 102
Overread into Lead-In and Lead-Out : No
Fill up missing offset samples with silence : Yes
Delete leading and trailing silent blocks : No
Null samples used in CRC calculations : Yes
Used interface : Installed external ASPI interface
Gap handling : Appended to previous track

Used output format : User Defined Encoder
Selected bitrate : 896 kBit/s
Quality : High
Add ID3 tag : No
Command line compressor : C:\Program Files\Exact Audio Copy\FLAC\FLAC.EXE
Additional command line options : -8 -V -T "ARTIST=%a" -T "TITLE=%t" -T "ALBUM=%g" -T "DATE=%y" -T "TRACKNUMBER=%n" -T "GENRE=%m" -T "COMMENT=%e" %j–picture="%i"%j %s -o %d


TOC of the extracted CD

Track | Start | Length | Start sector | End sector
––––––––––––––––––––––––––––-
1 | 0:00.00 | 3:20.40 | 0 | 15039
2 | 3:20.40 | 3:59.45 | 15040 | 33009
3 | 7:20.10 | 3:41.39 | 33010 | 49623
4 | 11:01.49 | 3:46.72 | 49624 | 66645
5 | 14:48.46 | 4:45.61 | 66646 | 88081
6 | 19:34.32 | 2:00.11 | 88082 | 97092
7 | 21:34.43 | 13:08.45 | 97093 | 156237
8 | 34:43.13 | 3:20.35 | 156238 | 171272
9 | 38:03.48 | 4:21.05 | 171273 | 190852
10 | 42:24.53 | 6:41.11 | 190853 | 220938
11 | 49:05.64 | 3:41.56 | 220939 | 237569
12 | 52:47.45 | 6:37.71 | 237570 | 267415
13 | 59:25.41 | 5:08.42 | 267416 | 290557
14 | 64:34.08 | 2:44.60 | 290558 | 302917
15 | 67:18.68 | 4:27.61 | 302918 | 323003


Track 1

Filename I:\Torrents 2\Al Stewart - A Piece Of Yesterday (2006) [FLAC] {2cd}\cd1\01 - Bedsitter Images.wav

Pre-gap length 0:00:02.00

Peak level 99.1 %
Extraction speed 2.6 X
Track quality 100.0 %
Test CRC 9448ADBD
Copy CRC 9448ADBD
Accurately ripped (confidence 6) [1306B088]
Copy OK

Track 2

Filename I:\Torrents 2\Al Stewart - A Piece Of Yesterday (2006) [FLAC] {2cd}\cd1\02 - Samuel, Oh How You've Changed.wav

Pre-gap length 0:00:01.21

Peak level 99.1 %
Extraction speed 2.9 X
Track quality 100.0 %
Test CRC CFA651F2
Copy CRC CFA651F2
Accurately ripped (confidence 6) [9EE260EA]
Copy OK

Track 3

Filename I:\Torrents 2\Al Stewart - A Piece Of Yesterday (2006) [FLAC] {2cd}\cd1\03 - In Brooklyn.wav

Pre-gap length 0:00:00.71

Peak level 99.1 %
Extraction speed 3.1 X
Track quality 100.0 %
Test CRC A8E7D6CA
Copy CRC A8E7D6CA
Accurately ripped (confidence 6) [7D698BB9]
Copy OK

Track 4

Filename I:\Torrents 2\Al Stewart - A Piece Of Yesterday (2006) [FLAC] {2cd}\cd1\04 - Electric Los Angeles Sunset.wav

Pre-gap length 0:00:00.54

Peak level 99.2 %
Extraction speed 3.4 X
Track quality 100.0 %
Test CRC 4F4C380A
Copy CRC 4F4C380A
Accurately ripped (confidence 6) [721352A3]
Copy OK

Track 5

Filename I:\Torrents 2\Al Stewart - A Piece Of Yesterday (2006) [FLAC] {2cd}\cd1\05 - Manuscript.wav

Pre-gap length 0:00:00.64

Peak level 99.0 %
Extraction speed 3.7 X
Track quality 100.0 %
Test CRC 62C9535A
Copy CRC 62C9535A
Accurately ripped (confidence 6) [CAB485A9]
Copy OK

Track 6

Filename I:\Torrents 2\Al Stewart - A Piece Of Yesterday (2006) [FLAC] {2cd}\cd1\06 - A Small Fruit Song.wav

Pre-gap length 0:00:00.37

Peak level 98.6 %
Extraction speed 3.3 X
Track quality 100.0 %
Test CRC 87C4E3AD
Copy CRC 87C4E3AD
Accurately ripped (confidence 6) [393DECE9]
Copy OK

Track 7

Filename I:\Torrents 2\Al Stewart - A Piece Of Yesterday (2006) [FLAC] {2cd}\cd1\07 - Nostradamus , The World Goes to Riyadh (Live).wav

Pre-gap length 0:00:00.45

Peak level 99.1 %
Extraction speed 4.6 X
Track quality 100.0 %
Test CRC 63B00CA0
Copy CRC 63B00CA0
Accurately ripped (confidence 6) [2AE40570]
Copy OK

Track 8

Filename I:\Torrents 2\Al Stewart - A Piece Of Yesterday (2006) [FLAC] {2cd}\cd1\08 - On the Border.wav

Pre-gap length 0:00:01.11

Peak level 98.9 %
Extraction speed 4.3 X
Track quality 100.0 %
Test CRC 9C2E16FD
Copy CRC 9C2E16FD
Accurately ripped (confidence 6) [04A1E6C2]
Copy OK

Track 9

Filename I:\Torrents 2\Al Stewart - A Piece Of Yesterday (2006) [FLAC] {2cd}\cd1\09 - Flying Sorcery.wav

Pre-gap length 0:00:01.02

Peak level 98.2 %
Extraction speed 4.7 X
Track quality 100.0 %
Test CRC 7077FB7C
Copy CRC 7077FB7C
Accurately ripped (confidence 6) [ED632A35]
Copy OK

Track 10

Filename I:\Torrents 2\Al Stewart - A Piece Of Yesterday (2006) [FLAC] {2cd}\cd1\10 - Year of the Cat.wav

Pre-gap length 0:00:00.20

Peak level 97.1 %
Extraction speed 4.7 X
Track quality 99.9 %
Test CRC EF5DB7CF
Copy CRC EF5DB7CF
Accurately ripped (confidence 6) [7134A777]
Copy OK

Track 11

Filename I:\Torrents 2\Al Stewart - A Piece Of Yesterday (2006) [FLAC] {2cd}\cd1\11 - Almost Lucky.wav

Pre-gap length 0:00:00.46

Peak level 99.1 %
Extraction speed 4.9 X
Track quality 100.0 %
Test CRC B9AF10DC
Copy CRC B9AF10DC
Accurately ripped (confidence 6) [4FB008ED]
Copy OK

Track 12

Filename I:\Torrents 2\Al Stewart - A Piece Of Yesterday (2006) [FLAC] {2cd}\cd1\12 - Time Passages.wav

Pre-gap length 0:00:00.09

Peak level 99.1 %
Extraction speed 5.5 X
Track quality 100.0 %
Test CRC 5AB256F9
Copy CRC 5AB256F9
Accurately ripped (confidence 6) [E5F35655]
Copy OK

Track 13

Filename I:\Torrents 2\Al Stewart - A Piece Of Yesterday (2006) [FLAC] {2cd}\cd1\13 - Running Man.wav

Peak level 99.1 %
Extraction speed 5.5 X
Track quality 100.0 %
Test CRC 118A9A19
Copy CRC 118A9A19
Accurately ripped (confidence 6) [DA6BFE85]
Copy OK

Track 14

Filename I:\Torrents 2\Al Stewart - A Piece Of Yesterday (2006) [FLAC] {2cd}\cd1\14 - Merlin's Time.wav

Pre-gap length 0:00:00.46

Peak level 97.5 %
Extraction speed 5.1 X
Track quality 100.0 %
Test CRC AE6A0D75
Copy CRC AE6A0D75
Accurately ripped (confidence 6) [0C0A6C40]
Copy OK

Track 15

Filename I:\Torrents 2\Al Stewart - A Piece Of Yesterday (2006) [FLAC] {2cd}\cd1\15 - If It Doesn't Come Naturally, Leave It (Live).wav

Pre-gap length 0:00:00.56

Peak level 98.3 %
Extraction speed 5.7 X
Track quality 100.0 %
Test CRC 81E78732
Copy CRC 81E78732
Accurately ripped (confidence 4) [9256D7E4]
Copy OK


All tracks accurately ripped

No errors occurred

End of status report

==== Log checksum 08AADDCA83AFACD6FCFFDD95A84E08F01A1EDFD832157A5880E70278FCE9DA15 ====

foobar2000 1.2.9 / Dynamic Range Meter 1.1.1
log date: 2016-04-25 07:46:21

––––––––––––––––––––––––––––––––––––––––
Analyzed: Al Stewart / Piece of Yesterday. The Anthology (disc 1)
––––––––––––––––––––––––––––––––––––––––

DR Peak RMS Duration Track
––––––––––––––––––––––––––––––––––––––––
DR9 -0.08 dB -11.42 dB 3:21 01-Bedsitter Images
DR11 -0.07 dB -12.51 dB 4:00 02-Samuel, Oh How You've Changed
DR11 -0.07 dB -12.93 dB 3:42 03-In Brooklyn
DR11 -0.07 dB -13.19 dB 3:47 04-Electric Los Angeles Sunset
DR11 -0.08 dB -13.58 dB 4:46 05-Manuscript
DR14 -0.12 dB -17.68 dB 2:00 06-A Small Fruit Song
DR13 -0.07 dB -15.97 dB 13:09 07-Nostradamus / The World Goes to Riyadh (Live)
DR12 -0.09 dB -13.66 dB 3:20 08-On the Border
DR11 -0.15 dB -13.38 dB 4:21 09-Flying Sorcery
DR10 -0.25 dB -13.08 dB 6:41 10-Year of the Cat
DR13 -0.08 dB -14.80 dB 3:42 11-Almost Lucky
DR12 -0.08 dB -14.40 dB 6:38 12-Time Passages
DR13 -0.08 dB -15.42 dB 5:09 13-Running Man
DR13 -0.22 dB -15.97 dB 2:45 14-Merlin's Time
DR13 -0.14 dB -15.16 dB 4:28 15-If It Doesn't Come Naturally, Leave It (Live)
––––––––––––––––––––––––––––––––––––––––

Number of tracks: 15
Official DR value: DR12

Samplerate: 44100 Hz
Channels: 2
Bits per sample: 16
Bitrate: 904 kbps
Codec: FLAC

[CUETools log; Date: 25.04.2016 7:46:44; Version: 2.1.4]
[CTDB TOCID: FnKm593SNEK9iLDsIF9.Gx2k6UI-] found.
Track | CTDB Status
1 | (14/14) Accurately ripped
2 | (14/14) Accurately ripped
3 | (14/14) Accurately ripped
4 | (14/14) Accurately ripped
5 | (14/14) Accurately ripped
6 | (14/14) Accurately ripped
7 | (14/14) Accurately ripped
8 | (14/14) Accurately ripped
9 | (14/14) Accurately ripped
10 | (14/14) Accurately ripped
11 | (14/14) Accurately ripped
12 | (14/14) Accurately ripped
13 | (14/14) Accurately ripped
14 | (14/14) Accurately ripped
15 | (14/14) Accurately ripped
[AccurateRip ID: 00264db8-01bc1fae-e010d20f] found.
Track [ CRC | V2 ] Status
01 [1306b088|2eb82f74] (08+02/22) Accurately ripped
02 [9ee260ea|8f138254] (08+02/22) Accurately ripped
03 [7d698bb9|8075db0b] (08+02/22) Accurately ripped
04 [721352a3|b306f238] (08+02/22) Accurately ripped
05 [cab485a9|ba90e8ac] (08+02/22) Accurately ripped
06 [393dece9|8e52c629] (08+02/22) Accurately ripped
07 [2ae40570|9f4a7a3a] (08+02/22) Accurately ripped
08 [04a1e6c2|cd5d3721] (08+02/22) Accurately ripped
09 [ed632a35|6217ef40] (08+02/22) Accurately ripped
10 [7134a777|9c9460f9] (08+02/21) Accurately ripped
11 [4fb008ed|12b0b44d] (08+02/21) Accurately ripped
12 [e5f35655|01113243] (08+02/22) Accurately ripped
13 [da6bfe85|d0acc4cf] (08+02/22) Accurately ripped
14 [0c0a6c40|136d9c1a] (08+02/22) Accurately ripped
15 [9256d7e4|894186e7] (05+03/20) Accurately ripped
Offsetted by -682:
01 [e945db26] (03/22) Accurately ripped
02 [6de20d42] (03/22) Accurately ripped
03 [893fc245] (03/22) Accurately ripped
04 [b8c8613d] (03/22) Accurately ripped
05 [1192a47f] (03/22) Accurately ripped
06 [d07b576d] (03/22) Accurately ripped
07 [17e81d64] (03/22) Accurately ripped
08 [ee035928] (03/22) Accurately ripped
09 [7381fe97] (03/22) Accurately ripped
10 [021ffce9] (03/21) Accurately ripped
11 [f7f89aed] (03/21) Accurately ripped
12 [4e18a0bf] (03/22) Accurately ripped
13 [0bf7f675] (03/22) Accurately ripped
14 [2f785f7a] (03/22) Accurately ripped
15 [82822a2c] (03/20) Accurately ripped
Offsetted by -664:
01 [928a01d0] (04/22) Accurately ripped
02 [f40e5a8a] (04/22) Accurately ripped
03 [341a9309] (04/22) Accurately ripped
04 [b3e9e37b] (04/22) Accurately ripped
05 [c9222d11] (04/22) Accurately ripped
06 [6ba54359] (04/22) Accurately ripped
07 [3d319420] (04/22) Accurately ripped
08 [33ad71ea] (04/22) Accurately ripped
09 [7fbbbced] (04/22) Accurately ripped
10 [435e17ef] (03/21) Accurately ripped
11 [b53800ed] (03/21) Accurately ripped
12 [078ba9e4] (04/22) Accurately ripped
13 [cdcca42e] (04/22) Accurately ripped
14 [408d7e98] (04/22) Accurately ripped
15 [f74a37c4] (04/20) Accurately ripped

Track Peak [ CRC32 ] [W/O NULL] [ LOG ]
– 99,2 [E41F2650] [19402501]
01 99,1 [9448ADBD] [EA3D1AB8] CRC32
02 99,1 [CFA651F2] [85C27D97] CRC32
03 99,1 [A8E7D6CA] [E0361453] CRC32
04 99,2 [4F4C380A] [A81A1F5E] CRC32
05 99,0 [62C9535A] [989BBE87] CRC32
06 98,6 [87C4E3AD] [546B8B4E] CRC32
07 99,1 [63B00CA0] [96B88282] CRC32
08 98,9 [9C2E16FD] [97AFB946] CRC32
09 98,2 [7077FB7C] [B86323BA] CRC32
10 97,1 [EF5DB7CF] [08D33404] CRC32
11 99,1 [B9AF10DC] [F6A5538D] CRC32
12 99,1 [5AB256F9] [154EE403] CRC32
13 99,1 [118A9A19] [97EE7E49] CRC32
14 97,5 [AE6A0D75] [B9560E8B] CRC32
15 98,3 [81E78732] [621CA897] CRC32

Al Stewart - A Piece Of Yesterday: The Anthology (2006)

Tracklist CD2:

01. Last Days of the Century (06:09)
02. Helen and Cassandra (04:45)
03. Trains (08:17)
04. Night Train to Munich (04:26)
05. Marion the Chatelaine (03:43)
06. Laughing Into 1939 (04:16)
07. House of Clocks (02:59)
08. Turning It Into Water (04:35)
09. Down in the Cellars (03:09)
10. Mr Lear (03:01)
11. Katherine of Oregon (03:08)
12. Soho (Needless to Say) (alternate version) (04:01)
13. The Coldest Winter in Memory (05:49)
14. Denise at 16 (03:18)
15. Roads to Moscow (live) (08:48)

Converted to Image (CUETools 2.1.4)

Exact Audio Copy V1.0 beta 1 from 15. November 2010

EAC extraction logfile from 9. October 2011, 14:53

Al Stewart / Piece of Yesterday. The Anthology (disc 2)

Used drive : HL-DT-STDVD-RAM GH22LP20 Adapter: 0 ID: 0

Read mode : Secure
Utilize accurate stream : Yes
Defeat audio cache : Yes
Make use of C2 pointers : No

Read offset correction : 102
Overread into Lead-In and Lead-Out : No
Fill up missing offset samples with silence : Yes
Delete leading and trailing silent blocks : No
Null samples used in CRC calculations : Yes
Used interface : Installed external ASPI interface
Gap handling : Appended to previous track

Used output format : User Defined Encoder
Selected bitrate : 896 kBit/s
Quality : High
Add ID3 tag : No
Command line compressor : C:\Program Files\Exact Audio Copy\FLAC\FLAC.EXE
Additional command line options : -8 -V -T "ARTIST=%a" -T "TITLE=%t" -T "ALBUM=%g" -T "DATE=%y" -T "TRACKNUMBER=%n" -T "GENRE=%m" -T "COMMENT=%e" %j–picture="%i"%j %s -o %d


TOC of the extracted CD

Track | Start | Length | Start sector | End sector
––––––––––––––––––––––––––––-
1 | 0:00.00 | 6:08.35 | 0 | 27634
2 | 6:08.35 | 4:44.56 | 27635 | 48990
3 | 10:53.16 | 8:16.08 | 48991 | 86198
4 | 19:09.24 | 4:25.55 | 86199 | 106128
5 | 23:35.04 | 3:42.11 | 106129 | 122789
6 | 27:17.15 | 4:15.13 | 122790 | 141927
7 | 31:32.28 | 2:58.35 | 141928 | 155312
8 | 34:30.63 | 4:34.42 | 155313 | 175904
9 | 39:05.30 | 3:08.18 | 175905 | 190022
10 | 42:13.48 | 3:00.44 | 190023 | 203566
11 | 45:14.17 | 3:07.54 | 203567 | 217645
12 | 48:21.71 | 4:00.22 | 217646 | 235667
13 | 52:22.18 | 5:48.60 | 235668 | 261827
14 | 58:11.03 | 3:17.70 | 261828 | 276672
15 | 61:28.73 | 8:47.09 | 276673 | 316206


Track 1

Filename I:\Torrents 2\Al Stewart - A Piece Of Yesterday (2006) [FLAC] {2cd}\cd2\01 - Last Day Of The Century.wav

Pre-gap length 0:00:02.00

Peak level 87.1 %
Extraction speed 1.8 X
Track quality 100.0 %
Test CRC 14D2134C
Copy CRC 14D2134C
Accurately ripped (confidence 5) [4D71CA1D]
Copy OK

Track 2

Filename I:\Torrents 2\Al Stewart - A Piece Of Yesterday (2006) [FLAC] {2cd}\cd2\02 - Helen And Cassandra.wav

Pre-gap length 0:00:00.27

Peak level 98.7 %
Extraction speed 2.0 X
Track quality 100.0 %
Test CRC F32E79A7
Copy CRC F32E79A7
Accurately ripped (confidence 5) [AFFB8C86]
Copy OK

Track 3

Filename I:\Torrents 2\Al Stewart - A Piece Of Yesterday (2006) [FLAC] {2cd}\cd2\03 - Trains.wav

Pre-gap length 0:00:00.41

Peak level 92.8 %
Extraction speed 2.2 X
Track quality 99.9 %
Test CRC 0ACDDE53
Copy CRC 0ACDDE53
Accurately ripped (confidence 5) [26B38C43]
Copy OK

Track 4

Filename I:\Torrents 2\Al Stewart - A Piece Of Yesterday (2006) [FLAC] {2cd}\cd2\04 - Night Train To Munich.wav

Pre-gap length 0:00:00.18

Peak level 74.3 %
Extraction speed 2.4 X
Track quality 100.0 %
Test CRC 2A603539
Copy CRC 2A603539
Accurately ripped (confidence 5) [3E517CD2]
Copy OK

Track 5

Filename I:\Torrents 2\Al Stewart - A Piece Of Yesterday (2006) [FLAC] {2cd}\cd2\05 - Marion The Chatelaine.wav

Pre-gap length 0:00:00.33

Peak level 93.1 %
Extraction speed 2.1 X
Track quality 99.9 %
Test CRC 2253B90C
Copy CRC 2253B90C
Accurately ripped (confidence 5) [8491A22D]
Copy OK

Track 6

Filename I:\Torrents 2\Al Stewart - A Piece Of Yesterday (2006) [FLAC] {2cd}\cd2\06 - Laughing Into 1939.wav

Pre-gap length 0:00:00.53

Peak level 90.1 %
Extraction speed 2.6 X
Track quality 100.0 %
Test CRC 3588299D
Copy CRC 3588299D
Accurately ripped (confidence 5) [A891DB50]
Copy OK

Track 7

Filename I:\Torrents 2\Al Stewart - A Piece Of Yesterday (2006) [FLAC] {2cd}\cd2\07 - House Of Clocks.wav

Pre-gap length 0:00:00.24

Peak level 73.0 %
Extraction speed 2.5 X
Track quality 100.0 %
Test CRC FB99235F
Copy CRC FB99235F
Accurately ripped (confidence 5) [7BC1F0F6]
Copy OK

Track 8

Filename I:\Torrents 2\Al Stewart - A Piece Of Yesterday (2006) [FLAC] {2cd}\cd2\08 - Turning It Into Water.wav

Pre-gap length 0:00:00.16

Peak level 74.6 %
Extraction speed 2.8 X
Track quality 100.0 %
Test CRC 3A0E35B4
Copy CRC 3A0E35B4
Accurately ripped (confidence 5) [9FEB2FE3]
Copy OK

Track 9

Filename I:\Torrents 2\Al Stewart - A Piece Of Yesterday (2006) [FLAC] {2cd}\cd2\09 - Down In The Cellars.wav

Pre-gap length 0:00:00.29

Peak level 91.3 %
Extraction speed 2.7 X
Track quality 100.0 %
Test CRC E20EB074
Copy CRC E20EB074
Accurately ripped (confidence 5) [D58534D8]
Copy OK

Track 10

Filename I:\Torrents 2\Al Stewart - A Piece Of Yesterday (2006) [FLAC] {2cd}\cd2\10 - Mr. Lear.wav

Pre-gap length 0:00:00.36

Peak level 73.2 %
Extraction speed 2.8 X
Track quality 100.0 %
Test CRC B66645EA
Copy CRC B66645EA
Accurately ripped (confidence 5) [B2C879E1]
Copy OK

Track 11

Filename I:\Torrents 2\Al Stewart - A Piece Of Yesterday (2006) [FLAC] {2cd}\cd2\11 - Katherine Of Oregon.wav

Pre-gap length 0:00:00.14

Peak level 84.6 %
Extraction speed 2.9 X
Track quality 100.0 %
Test CRC 8A3EB347
Copy CRC 8A3EB347
Accurately ripped (confidence 5) [E24493E9]
Copy OK

Track 12

Filename I:\Torrents 2\Al Stewart - A Piece Of Yesterday (2006) [FLAC] {2cd}\cd2\12 - Soho, Needless To Say (Alternate Version).wav

Pre-gap length 0:00:00.24

Peak level 75.4 %
Extraction speed 3.1 X
Track quality 100.0 %
Test CRC 78DE3AD5
Copy CRC 78DE3AD5
Accurately ripped (confidence 5) [ADDB7060]
Copy OK

Track 13

Filename I:\Torrents 2\Al Stewart - A Piece Of Yesterday (2006) [FLAC] {2cd}\cd2\13 - The Coldest Winter In Memory.wav

Pre-gap length 0:00:00.43

Peak level 98.9 %
Extraction speed 3.3 X
Track quality 100.0 %
Test CRC 6A8146B5
Copy CRC 6A8146B5
Accurately ripped (confidence 5) [32334C53]
Copy OK

Track 14

Filename I:\Torrents 2\Al Stewart - A Piece Of Yesterday (2006) [FLAC] {2cd}\cd2\14 - Denise At 16.wav

Pre-gap length 0:00:00.35

Peak level 97.6 %
Extraction speed 3.2 X
Track quality 100.0 %
Test CRC CE9F3B87
Copy CRC CE9F3B87
Accurately ripped (confidence 5) [82C865E2]
Copy OK

Track 15

Filename I:\Torrents 2\Al Stewart - A Piece Of Yesterday (2006) [FLAC] {2cd}\cd2\15 - Roads To Moscow (Live).wav

Pre-gap length 0:00:00.48

Peak level 98.1 %
Extraction speed 3.7 X
Track quality 100.0 %
Test CRC 3CF8163E
Copy CRC 3CF8163E
Accurately ripped (confidence 5) [AFC2D847]
Copy OK


All tracks accurately ripped

No errors occurred

End of status report

==== Log checksum DF3D1EC675B53D55622C75E8F01E2CF1E137D6B16E13C237CFF7FF09ED48C42B ====

foobar2000 1.2.9 / Dynamic Range Meter 1.1.1
log date: 2016-04-25 07:45:59

––––––––––––––––––––––––––––––––––––––––
Analyzed: Al Stewart / Piece of Yesterday. The Anthology (disc 2)
––––––––––––––––––––––––––––––––––––––––

DR Peak RMS Duration Track
––––––––––––––––––––––––––––––––––––––––
DR12 -1.20 dB -14.83 dB 6:08 01-Last Day Of The Century
DR14 -0.11 dB -17.37 dB 4:45 02-Helen And Cassandra
DR14 -0.64 dB -15.86 dB 8:16 03-Trains
DR8 -2.57 dB -11.91 dB 4:26 04-Night Train To Munich
DR10 -0.62 dB -12.52 dB 3:42 05-Marion The Chatelaine
DR9 -0.90 dB -12.88 dB 4:15 06-Laughing Into 1939
DR10 -2.73 dB -13.66 dB 2:58 07-House Of Clocks
DR9 -2.54 dB -12.88 dB 4:35 08-Turning It Into Water
DR11 -0.79 dB -13.30 dB 3:08 09-Down In The Cellars
DR9 -2.70 dB -12.66 dB 3:01 10-Mr. Lear
DR10 -1.45 dB -13.22 dB 3:08 11-Katherine Of Oregon
DR11 -2.45 dB -14.49 dB 4:00 12-Soho, Needless To Say (Alternate Version)
DR12 -0.10 dB -15.66 dB 5:49 13-The Coldest Winter In Memory
DR12 -0.21 dB -14.56 dB 3:18 14-Denise At 16
DR11 -0.16 dB -14.19 dB 8:47 15-Roads To Moscow (Live)
––––––––––––––––––––––––––––––––––––––––

Number of tracks: 15
Official DR value: DR11

Samplerate: 44100 Hz
Channels: 2
Bits per sample: 16
Bitrate: 889 kbps
Codec: FLAC

[CUETools log; Date: 25.04.2016 7:46:57; Version: 2.1.4]
[CTDB TOCID: wzX3iVpslBpOSTBLI97oPgg.fdM-] found.
Track | CTDB Status
1 | (14/14) Accurately ripped
2 | (14/14) Accurately ripped
3 | (14/14) Accurately ripped
4 | (14/14) Accurately ripped
5 | (14/14) Accurately ripped
6 | (14/14) Accurately ripped
7 | (14/14) Accurately ripped
8 | (14/14) Accurately ripped
9 | (14/14) Accurately ripped
10 | (14/14) Accurately ripped
11 | (14/14) Accurately ripped
12 | (14/14) Accurately ripped
13 | (14/14) Accurately ripped
14 | (14/14) Accurately ripped
15 | (14/14) Accurately ripped
[AccurateRip ID: 00272966-01b02e90-d310780f] found.
Track [ CRC | V2 ] Status
01 [4d71ca1d|a67c82cc] (07+03/22) Accurately ripped
02 [affb8c86|fc3e1c01] (07+03/22) Accurately ripped
03 [26b38c43|814bbaf0] (07+03/22) Accurately ripped
04 [3e517cd2|dcbeeacb] (07+03/22) Accurately ripped
05 [8491a22d|0c8ceadc] (07+03/22) Accurately ripped
06 [a891db50|27831146] (07+03/22) Accurately ripped
07 [7bc1f0f6|b272cb67] (07+03/22) Accurately ripped
08 [9feb2fe3|19d0dc52] (06+03/21) Accurately ripped
09 [d58534d8|29efdb4b] (07+03/22) Accurately ripped
10 [b2c879e1|2dec6669] (06+03/21) Accurately ripped
11 [e24493e9|676ad4f7] (06+03/21) Accurately ripped
12 [addb7060|b5c81bf8] (06+03/21) Accurately ripped
13 [32334c53|8c652b80] (06+03/21) Accurately ripped
14 [82c865e2|738bc409] (07+03/22) Accurately ripped
15 [afc2d847|2f7a8ac9] (06+02/19) Accurately ripped
Offsetted by -750:
01 [b5502ca7] (03/22) Accurately ripped
02 [42f9d044] (03/22) Accurately ripped
03 [202030f1] (03/22) Accurately ripped
04 [dd1a6fac] (03/22) Accurately ripped
05 [1a9e2377] (03/22) Accurately ripped
06 [8b097f30] (03/22) Accurately ripped
07 [36c60774] (03/22) Accurately ripped
08 [75c91333] (03/21) Accurately ripped
09 [28b50726] (03/22) Accurately ripped
10 [6b49882f] (03/21) Accurately ripped
11 [a9bdd989] (03/21) Accurately ripped
12 [73577378] (03/21) Accurately ripped
13 [3a0f2043] (03/21) Accurately ripped
14 [486732f0] (03/22) Accurately ripped
15 [76210c7b] (03/19) Accurately ripped
Offsetted by -664:
01 [11d9d4e5] (04/22) Accurately ripped
02 [ee895f5e] (04/22) Accurately ripped
03 [631931db] (04/22) Accurately ripped
04 [265f8dda] (04/22) Accurately ripped
05 [35c913f5] (04/22) Accurately ripped
06 [d15328d0] (04/22) Accurately ripped
07 [9a293ace] (04/22) Accurately ripped
08 [7e07b223] (04/21) Accurately ripped
09 [4adbeaf0] (04/22) Accurately ripped
10 [bc87dff9] (04/21) Accurately ripped
11 [9b0f8469] (04/21) Accurately ripped
12 [aa854e40] (04/21) Accurately ripped
13 [bb8c1b13] (04/21) Accurately ripped
14 [0d8fb2fa] (04/22) Accurately ripped
15 [2e3b1c57] (03/19) Accurately ripped

Track Peak [ CRC32 ] [W/O NULL] [ LOG ]
– 98,9 [C3D2248F] [50EE781C]
01 87,1 [14D2134C] [A98067C2] CRC32
02 98,7 [F32E79A7] [276F92C2] CRC32
03 92,8 [0ACDDE53] [BC09958D] CRC32
04 74,3 [2A603539] [69BD8CAC] CRC32
05 93,1 [2253B90C] [86F922BB] CRC32
06 90,1 [3588299D] [72C4B883] CRC32
07 73,0 [FB99235F] [0C5E3413] CRC32
08 74,6 [3A0E35B4] [019CE1D8] CRC32
09 91,3 [E20EB074] [2E1A4AB0] CRC32
10 73,2 [B66645EA] [EE11B8F0] CRC32
11 84,6 [8A3EB347] [4EB0C554] CRC32
12 75,4 [78DE3AD5] [D6DA1EA4] CRC32
13 98,9 [6A8146B5] [7BB6638F] CRC32
14 97,6 [CE9F3B87] [8E1C2BEB] CRC32
15 98,1 [3CF8163E] [DB9172C2] CRC32

Al Stewart - A Piece Of Yesterday: The Anthology (2006)

All thanks go to the original releaser

Download Al Stewart - A Piece Of Yesterday: The Anthology (2006):