Subcategories

Al Stewart - The Best Of Al Stewart: Songs From The Radio (1985)

Posted By: v3122
Al Stewart - The Best Of Al Stewart: Songs From The Radio (1985)

Al Stewart - The Best Of Al Stewart: Songs From The Radio (1985)
EAC | Flac(Image) + Cue + Log & MP3 CBR 320Kbps
1992 | Arista, ARDCD-8433 | ~ 457 or 119 Mb | Scans Included
Pop Rock / Folk-Rock

Eleven songs from Al Stewart's albums Past, Present and Future (1974) through Live Indian Summer (1981), remastered in 1992, which gives it more than decent sound. "Roads to Moscow" is drawn from Past, Present and Future (the inlay card erroneously lists Live Indian Summer), and "Year of the Cat" is the hit studio version, but the producers have chosen live versions of "Nostradamus" (which emphasizes its Tommy-like central riff) and "On the Border," rather than their superior originals, probably to retain the value of the original albums. Includes full lyrics (but no instrumental credits) and notes by David Dasch, which may explain too much, removing the mystery from some of the material.

by Bruce Eder, AMG
Al Stewart - The Best Of Al Stewart: Songs From The Radio (1985):

Al Stewart - The Best Of Al Stewart: Songs From The Radio (1985)

Tracklist:

01. Time Passages (06:39)
02. Running Man (04:18)
03. Delia's Gone (02:52)
04. Roads To Moscow (07:58)
05. Song On The Radio (06:22)
06. Midnight Rocks (03:56)
07. Lord Grenville (05:01)
08. Merlin's Time (02:42)
09. Nostradamus - Part One / The World Goes To Riyadh / Nostradamus - Part Two (Live Versions) (13:06)
10 On The Border (Live Version) (04:33)
11 Year Of The Year Cat (06:42)

EAC extraction logfile from 27. August 2007, 8:27 for CD
Al Stewart / The Best of Al Stewart- Songs From the Radio

Used drive : HL-DT-STDVD-ROM GDR8163B Adapter: 1 ID: 0
Read mode : Secure with NO C2, accurate stream, disable cache
Read offset correction : 102
Overread into Lead-In and Lead-Out : No

Used output format : Internal WAV Routines
44.100 Hz; 16 Bit; Stereo

Other options :
Fill up missing offset samples with silence : Yes
Delete leading and trailing silent blocks : No
Native Win32 interface for Win NT & 2000


Range status and errors
Selected range
Filename C:\Documents and Settings\user\My Documents\Al Stewart - The Best of Al Stewart- Songs From the Radio.by.rat.eac-ape\Al Stewart - The Best of Al Stewart- Songs From the Radio.wav


Peak level 100.0 %
Range quality 100.0 %
CRC 0FEF32ED
Copy OK

No errors occurred

End of status report

foobar2000 1.2.9 / Dynamic Range Meter 1.1.1
log date: 2016-05-05 09:57:33

––––––––––––––––––––––––––––––––––––––––
Analyzed: Al Stewart / The Best of Al Stewart- Songs From the Radio
––––––––––––––––––––––––––––––––––––––––

DR Peak RMS Duration Track
––––––––––––––––––––––––––––––––––––––––
DR13 0.00 dB -15.86 dB 6:41 01-Time Passages
DR14 -0.81 dB -16.92 dB 4:17 02-Running Man
DR15 0.00 dB -17.29 dB 2:52 03-Delia's Gone
DR11 -0.98 dB -16.35 dB 7:58 04-Roads To Moscow
DR15 -0.06 dB -16.89 dB 6:22 05-Song On the Radio
DR12 -0.45 dB -15.91 dB 3:56 06-Midnight Rocks
DR13 -1.22 dB -17.15 dB 5:01 07-Lord Grenville
DR13 -1.81 dB -18.82 dB 2:43 08-Merlin's Time
DR16 -0.66 dB -20.64 dB 13:06 09-Nostradamus Part One- The World Goes To Riyadh; Nostradamus Part Two (Live Ve…
DR15 -0.31 dB -19.49 dB 4:32 10-On the Border (Live Version)
DR13 -0.15 dB -18.19 dB 6:43 11-Year of the Cat
––––––––––––––––––––––––––––––––––––––––

Number of tracks: 11
Official DR value: DR14

Samplerate: 44100 Hz
Channels: 2
Bits per sample: 16
Bitrate: 846 kbps
Codec: FLAC

[CUETools log; Date: 05.05.2016 9:57:52; Version: 2.1.4]
[CTDB TOCID: fyK6CMJXNSVXqdsEvOQZQ5XwPAg-] found.
Track | CTDB Status
1 | (1/1) Accurately ripped
2 | (1/1) Accurately ripped
3 | (1/1) Accurately ripped
4 | (1/1) Accurately ripped
5 | (1/1) Accurately ripped
6 | (1/1) Accurately ripped
7 | (1/1) Accurately ripped
8 | (1/1) Accurately ripped
9 | (1/1) Differs in 1225 samples @09:53:71,09:54:15,09:54:34-09:54:35,09:54:53-09:54:54,09:54:73,09:55:17,09:55:56,09:56:00,09:56:19-09:56:20,09:56:39,09:56:58,09:57:02-09:57:03,09:57:22,09:57:41,09:57:60-09:57:61,09:58:05,09:58:24,09:58:43-09:58:44,09:58:63,09:59:07,09:59:26-09:59:27,09:59:46,09:59:65,10:00:10,10:00:29,10:00:48,10:00:68,10:01:12,10:01:31,10:01:51,10:01:70,10:02:14-10:02:15,10:02:34,10:02:72-10:02:73,10:03:36,10:03:55-10:03:56,10:04:00,10:04:19,10:04:38-10:04:39,10:04:58,10:05:02,10:05:21-10:05:22,10:05:41,10:05:60,10:06:04-10:06:05,10:06:24,10:06:63,10:07:26-10:07:27,10:07:46,10:07:65,10:08:09-10:08:10,10:08:48,10:08:67-10:08:68,10:09:12,10:09:31-10:09:32,10:09:51,10:09:70,10:10:14-10:10:15,10:10:34,10:11:55-10:11:56,10:12:00,10:12:19-10:12:20,10:12:39,10:12:58,10:13:02-10:13:03,10:13:41,10:13:61,10:14:05,10:14:24,10:14:63,10:15:07-10:15:08,10:15:27,10:15:46,10:15:65-10:15:66,10:16:10,10:16:30,10:16:49,10:17:12-10:17:13,10:17:51,10:18:15,10:18:73,10:19:17-10:19:18,10:19:37,10:19:56-10:19:57,10:20:01,10:21:23,10:21:61,10:22:25,10:23:08-10:23:09
10 | (1/1) Accurately ripped
11 | (1/1) Accurately ripped
[AccurateRip ID: 0019102b-00db1876-9d0f0a0b] found.
Track [ CRC | V2 ] Status
01 [6882221e|f641e7bd] (0+0/4) No match
02 [366bcdd2|4b80aa88] (0+0/4) No match
03 [13081a63|89980655] (0+0/4) No match
04 [f6702158|2db67235] (0+0/4) No match
05 [7669c183|d1775478] (0+0/4) No match
06 [df203fb8|40a41708] (0+0/4) No match
07 [dee24738|7b4aa7df] (0+0/4) No match
08 [099ba826|5c318306] (0+0/4) No match
09 [0650759f|b3ce499e] (0+0/2) No match
10 [3d7028c6|4af404bd] (0+0/2) No match
11 [b4c87367|2b1203f6] (0+0/4) No match
Offsetted by -267:
01 [0b4f084a] (2/4) Accurately ripped
02 [1269f453] (2/4) Accurately ripped
03 [0a1e1d36] (2/4) Accurately ripped
04 [f49bc439] (2/4) Accurately ripped
05 [294afff4] (2/4) Accurately ripped
06 [3b500713] (2/4) Accurately ripped
07 [5fc4f341] (2/4) Accurately ripped
08 [64359272] (2/4) Accurately ripped
09 [abf077bf] (0/2) No match (V2 was not tested)
10 [50047461] (0/2) No match (V2 was not tested)
11 [df7ef6c5] (2/4) Accurately ripped

Track Peak [ CRC32 ] [W/O NULL] [ LOG ]
– 100,0 [0FEF32ED] [5C75119C] CRC32
01 100,0 [D21D480C] [5D979520]
02 91,0 [A4E61B6B] [DEE9C975]
03 100,0 [C2D530F5] [279D0769]
04 89,2 [F2582C6B] [C9B74880]
05 99,3 [AEB35237] [BC8819B7]
06 94,9 [C8F72410] [3FE39CE7]
07 86,8 [48CEFD79] [10F0E949]
08 81,1 [7E4E6983] [3F8C5226]
09 92,6 [7632FE4D] [5EA90FC6]
10 96,5 [82CFFB97] [AB1A1D32]
11 98,3 [5F16E723] [54ACCF2B]

Al Stewart - The Best Of Al Stewart: Songs From The Radio (1985)

All thanks go to the original releaser

Al Stewart in my Blog

Download Al Stewart - The Best Of Al Stewart: Songs From The Radio (1985):