Subcategories

Al DiMeola, John McLaughlin & Paco De Lucia – Friday Night In San Francisco Live (1980)(Columbia Legacy SBM Gold Disc)

Posted By: janwal46
Al DiMeola, John McLaughlin & Paco De Lucia – Friday Night In San Francisco Live (1980)(Columbia Legacy SBM Gold Disc)

Al DiMeola, John McLaughlin & Paco De Lucia – Friday Night In San Francisco Live (1980)(Columbia Legacy SBM Gold Disc)

Al DiMeola, John McLaughlin & Paco De Lucia – Friday Night In San Francisco Live (1980)(Columbia Legacy SBM Gold Disc)
1980 | Genre: Flamenco/Jazz | EAC RIP | FLAC+CUE+LOG+HQ-Covers(400Dpi) | 286Mb

This live recording from 1980 matched fusion guitar heavyweights Al DiMeola and John McLaughlin with Spanish guitar whiz Paco DeLucia. The result, a dazzling technical display, also earned jeers as the international summit of world-class finger-wigglers by critics who felt it was long on chops and short on heart. John McLaughlin's importance to the development of the jazz fusion scene can't be overestimated: as the guitarist on Miles Davis's seminal Bitches Brew and A Tribute to Jack Johnson, he was the first significant guitarist of the electric jazz era; on his own, he brought power rock, spiritualism, and lush orchestration to the scene via his Mahavishnu Orchestra. DiMeola, the most commercially successful next-generation fusion guitarist, achieved stardom with Chick Corea's group Return to Forever and on his own records. DeLucia, virtually unknown in the U.S., is a fine flamenco guitarist, and it is that orientation more than anything that colors Friday Night: even when playing straightforward non-flamenco compositions, the phrasing and sensibility lurks behind every note. Still, the passion of the music is frequently marred by the participants' inability to play at anything but the most breakneck pace.

Tracklist:

01. Mediterranean Sundance/Rio Ancho
02. Short Tales Of The Black Forest
03. Frevo Rasgado
04. Fantasia Suite
05. Guardian Angel

Exact Audio Copy V0.99 prebeta 4 from 23. January 2008

EAC extraction logfile from 19. May 2009, 18:57

Al Di Meola, John McLaughlin & Paco de Lucia / Friday Night In San Francisco

Used drive : Optiarc DVD RW AD-7173A Adapter: 1 ID: 0

Read mode : Secure
Utilize accurate stream : Yes
Defeat audio cache : No
Make use of C2 pointers : Yes

Read offset correction : 48
Overread into Lead-In and Lead-Out : No
Fill up missing offset samples with silence : Yes
Delete leading and trailing silent blocks : No
Null samples used in CRC calculations : No
Used interface : Native Win32 interface for Win NT & 2000

Used output format : Internal WAV Routines
Sample format : 44.100 Hz; 16 Bit; Stereo


TOC of the extracted CD

Track | Start | Length | Start sector | End sector
––––––––––––––––––––––––––––-
1 | 0:00.00 | 11:35.50 | 0 | 52174
2 | 11:35.50 | 8:44.67 | 52175 | 91541
3 | 20:20.42 | 7:57.05 | 91542 | 127321
4 | 28:17.47 | 8:54.38 | 127322 | 167409
5 | 37:12.10 | 4:00.45 | 167410 | 185454


Range status and errors

Selected range

Filename G:\AVAXHOME\Al DiMeola, John McLaughlin, Paco De Lucia - Friday Night In San Francisco (1980)\Al Di Meola, John McLaughlin & Paco de Lucia - Friday Night In San Francisco.wav

Peak level 100.0 %
Range quality 99.9 %
Copy CRC 9A4C4136
Copy OK

No errors occurred


AccurateRip summary

Track 1 accurately ripped (confidence 4) [EB34F272]
Track 2 accurately ripped (confidence 4) [23402EB9]
Track 3 accurately ripped (confidence 4) [6288CA9C]
Track 4 accurately ripped (confidence 4) [8459974D]
Track 5 accurately ripped (confidence 4) [F83DCC13]

All tracks accurately ripped

End of status report

RIPPED BY JANWAL46

Links: