Subcategories

Alan Parsons - The Secret (2019)

Posted By: popsakov
Alan Parsons - The Secret (2019)

Alan Parsons - The Secret (2019)
EAC Rip | FLAC (Tracks) + Cue + m3u + Log ~ 301 Mb | Full Scans ~ 36 Mb | RAR 5% Recovery
Progressive Rock, Symphonic Rock | Frontiers Records / Irond Ltd. #IROND CD 19-1947

The Secret is the fifth solo album by English rock musician Alan Parsons. It was released on 26 April 2019 via Frontiers. The time between this and Parsons' previous album, A Valid Path in 2004, marks the longest gap between two consecutive albums, totaling more than 15 years. All songs written and composed by Alan Parsons.

***************

Alan Parsons - The Secret (2019)

Alan Parsons - The Secret (2019)

Track List:

01. The Sorcerer's Apprentice [5:45]
02. Miracle [3:23]
03. As Lights Fall [3:58]
04. One Note Symphony [4:40]
05. Sometimes [5:09]
06. Soiree Fantastique [5:27]
07. Fly To Me [3:44]
08. Requiem [4:01]
09. Years Of Glory [4:04]
10. The Limelight Fades Away [3:35]
11. I Can't Get There From Here [4:39]

Exact Audio Copy V1.3 from 2. September 2016

EAC extraction logfile from 26. April 2019, 21:36

Alan Parsons / The Secret

Used drive : ASUS DRW-24D5MT Adapter: 1 ID: 0

Read mode : Secure
Utilize accurate stream : Yes
Defeat audio cache : Yes
Make use of C2 pointers : No

Read offset correction : 6
Overread into Lead-In and Lead-Out : No
Fill up missing offset samples with silence : Yes
Delete leading and trailing silent blocks : No
Null samples used in CRC calculations : Yes
Used interface : Native Win32 interface for Win NT & 2000
Gap handling : Appended to previous track

Used output format : User Defined Encoder
Selected bitrate : 128 kBit/s
Quality : High
Add ID3 tag : No
Command line compressor : C:\Program Files (x86)\Exact Audio Copy\Flac\flac.exe
Additional command line options : -V -8 -T "Genre=%genre%" -T "Artist=%artist%" -T "Title=%title%" -T "Album=%albumtitle%" -T "Date=%year%" -T "Tracknumber=%tracknr%" -T "Comment=%comment%" %source%


TOC of the extracted CD

Track | Start | Length | Start sector | End sector
––––––––––––––––––––––––––––-
1 | 0:00.00 | 5:44.58 | 0 | 25857
2 | 5:44.58 | 3:22.40 | 25858 | 41047
3 | 9:07.23 | 3:58.32 | 41048 | 58929
4 | 13:05.55 | 4:40.08 | 58930 | 79937
5 | 17:45.63 | 5:08.65 | 79938 | 103102
6 | 22:54.53 | 5:27.23 | 103103 | 127650
7 | 28:22.01 | 3:44.19 | 127651 | 144469
8 | 32:06.20 | 4:01.35 | 144470 | 162579
9 | 36:07.55 | 4:03.57 | 162580 | 180861
10 | 40:11.37 | 3:35.32 | 180862 | 197018
11 | 43:46.69 | 4:38.40 | 197019 | 217908


Track 1

Filename C:\Users\Alex\Desktop\Рипы\Новая папка (2)\01. The Sorcerer's Apprentice.wav

Pre-gap length 0:00:02.00

Peak level 99.2 %
Extraction speed 4.9 X
Track quality 100.0 %
Test CRC 6AC10817
Copy CRC 6AC10817
Track not present in AccurateRip database
Copy OK

Track 2

Filename C:\Users\Alex\Desktop\Рипы\Новая папка (2)\02. Miracle.wav

Peak level 100.0 %
Extraction speed 4.4 X
Track quality 99.9 %
Test CRC DABD8167
Copy CRC DABD8167
Track not present in AccurateRip database
Copy OK

Track 3

Filename C:\Users\Alex\Desktop\Рипы\Новая папка (2)\03. As Lights Fall.wav

Peak level 99.0 %
Extraction speed 5.6 X
Track quality 100.0 %
Test CRC 76A50157
Copy CRC 76A50157
Track not present in AccurateRip database
Copy OK

Track 4

Filename C:\Users\Alex\Desktop\Рипы\Новая папка (2)\04. One Note Symphony.wav

Peak level 99.0 %
Extraction speed 6.1 X
Track quality 100.0 %
Test CRC 26D89870
Copy CRC 26D89870
Track not present in AccurateRip database
Copy OK

Track 5

Filename C:\Users\Alex\Desktop\Рипы\Новая папка (2)\05. Sometimes.wav

Peak level 100.0 %
Extraction speed 6.6 X
Track quality 100.0 %
Test CRC F17874A9
Copy CRC F17874A9
Track not present in AccurateRip database
Copy OK

Track 6

Filename C:\Users\Alex\Desktop\Рипы\Новая папка (2)\06. Soiree Fantastique.wav

Peak level 100.0 %
Extraction speed 6.5 X
Track quality 99.9 %
Test CRC D2FA2613
Copy CRC D2FA2613
Track not present in AccurateRip database
Copy OK

Track 7

Filename C:\Users\Alex\Desktop\Рипы\Новая папка (2)\07. Fly To Me.wav

Peak level 97.7 %
Extraction speed 7.1 X
Track quality 100.0 %
Test CRC 33A8349E
Copy CRC 33A8349E
Track not present in AccurateRip database
Copy OK

Track 8

Filename C:\Users\Alex\Desktop\Рипы\Новая папка (2)\08. Requiem.wav

Peak level 100.0 %
Extraction speed 7.5 X
Track quality 100.0 %
Test CRC A287734E
Copy CRC A287734E
Track not present in AccurateRip database
Copy OK

Track 9

Filename C:\Users\Alex\Desktop\Рипы\Новая папка (2)\09. Years Of Glory.wav

Peak level 97.6 %
Extraction speed 7.8 X
Track quality 100.0 %
Test CRC DA4A35FF
Copy CRC DA4A35FF
Track not present in AccurateRip database
Copy OK

Track 10

Filename C:\Users\Alex\Desktop\Рипы\Новая папка (2)\10. The Limelight Fades Away.wav

Peak level 100.0 %
Extraction speed 6.9 X
Track quality 99.9 %
Test CRC 3CFA4259
Copy CRC 3CFA4259
Track not present in AccurateRip database
Copy OK

Track 11

Filename C:\Users\Alex\Desktop\Рипы\Новая папка (2)\11. I Can't Get There From Here.wav

Peak level 97.7 %
Extraction speed 7.5 X
Track quality 99.9 %
Test CRC 7A013CA8
Copy CRC 7A013CA8
Track not present in AccurateRip database
Copy OK


None of the tracks are present in the AccurateRip database

No errors occurred

End of status report

==== Log checksum 1226230D6E194649F0F10D1C1F12EB665906966AA295B18E2925D29A5A3917E2 ====

Alan Parsons - The Secret (2019)

All thanks go to AlexSF59

>>> Alan Parsons in my Blog <<<

Download from icerbox.com: