Subcategories

Alan Parsons - The Secret (2019) {Deluxe Edition CD/DVD}

Posted By: popsakov
Alan Parsons - The Secret (2019) {Deluxe Edition CD/DVD}

Alan Parsons - The Secret (2019) {Deluxe Edition CD/DVD}
EAC Rip | FLAC (Img) + Cue + Log ~ 343 Mb | Scans Included
DVD5 | ISO | MPEG-2 Video, NTSC 720x480 (16:9), 29.970 fps, VBR
Audio: DD 2.0, 48/16, 192 kb/s; DTS 5.1, 48/24, 1510 kb/s;
DTS 2.0, 96/24, 1510 kb/s | ~ 2,79 Gb | RAR 5% Recovery
Progressive Rock, Symphonic Rock | Frontiers Music SRL #FR CDVD 943

Eleven-time Grammy nominated legendary music icon and master of progressive rock, Alan Parsons return with a new album, “The Secret” on April 19, 2019. Alan’s longtime hobby has been performing magic and this brand new album showcases his own passion for the craft, hence the title “The Secret.” The album will see a return to the pop rock sound with symphonic and progressive rock interludes which the Alan Parsons Project was known for. European Deluxe Edition CD/DVD. DVD includes Stereo Hi Definition Mix, 5.1 Surround Audio Mix and Dolby Digital Stereo. Comes in a three panel Digipak style case with 2 clear media trays on the left and on the right panel. The 16 pages colored booklet is placed in a cardboard slot in the center panel.

***************

Alan Parsons - The Secret (2019) {Deluxe Edition CD/DVD}

Track List CD:

01. The Sorcerer's Apprentice [0:05:46.71]
02. Miracle [0:03:23.04]
03. As Lights Fall [0:03:55.64]
04. One Note Symphony [0:04:42.34]
05. Sometimes [0:05:05.62]
06. Soirée Fantastique [0:05:27.71]
07. Fly to Me [0:03:45.02]
08. Requiem [0:04:01.07]
09. Years of Glory [0:04:04.31]
10. The Limelight Fades Away [0:03:35.09]
11. I Can't Get There From Here [0:04:37.11]

Personnel:
Lead vocals - Jason Mraz, Lou Gramm, Alan Parsons, Todd Cooper, P. J. Olsson, Jordan Huffman, Jared Mahone, Mark Mikel
Additional vocals - Alan Parsons, Todd Cooper, Dan Tracey, Jordan Huffman, P. J. Olsson, Carl–Magnus «C-M» Carlsson, Andy Ellis
Narration - Alan Parsons
Guitars - Steve Hackett, Jeff Kollman, Dan Tracey, Tony Rosacci, Ian Bairnson, Alan Parsons
Synth, keyboards - Andy Ellis, Tom Brooks, Dan Tracey, Alan Parsons
Piano - Pat Caddick, Angelo Pizzaro, Tom Brooks
Bass - Nathan East, Guy Erez, Jeff Peterson
Drums - Vinnie Colaiuta, Danny Thompson, Carl Sorensen
Saxophone - Todd Cooper
Orchestra - The CMG Music Recording Orchestra of Hollywood
Orchestral arrangements - Tom Brooks, Dan Tracey, Milton Olsson
Orchestra conductors - Tom Brooks, Alan Parsons
Cello - Michael Fitzpatrick
Percussion - Alan Parsons, Todd Cooper
Ukulele - Jake Shimabukuro
Trombones - Oscar Utterström
Trumpets - Vinnie Ciesielski

Exact Audio Copy V1.3 from 2. September 2016

EAC extraction logfile from 30. April 2019, 15:12

Alan Parsons / The Secret [FR CDVD 943]

Used drive : HL-DT-STBD-RE BH10LS38 Adapter: 1 ID: 0

Read mode : Secure
Utilize accurate stream : Yes
Defeat audio cache : Yes
Make use of C2 pointers : No

Read offset correction : 667
Overread into Lead-In and Lead-Out : No
Fill up missing offset samples with silence : Yes
Delete leading and trailing silent blocks : No
Null samples used in CRC calculations : Yes
Used interface : Native Win32 interface for Win NT & 2000

Used output format : User Defined Encoder
Selected bitrate : 128 kBit/s
Quality : High
Add ID3 tag : No
Command line compressor : C:\Program Files (x86)\Exact Audio Copy\Flac\flac.exe
Additional command line options : -V -8 -T "Date=%year%" -T "Genre=%genre%" %source%


TOC of the extracted CD

Track | Start | Length | Start sector | End sector
––––––––––––––––––––––––––––-
1 | 0:00.43 | 5:46.71 | 43 | 26063
2 | 5:47.39 | 3:23.04 | 26064 | 41292
3 | 9:10.43 | 3:55.64 | 41293 | 58981
4 | 13:06.32 | 4:42.34 | 58982 | 80165
5 | 17:48.66 | 5:05.62 | 80166 | 103102
6 | 22:54.53 | 5:27.71 | 103103 | 127698
7 | 28:22.49 | 3:45.02 | 127699 | 144575
8 | 32:07.51 | 4:01.07 | 144576 | 162657
9 | 36:08.58 | 4:04.31 | 162658 | 180988
10 | 40:13.14 | 3:35.09 | 180989 | 197122
11 | 43:48.23 | 4:37.11 | 197123 | 217908


Range status and errors

Selected range

Filename D:\Rips by Alder\Alan Parsons - The Secret [FR CDVD 943].wav

Peak level 100.0 %
Extraction speed 7.7 X
Range quality 100.0 %
Test CRC 0873CB5A
Copy CRC 0873CB5A
Copy OK

No errors occurred


AccurateRip summary

Track 1 not present in database
Track 2 not present in database
Track 3 not present in database
Track 4 not present in database
Track 5 not present in database
Track 6 not present in database
Track 7 not present in database
Track 8 not present in database
Track 9 not present in database
Track 10 not present in database
Track 11 not present in database

None of the tracks are present in the AccurateRip database

End of status report

–– CUETools DB Plugin V2.1.6

[CTDB TOCID: GQ515ItNdcdYJXDvb3kgBzQS3oo-] found
Submit result: GQ515ItNdcdYJXDvb3kgBzQS3oo- has been confirmed
Track | CTDB Status
1 | (40/40) Accurately ripped
2 | (40/40) Accurately ripped
3 | (40/40) Accurately ripped
4 | (40/40) Accurately ripped
5 | (40/40) Accurately ripped
6 | (40/40) Accurately ripped
7 | (40/40) Accurately ripped
8 | (40/40) Accurately ripped
9 | (40/40) Accurately ripped
10 | (40/40) Accurately ripped
11 | (40/40) Accurately ripped


==== Log checksum F9E88A357621EFFF34FDEBEE19A4A7B5D6088429D12214098FFD870431684C4F ====

Alan Parsons - The Secret (2019) {Deluxe Edition CD/DVD}

Track List DVD:

DTS 5.1 Surround / DTS Stereo Hi Definition / Dolby Digital Stereo
01. The Sorcerer's Apprentice [5:47]
02. Miracle [3:23]
03. As Lights Fall [3:56]
04. One Note Symphony [4:42]
05. Sometimes [5:05]
06. Soiree Fantastique [5:28]
07. Fly to Me [3:45]
08. Requiem [4:01]
09. Years of Glory [4:04]
10. The Limelight Fades Away [3:35]
11. I Can't Get There From Here [4:36]

General
Complete name : I:\VIDEO_TS\VTS_01_1.VOB
Format : MPEG-PS
File size : 325 MiB
Duration : 98 ms
Overall bit rate mode : Variable
Overall bit rate : 27.8 Gb/s

Video
ID : 224 (0xE0)
Format : MPEG Video
Format version : Version 2
Format profile : Main@Main
Format settings : BVOP
Format settings, BVOP : Yes
Format settings, Matrix : Default
Format settings, GOP : M=3, N=15
Duration : 33 ms
Bit rate mode : Variable
Maximum bit rate : 5 000 kb/s
Width : 720 pixels
Height : 480 pixels
Display aspect ratio : 16:9
Frame rate : 29.970 (30000/1001) FPS
Standard : NTSC
Color space : YUV
Chroma subsampling : 4:2:0
Bit depth : 8 bits
Scan type : Progressive
Compression mode : Lossy
Time code of first frame : 01:00:03;18
Time code source : Group of pictures header
GOP, Open/Closed : Open
GOP, Open/Closed of first frame : Closed

Audio #1
ID : 189 (0xBD)-130 (0x82)
Format : AC-3
Format/Info : Audio Coding 3
Muxing mode : DVD-Video
Duration : 98 ms
Bit rate mode : Constant
Bit rate : 192 kb/s
Channel(s) : 2 channels
Channel positions : Front: L R
Sampling rate : 48.0 kHz
Frame rate : 31.250 FPS (1536 SPF)
Bit depth : 16 bits
Compression mode : Lossy
Stream size : 2.30 KiB (0%)
Service kind : Complete Main

Audio #2
ID : 189 (0xBD)-136 (0x88)
Format : DTS
Format/Info : Digital Theater Systems
Muxing mode : DVD-Video
Duration : 98 ms
Bit rate mode : Constant
Bit rate : 1 510 kb/s
Channel(s) : 6 channels
Channel positions : Front: L C R, Side: L R, LFE
Sampling rate : 48.0 kHz
Frame rate : 93.750 FPS (512 SPF)
Bit depth : 24 bits
Compression mode : Lossy
Stream size : 18.1 KiB (0%)

Audio #3
ID : 189 (0xBD)-137 (0x89)
Format : DTS
Format/Info : Digital Theater Systems
Format profile : 96/24 / Core
Muxing mode : DVD-Video
Duration : 98 ms
Bit rate mode : Constant
Bit rate : 1 510 kb/s
Channel(s) : 2 channels
Channel positions : Front: L R
Sampling rate : 96.0 kHz / 48.0 kHz
Frame rate : 93.750 FPS (512 SPF)
Bit depth : 24 bits
Compression mode : Lossy
Stream size : 18.1 KiB (0%)

Menu

General
Complete name : I:\VIDEO_TS\VTS_02_1.VOB
Format : MPEG-PS
File size : 190 MiB
Duration : 3 min 23 s
Overall bit rate mode : Variable
Overall bit rate : 7 827 kb/s

Video
ID : 224 (0xE0)
Format : MPEG Video
Format version : Version 2
Format profile : Main@Main
Format settings : BVOP
Format settings, BVOP : Yes
Format settings, Matrix : Default
Format settings, GOP : M=3, N=15
Duration : 33 ms
Bit rate mode : Variable
Bit rate : 4 460 kb/s
Maximum bit rate : 5 000 kb/s
Width : 720 pixels
Height : 480 pixels
Display aspect ratio : 16:9
Frame rate : 29.970 (30000/1001) FPS
Standard : NTSC
Color space : YUV
Chroma subsampling : 4:2:0
Bit depth : 8 bits
Scan type : Progressive
Compression mode : Lossy
Bits/(Pixel*Frame) : 0.431
Time code of first frame : 01:05:51;10
Time code source : Group of pictures header
GOP, Open/Closed : Open
GOP, Open/Closed of first frame : Closed
Stream size : 18.2 KiB (0%)

Audio #1
ID : 189 (0xBD)-130 (0x82)
Format : AC-3
Format/Info : Audio Coding 3
Muxing mode : DVD-Video
Duration : 3 min 23 s
Bit rate mode : Constant
Bit rate : 192 kb/s
Channel(s) : 2 channels
Channel positions : Front: L R
Sampling rate : 48.0 kHz
Frame rate : 31.250 FPS (1536 SPF)
Bit depth : 16 bits
Compression mode : Lossy
Stream size : 4.65 MiB (2%)
Service kind : Complete Main

Audio #2
ID : 189 (0xBD)-136 (0x88)
Format : DTS
Format/Info : Digital Theater Systems
Muxing mode : DVD-Video
Duration : 3 min 23 s
Bit rate mode : Constant
Bit rate : 1 510 kb/s
Channel(s) : 6 channels
Channel positions : Front: L C R, Side: L R, LFE
Sampling rate : 48.0 kHz
Frame rate : 93.750 FPS (512 SPF)
Bit depth : 24 bits
Compression mode : Lossy
Stream size : 36.5 MiB (19%)

Audio #3
ID : 189 (0xBD)-137 (0x89)
Format : DTS
Format/Info : Digital Theater Systems
Format profile : 96/24 / Core
Muxing mode : DVD-Video
Duration : 3 min 23 s
Bit rate mode : Constant
Bit rate : 1 510 kb/s
Channel(s) : 2 channels
Channel positions : Front: L R
Sampling rate : 96.0 kHz / 48.0 kHz
Frame rate : 93.750 FPS (512 SPF)
Bit depth : 24 bits
Compression mode : Lossy
Stream size : 36.5 MiB (19%)

General
Complete name : I:\VIDEO_TS\VTS_03_1.VOB
Format : MPEG-PS
File size : 221 MiB
Duration : 3 min 56 s
Overall bit rate mode : Variable
Overall bit rate : 7 843 kb/s

Video
ID : 224 (0xE0)
Format : MPEG Video
Format version : Version 2
Format profile : Main@Main
Format settings : BVOP
Format settings, BVOP : Yes
Format settings, Matrix : Default
Format settings, GOP : M=3, N=15
Duration : 33 ms
Bit rate mode : Variable
Bit rate : 4 475 kb/s
Maximum bit rate : 5 000 kb/s
Width : 720 pixels
Height : 480 pixels
Display aspect ratio : 16:9
Frame rate : 29.970 (30000/1001) FPS
Standard : NTSC
Color space : YUV
Chroma subsampling : 4:2:0
Bit depth : 8 bits
Scan type : Progressive
Compression mode : Lossy
Bits/(Pixel*Frame) : 0.432
Time code of first frame : 01:09:14;16
Time code source : Group of pictures header
GOP, Open/Closed : Open
GOP, Open/Closed of first frame : Closed
Stream size : 18.2 KiB (0%)

Audio #1
ID : 189 (0xBD)-130 (0x82)
Format : AC-3
Format/Info : Audio Coding 3
Muxing mode : DVD-Video
Duration : 3 min 55 s
Bit rate mode : Constant
Bit rate : 192 kb/s
Channel(s) : 2 channels
Channel positions : Front: L R
Sampling rate : 48.0 kHz
Frame rate : 31.250 FPS (1536 SPF)
Bit depth : 16 bits
Compression mode : Lossy
Stream size : 5.39 MiB (2%)
Service kind : Complete Main

Audio #2
ID : 189 (0xBD)-136 (0x88)
Format : DTS
Format/Info : Digital Theater Systems
Muxing mode : DVD-Video
Duration : 3 min 56 s
Bit rate mode : Constant
Bit rate : 1 510 kb/s
Channel(s) : 6 channels
Channel positions : Front: L C R, Side: L R, LFE
Sampling rate : 48.0 kHz
Frame rate : 93.750 FPS (512 SPF)
Bit depth : 24 bits
Compression mode : Lossy
Stream size : 42.5 MiB (19%)

Audio #3
ID : 189 (0xBD)-137 (0x89)
Format : DTS
Format/Info : Digital Theater Systems
Format profile : 96/24 / Core
Muxing mode : DVD-Video
Duration : 3 min 56 s
Bit rate mode : Constant
Bit rate : 1 510 kb/s
Channel(s) : 2 channels
Channel positions : Front: L R
Sampling rate : 96.0 kHz / 48.0 kHz
Frame rate : 93.750 FPS (512 SPF)
Bit depth : 24 bits
Compression mode : Lossy
Stream size : 42.5 MiB (19%)

General
Complete name : I:\VIDEO_TS\VTS_04_1.VOB
Format : MPEG-PS
File size : 264 MiB
Duration : 4 min 42 s
Overall bit rate mode : Variable
Overall bit rate : 7 835 kb/s

Video
ID : 224 (0xE0)
Format : MPEG Video
Format version : Version 2
Format profile : Main@Main
Format settings : BVOP
Format settings, BVOP : Yes
Format settings, Matrix : Default
Format settings, GOP : M=3, N=15
Duration : 33 ms
Bit rate mode : Variable
Bit rate : 4 468 kb/s
Maximum bit rate : 5 000 kb/s
Width : 720 pixels
Height : 480 pixels
Display aspect ratio : 16:9
Frame rate : 29.970 (30000/1001) FPS
Standard : NTSC
Color space : YUV
Chroma subsampling : 4:2:0
Bit depth : 8 bits
Scan type : Progressive
Compression mode : Lossy
Bits/(Pixel*Frame) : 0.431
Time code of first frame : 01:13:11;08
Time code source : Group of pictures header
GOP, Open/Closed : Open
GOP, Open/Closed of first frame : Closed
Stream size : 18.2 KiB (0%)

Audio #1
ID : 189 (0xBD)-130 (0x82)
Format : AC-3
Format/Info : Audio Coding 3
Muxing mode : DVD-Video
Duration : 47 ms
Bit rate mode : Constant
Bit rate : 192 kb/s
Channel(s) : 2 channels
Channel positions : Front: L R
Sampling rate : 48.0 kHz
Frame rate : 31.250 FPS (1536 SPF)
Bit depth : 16 bits
Compression mode : Lossy
Stream size : 1.10 KiB (0%)
Service kind : Complete Main

Audio #2
ID : 189 (0xBD)-136 (0x88)
Format : DTS
Format/Info : Digital Theater Systems
Muxing mode : DVD-Video
Duration : 4 min 41 s
Bit rate mode : Constant
Bit rate : 1 510 kb/s
Channel(s) : 6 channels
Channel positions : Front: L C R, Side: L R, LFE
Sampling rate : 48.0 kHz
Frame rate : 93.750 FPS (512 SPF)
Bit depth : 24 bits
Compression mode : Lossy
Stream size : 50.8 MiB (19%)

Audio #3
ID : 189 (0xBD)-137 (0x89)
Format : DTS
Format/Info : Digital Theater Systems
Format profile : 96/24 / Core
Muxing mode : DVD-Video
Duration : 4 min 42 s
Bit rate mode : Constant
Bit rate : 1 510 kb/s
Channel(s) : 2 channels
Channel positions : Front: L R
Sampling rate : 96.0 kHz / 48.0 kHz
Frame rate : 93.750 FPS (512 SPF)
Bit depth : 24 bits
Compression mode : Lossy
Stream size : 50.8 MiB (19%)

General
Complete name : I:\VIDEO_TS\VTS_05_1.VOB
Format : MPEG-PS
File size : 285 MiB
Duration : 5 min 5 s
Overall bit rate mode : Variable
Overall bit rate : 7 839 kb/s

Video
ID : 224 (0xE0)
Format : MPEG Video
Format version : Version 2
Format profile : Main@Main
Format settings : BVOP
Format settings, BVOP : Yes
Format settings, Matrix : Default
Format settings, GOP : M=3, N=15
Duration : 33 ms
Bit rate mode : Variable
Bit rate : 4 471 kb/s
Maximum bit rate : 5 000 kb/s
Width : 720 pixels
Height : 480 pixels
Display aspect ratio : 16:9
Frame rate : 29.970 (30000/1001) FPS
Standard : NTSC
Color space : YUV
Chroma subsampling : 4:2:0
Bit depth : 8 bits
Scan type : Progressive
Compression mode : Lossy
Bits/(Pixel*Frame) : 0.432
Time code of first frame : 01:17:53;21
Time code source : Group of pictures header
GOP, Open/Closed : Open
GOP, Open/Closed of first frame : Closed
Stream size : 18.2 KiB (0%)

Audio #1
ID : 189 (0xBD)-130 (0x82)
Format : AC-3
Format/Info : Audio Coding 3
Muxing mode : DVD-Video
Duration : 56 ms
Bit rate mode : Constant
Bit rate : 192 kb/s
Channel(s) : 2 channels
Channel positions : Front: L R
Sampling rate : 48.0 kHz
Frame rate : 31.250 FPS (1536 SPF)
Bit depth : 16 bits
Compression mode : Lossy
Stream size : 1.31 KiB (0%)
Service kind : Complete Main

Audio #2
ID : 189 (0xBD)-136 (0x88)
Format : DTS
Format/Info : Digital Theater Systems
Muxing mode : DVD-Video
Duration : 5 min 5 s
Bit rate mode : Constant
Bit rate : 1 510 kb/s
Channel(s) : 6 channels
Channel positions : Front: L C R, Side: L R, LFE
Sampling rate : 48.0 kHz
Frame rate : 93.750 FPS (512 SPF)
Bit depth : 24 bits
Compression mode : Lossy
Stream size : 55.0 MiB (19%)

Audio #3
ID : 189 (0xBD)-137 (0x89)
Format : DTS
Format/Info : Digital Theater Systems
Format profile : 96/24 / Core
Muxing mode : DVD-Video
Duration : 24 ms
Bit rate mode : Constant
Bit rate : 1 510 kb/s
Channel(s) : 2 channels
Channel positions : Front: L R
Sampling rate : 96.0 kHz / 48.0 kHz
Frame rate : 93.750 FPS (512 SPF)
Bit depth : 24 bits
Compression mode : Lossy
Stream size : 4.42 KiB (0%)

Complete name : I:\VIDEO_TS\VTS_07_1.VOB
Format : MPEG-PS
File size : 307 MiB
Duration : 5 min 28 s
Overall bit rate mode : Variable
Overall bit rate : 7 834 kb/s

Video
ID : 224 (0xE0)
Format : MPEG Video
Format version : Version 2
Format profile : Main@Main
Format settings : BVOP
Format settings, BVOP : Yes
Format settings, Matrix : Default
Format settings, GOP : M=3, N=15
Duration : 33 ms
Bit rate mode : Variable
Bit rate : 4 466 kb/s
Maximum bit rate : 5 000 kb/s
Width : 720 pixels
Height : 480 pixels
Display aspect ratio : 16:9
Frame rate : 29.970 (30000/1001) FPS
Standard : NTSC
Color space : YUV
Chroma subsampling : 4:2:0
Bit depth : 8 bits
Scan type : Progressive
Compression mode : Lossy
Bits/(Pixel*Frame) : 0.431
Time code of first frame : 01:22:59;10
Time code source : Group of pictures header
GOP, Open/Closed : Open
GOP, Open/Closed of first frame : Closed
Stream size : 18.2 KiB (0%)

Audio #1
ID : 189 (0xBD)-130 (0x82)
Format : AC-3
Format/Info : Audio Coding 3
Muxing mode : DVD-Video
Duration : 57 ms
Bit rate mode : Constant
Bit rate : 192 kb/s
Channel(s) : 2 channels
Channel positions : Front: L R
Sampling rate : 48.0 kHz
Frame rate : 31.250 FPS (1536 SPF)
Bit depth : 16 bits
Compression mode : Lossy
Stream size : 1.34 KiB (0%)
Service kind : Complete Main

Audio #2
ID : 189 (0xBD)-136 (0x88)
Format : DTS
Format/Info : Digital Theater Systems
Muxing mode : DVD-Video
Duration : 36 ms
Bit rate mode : Constant
Bit rate : 1 510 kb/s
Channel(s) : 6 channels
Channel positions : Front: L C R, Side: L R, LFE
Sampling rate : 48.0 kHz
Frame rate : 93.750 FPS (512 SPF)
Bit depth : 24 bits
Compression mode : Lossy
Stream size : 6.63 KiB (0%)

Audio #3
ID : 189 (0xBD)-137 (0x89)
Format : DTS
Format/Info : Digital Theater Systems
Format profile : 96/24 / Core
Muxing mode : DVD-Video
Duration : 5 min 28 s
Bit rate mode : Constant
Bit rate : 1 510 kb/s
Channel(s) : 2 channels
Channel positions : Front: L R
Sampling rate : 96.0 kHz / 48.0 kHz
Frame rate : 93.750 FPS (512 SPF)
Bit depth : 24 bits
Compression mode : Lossy
Stream size : 59.1 MiB (19%)

Complete name : I:\VIDEO_TS\VTS_08_1.VOB
Format : MPEG-PS
File size : 210 MiB
Duration : 3 min 45 s
Overall bit rate mode : Variable
Overall bit rate : 7 834 kb/s

Video
ID : 224 (0xE0)
Format : MPEG Video
Format version : Version 2
Format profile : Main@Main
Format settings : BVOP
Format settings, BVOP : Yes
Format settings, Matrix : Default
Format settings, GOP : M=3, N=15
Duration : 33 ms
Bit rate mode : Variable
Bit rate : 4 466 kb/s
Maximum bit rate : 5 000 kb/s
Width : 720 pixels
Height : 480 pixels
Display aspect ratio : 16:9
Frame rate : 29.970 (30000/1001) FPS
Standard : NTSC
Color space : YUV
Chroma subsampling : 4:2:0
Bit depth : 8 bits
Scan type : Progressive
Compression mode : Lossy
Bits/(Pixel*Frame) : 0.431
Time code of first frame : 01:28:27;21
Time code source : Group of pictures header
GOP, Open/Closed : Open
GOP, Open/Closed of first frame : Closed
Stream size : 18.2 KiB (0%)

Audio #1
ID : 189 (0xBD)-130 (0x82)
Format : AC-3
Format/Info : Audio Coding 3
Muxing mode : DVD-Video
Duration : 60 ms
Bit rate mode : Constant
Bit rate : 192 kb/s
Channel(s) : 2 channels
Channel positions : Front: L R
Sampling rate : 48.0 kHz
Frame rate : 31.250 FPS (1536 SPF)
Bit depth : 16 bits
Compression mode : Lossy
Stream size : 1.41 KiB (0%)
Service kind : Complete Main

Audio #2
ID : 189 (0xBD)-136 (0x88)
Format : DTS
Format/Info : Digital Theater Systems
Muxing mode : DVD-Video
Duration : 3 min 44 s
Bit rate mode : Constant
Bit rate : 1 510 kb/s
Channel(s) : 6 channels
Channel positions : Front: L C R, Side: L R, LFE
Sampling rate : 48.0 kHz
Frame rate : 93.750 FPS (512 SPF)
Bit depth : 24 bits
Compression mode : Lossy
Stream size : 40.5 MiB (19%)

Audio #3
ID : 189 (0xBD)-137 (0x89)
Format : DTS
Format/Info : Digital Theater Systems
Format profile : 96/24 / Core
Muxing mode : DVD-Video
Duration : 3 min 45 s
Bit rate mode : Constant
Bit rate : 1 510 kb/s
Channel(s) : 2 channels
Channel positions : Front: L R
Sampling rate : 96.0 kHz / 48.0 kHz
Frame rate : 93.750 FPS (512 SPF)
Bit depth : 24 bits
Compression mode : Lossy
Stream size : 40.5 MiB (19%)

General
Complete name : I:\VIDEO_TS\VTS_09_1.VOB
Format : MPEG-PS
File size : 225 MiB
Duration : 4 min 1 s
Overall bit rate mode : Variable
Overall bit rate : 7 836 kb/s

Video
ID : 224 (0xE0)
Format : MPEG Video
Format version : Version 2
Format profile : Main@Main
Format settings : BVOP
Format settings, BVOP : Yes
Format settings, Matrix : Default
Format settings, GOP : M=3, N=15
Duration : 33 ms
Bit rate mode : Variable
Bit rate : 4 468 kb/s
Maximum bit rate : 5 000 kb/s
Width : 720 pixels
Height : 480 pixels
Display aspect ratio : 16:9
Frame rate : 29.970 (30000/1001) FPS
Standard : NTSC
Color space : YUV
Chroma subsampling : 4:2:0
Bit depth : 8 bits
Scan type : Progressive
Compression mode : Lossy
Bits/(Pixel*Frame) : 0.431
Time code of first frame : 01:32:12;26
Time code source : Group of pictures header
GOP, Open/Closed : Open
GOP, Open/Closed of first frame : Closed
Stream size : 18.2 KiB (0%)

Audio #1
ID : 189 (0xBD)-130 (0x82)
Format : AC-3
Format/Info : Audio Coding 3
Muxing mode : DVD-Video
Duration : 63 ms
Bit rate mode : Constant
Bit rate : 192 kb/s
Channel(s) : 2 channels
Channel positions : Front: L R
Sampling rate : 48.0 kHz
Frame rate : 31.250 FPS (1536 SPF)
Bit depth : 16 bits
Compression mode : Lossy
Stream size : 1.48 KiB (0%)
Service kind : Complete Main

Audio #2
ID : 189 (0xBD)-136 (0x88)
Format : DTS
Format/Info : Digital Theater Systems
Muxing mode : DVD-Video
Duration : 4 min 1 s
Bit rate mode : Constant
Bit rate : 1 510 kb/s
Channel(s) : 6 channels
Channel positions : Front: L C R, Side: L R, LFE
Sampling rate : 48.0 kHz
Frame rate : 93.750 FPS (512 SPF)
Bit depth : 24 bits
Compression mode : Lossy
Stream size : 43.4 MiB (19%)

Audio #3
ID : 189 (0xBD)-137 (0x89)
Format : DTS
Format/Info : Digital Theater Systems
Format profile : 96/24 / Core
Muxing mode : DVD-Video
Duration : 4 min 1 s
Bit rate mode : Constant
Bit rate : 1 510 kb/s
Channel(s) : 2 channels
Channel positions : Front: L R
Sampling rate : 96.0 kHz / 48.0 kHz
Frame rate : 93.750 FPS (512 SPF)
Bit depth : 24 bits
Compression mode : Lossy
Stream size : 43.4 MiB (19%)

General
Complete name : I:\VIDEO_TS\VTS_10_1.VOB
Format : MPEG-PS
File size : 228 MiB
Duration : 4 min 4 s
Overall bit rate mode : Variable
Overall bit rate : 7 833 kb/s

Video
ID : 224 (0xE0)
Format : MPEG Video
Format version : Version 2
Format profile : Main@Main
Format settings : BVOP
Format settings, BVOP : Yes
Format settings, Matrix : Default
Format settings, GOP : M=3, N=15
Duration : 33 ms
Bit rate mode : Variable
Bit rate : 4 466 kb/s
Maximum bit rate : 5 000 kb/s
Width : 720 pixels
Height : 480 pixels
Display aspect ratio : 16:9
Frame rate : 29.970 (30000/1001) FPS
Standard : NTSC
Color space : YUV
Chroma subsampling : 4:2:0
Bit depth : 8 bits
Scan type : Progressive
Compression mode : Lossy
Bits/(Pixel*Frame) : 0.431
Time code of first frame : 01:36:14;10
Time code source : Group of pictures header
GOP, Open/Closed : Open
GOP, Open/Closed of first frame : Closed
Stream size : 18.2 KiB (0%)

Audio #1
ID : 189 (0xBD)-130 (0x82)
Format : AC-3
Format/Info : Audio Coding 3
Muxing mode : DVD-Video
Duration : 33 ms
Bit rate mode : Constant
Bit rate : 192 kb/s
Channel(s) : 2 channels
Channel positions : Front: L R
Sampling rate : 48.0 kHz
Frame rate : 31.250 FPS (1536 SPF)
Bit depth : 16 bits
Compression mode : Lossy
Stream size : 792 Bytes (0%)
Service kind : Complete Main

Audio #2
ID : 189 (0xBD)-136 (0x88)
Format : DTS
Format/Info : Digital Theater Systems
Muxing mode : DVD-Video
Duration : 4 min 4 s
Bit rate mode : Constant
Bit rate : 1 510 kb/s
Channel(s) : 6 channels
Channel positions : Front: L C R, Side: L R, LFE
Sampling rate : 48.0 kHz
Frame rate : 93.750 FPS (512 SPF)
Bit depth : 24 bits
Compression mode : Lossy
Stream size : 44.0 MiB (19%)

Audio #3
ID : 189 (0xBD)-137 (0x89)
Format : DTS
Format/Info : Digital Theater Systems
Format profile : 96/24 / Core
Muxing mode : DVD-Video
Duration : 4 min 4 s
Bit rate mode : Constant
Bit rate : 1 510 kb/s
Channel(s) : 2 channels
Channel positions : Front: L R
Sampling rate : 96.0 kHz / 48.0 kHz
Frame rate : 93.750 FPS (512 SPF)
Bit depth : 24 bits
Compression mode : Lossy
Stream size : 44.0 MiB (19%)

General
Complete name : I:\VIDEO_TS\VTS_11_1.VOB
Format : MPEG-PS
File size : 201 MiB
Duration : 3 min 35 s
Overall bit rate mode : Variable
Overall bit rate : 7 838 kb/s

Video
ID : 224 (0xE0)
Format : MPEG Video
Format version : Version 2
Format profile : Main@Main
Format settings : BVOP
Format settings, BVOP : Yes
Format settings, Matrix : Default
Format settings, GOP : M=3, N=15
Duration : 33 ms
Bit rate mode : Variable
Bit rate : 4 471 kb/s
Maximum bit rate : 5 000 kb/s
Width : 720 pixels
Height : 480 pixels
Display aspect ratio : 16:9
Frame rate : 29.970 (30000/1001) FPS
Standard : NTSC
Color space : YUV
Chroma subsampling : 4:2:0
Bit depth : 8 bits
Scan type : Progressive
Compression mode : Lossy
Bits/(Pixel*Frame) : 0.432
Time code of first frame : 01:40:18;24
Time code source : Group of pictures header
GOP, Open/Closed : Open
GOP, Open/Closed of first frame : Closed
Stream size : 18.2 KiB (0%)

Audio #1
ID : 189 (0xBD)-130 (0x82)
Format : AC-3
Format/Info : Audio Coding 3
Muxing mode : DVD-Video
Duration : 50 ms
Bit rate mode : Constant
Bit rate : 192 kb/s
Channel(s) : 2 channels
Channel positions : Front: L R
Sampling rate : 48.0 kHz
Frame rate : 31.250 FPS (1536 SPF)
Bit depth : 16 bits
Compression mode : Lossy
Stream size : 1.17 KiB (0%)
Service kind : Complete Main

Audio #2
ID : 189 (0xBD)-136 (0x88)
Format : DTS
Format/Info : Digital Theater Systems
Muxing mode : DVD-Video
Duration : 3 min 35 s
Bit rate mode : Constant
Bit rate : 1 510 kb/s
Channel(s) : 6 channels
Channel positions : Front: L C R, Side: L R, LFE
Sampling rate : 48.0 kHz
Frame rate : 93.750 FPS (512 SPF)
Bit depth : 24 bits
Compression mode : Lossy
Stream size : 38.7 MiB (19%)

Audio #3
ID : 189 (0xBD)-137 (0x89)
Format : DTS
Format/Info : Digital Theater Systems
Format profile : 96/24 / Core
Muxing mode : DVD-Video
Duration : 3 min 35 s
Bit rate mode : Constant
Bit rate : 1 510 kb/s
Channel(s) : 2 channels
Channel positions : Front: L R
Sampling rate : 96.0 kHz / 48.0 kHz
Frame rate : 93.750 FPS (512 SPF)
Bit depth : 24 bits
Compression mode : Lossy
Stream size : 38.7 MiB (19%)

General
Complete name : I:\VIDEO_TS\VTS_12_1.VOB
Format : MPEG-PS
File size : 258 MiB
Duration : 4 min 36 s
Overall bit rate mode : Variable
Overall bit rate : 7 850 kb/s

Video
ID : 224 (0xE0)
Format : MPEG Video
Format version : Version 2
Format profile : Main@Main
Format settings : BVOP
Format settings, BVOP : Yes
Format settings, Matrix : Default
Format settings, GOP : M=3, N=15
Duration : 33 ms
Bit rate mode : Variable
Bit rate : 4 482 kb/s
Maximum bit rate : 5 000 kb/s
Width : 720 pixels
Height : 480 pixels
Display aspect ratio : 16:9
Frame rate : 29.970 (30000/1001) FPS
Standard : NTSC
Color space : YUV
Chroma subsampling : 4:2:0
Bit depth : 8 bits
Scan type : Progressive
Compression mode : Lossy
Bits/(Pixel*Frame) : 0.433
Time code of first frame : 01:43:53;28
Time code source : Group of pictures header
GOP, Open/Closed : Open
GOP, Open/Closed of first frame : Closed
Stream size : 18.3 KiB (0%)

Audio #1
ID : 189 (0xBD)-130 (0x82)
Format : AC-3
Format/Info : Audio Coding 3
Muxing mode : DVD-Video
Duration : 54 ms
Bit rate mode : Constant
Bit rate : 192 kb/s
Channel(s) : 2 channels
Channel positions : Front: L R
Sampling rate : 48.0 kHz
Frame rate : 31.250 FPS (1536 SPF)
Bit depth : 16 bits
Compression mode : Lossy
Stream size : 1.27 KiB (0%)
Service kind : Complete Main

Audio #2
ID : 189 (0xBD)-136 (0x88)
Format : DTS
Format/Info : Digital Theater Systems
Muxing mode : DVD-Video
Duration : 4 min 36 s
Bit rate mode : Constant
Bit rate : 1 510 kb/s
Channel(s) : 6 channels
Channel positions : Front: L C R, Side: L R, LFE
Sampling rate : 48.0 kHz
Frame rate : 93.750 FPS (512 SPF)
Bit depth : 24 bits
Compression mode : Lossy
Stream size : 49.7 MiB (19%)

Audio #3
ID : 189 (0xBD)-137 (0x89)
Format : DTS
Format/Info : Digital Theater Systems
Format profile : 96/24 / Core
Muxing mode : DVD-Video
Duration : 139 ms
Bit rate mode : Constant
Bit rate : 1 510 kb/s
Channel(s) : 2 channels
Channel positions : Front: L R
Sampling rate : 96.0 kHz / 48.0 kHz
Frame rate : 93.750 FPS (512 SPF)
Bit depth : 24 bits
Compression mode : Lossy
Stream size : 25.6 KiB (0%)

Menu

Alan Parsons - The Secret (2019) {Deluxe Edition CD/DVD}

Alan Parsons - The Secret (2019) {Deluxe Edition CD/DVD}

All thanks go to Alder

>>> Alan Parsons in my Blog <<<

Download from icerbox.com: