Subcategories

Alan Pasqua - Milagro (1994)

Posted By: tiburon
Alan Pasqua - Milagro (1994)

Alan Pasqua - Milagro (1994)
EAC 1.0b1 | FLAC Image level 8 | Cue+Log | Full Scans 300dpi | 301MB + 5% Recovery
Genre: Jazz, Post-Bop
Alan Pasqua - Milagro (1994)

West Coast-based pianist Alan Pasqua makes his debut in fine acoustic jazz fashion, backed by a big-name rhythm section: Dave Holland and Jack DeJohnette. Michael Brecker contributes smoking tenor on "Rio Grande," "The Law of Diminishing Returns," and "L'Inverno." On "Acoma," "A Sleeping Child," "I'll Take You Home Again, Kathleen," and Cole Porter's "All Of You," Pasqua swings effortlessly in a subtle trio idiom.
Track List
01. Acoma 6:44
02. Rio Grande 7:09
03. A Sleeping Child 4:57
04. The Law of Diminishing Returns 5:55
05. Twilight 4:42
06. All Of You 4:08
07. Milagro 5:36
08. L' Inverno 5:45
09. Heartland 6:08
10. I'll Take You Home Agian, Kathleen 2:22

musicians
Alan Pasqua - piano
Jack DeJohnette - drums
Dave Holland - bass

Michael Brecker - tenor sax
John Clark - French horn
Willie Olenick - trumpet, flugelhorn
Roger Rosenberg - alto flute
Jack Schatz - trombone, bass trombone
Dave Tofani - bass clarinet

Produced by Ralph Simon


Exact Audio Copy V1.0 beta 1 from 15. November 2010

EAC extraction logfile from 12. January 2011, 10:29

Alan Pasqua, Dave Holland, Jack DeJohnette, Michael Brecker / Milagro

Used drive : TSSTcorpDVD+-RW TS-L532B Adapter: 1 ID: 0

Read mode : Secure
Utilize accurate stream : Yes
Defeat audio cache : Yes
Make use of C2 pointers : No

Read offset correction : 704
Overread into Lead-In and Lead-Out : No
Fill up missing offset samples with silence : Yes
Delete leading and trailing silent blocks : No
Null samples used in CRC calculations : Yes
Used interface : Native Win32 interface for Win NT & 2000

Used output format : Internal WAV Routines
Sample format : 44.100 Hz; 16 Bit; Stereo


TOC of the extracted CD

Track | Start | Length | Start sector | End sector
––––––––––––––––––––––––––––-
1 | 0:00.00 | 6:47.30 | 0 | 30554
2 | 6:47.30 | 7:08.05 | 30555 | 62659
3 | 13:55.35 | 4:59.60 | 62660 | 85144
4 | 18:55.20 | 5:57.70 | 85145 | 111989
5 | 24:53.15 | 4:44.40 | 111990 | 133329
6 | 29:37.55 | 4:08.45 | 133330 | 151974
7 | 33:46.25 | 5:37.45 | 151975 | 177294
8 | 39:23.70 | 5:46.65 | 177295 | 203309
9 | 45:10.60 | 6:10.62 | 203310 | 231121
10 | 51:21.47 | 2:21.53 | 231122 | 241749


Range status and errors

Selected range

Filename C:\Documents and Settings\VB\My Documents\BARIN99\Alan Pasqua, Dave Holland, Jack DeJohnette, Michael Brecker - Milagro\Alan Pasqua, Dave Holland, Jack DeJohnette, Michael Brecker - Milagro.wav

Peak level 94.4 %
Extraction speed 0.2 X
Range quality 99.9 %
Copy CRC 5EF6E235
Copy OK

No errors occurred


AccurateRip summary

Track 1 accurately ripped (confidence 3) [307653C5]
Track 2 accurately ripped (confidence 3) [AF5A8B9B]
Track 3 accurately ripped (confidence 3) [9BFAECDA]
Track 4 accurately ripped (confidence 3) [E101DA39]
Track 5 accurately ripped (confidence 3) [53A83E32]
Track 6 accurately ripped (confidence 3) [3A392FA6]
Track 7 accurately ripped (confidence 3) [228FBC16]
Track 8 accurately ripped (confidence 3) [C11B3B22]
Track 9 accurately ripped (confidence 3) [457430A8]
Track 10 accurately ripped (confidence 3) [07E200FF]

All tracks accurately ripped

End of status report


––––––––––––––––––––––––––––––––––––––––
Analyzed: Alan Pasqua, Dave Holland, Jack DeJohnette, Michael Brecker / Milagro
––––––––––––––––––––––––––––––––––––––––

DR Peak RMS Duration Track
––––––––––––––––––––––––––––––––––––––––
DR14 -0.50 dB -18.60 dB 6:47 01-Acoma
DR11 -0.50 dB -16.48 dB 7:08 02-Rio Grande
DR15 -1.32 dB -20.72 dB 5:00 03-A Sleeping Child
DR12 -0.50 dB -14.86 dB 5:58 04-The Law Of Diminishing Returns
DR14 -2.80 dB -22.11 dB 4:45 05-Twilight
DR13 -0.50 dB -16.47 dB 4:09 06-All of You
DR12 -0.50 dB -16.86 dB 5:38 07-Milagro
DR14 -0.50 dB -18.61 dB 5:47 08-L'inverno
DR13 -0.50 dB -16.88 dB 6:11 09-Heartland
DR15 -1.07 dB -20.61 dB 2:22 10-I'll Take You Home Again, Kathleen
––––––––––––––––––––––––––––––––––––––––

Number of tracks: 10
Official DR value: DR13

Samplerate: 44100 Hz
Channels: 2
Bits per sample: 16
Bitrate: 734 kbps
Codec: FLAC
================================================================================

Alan Pasqua - Milagro (1994)
Alan Pasqua - Milagro (1994)
Alan Pasqua - Milagro (1994)


Rip by BARIN99