Subcategories

Alanis Morissette - The Singles Box (1996) [5CD Box Set]

Posted By: v3122
Alanis Morissette - The Singles Box (1996) [5CD Box Set]

Alanis Morissette - The Singles Box (1996)
EAC | Flac(Image) + Cue + Log & MP3 CBR 320Kbps
Maverick / WEA, 9362437862 | ~ 556 or 200 Mb | Scans(jpg) -> 36 Mb
Alternative Rock / Pop Rock

Alanis Morissette – The Singles Box, commonly abbreviated as just The Singles Box, is an Alanis Morissette box set that includes five of her six singles from 1995's Jagged Little Pill: "Ironic", Hand in My Pocket, Head over Feet, You Learn and "You Oughta Know", as well as live tracks and alternate versions of JLP tracks spread across five maxi CDs. Also included in the box set was a short booklet of Alanis photos and other extras, including a note written by Morissette herself to her Australian fans.

The Singles Box was released only in Australia and in very limited quantities.

Morissette's sixth single, "All I Really Want", is the only single that wasn't given a disk in The Singles Box. "All I Really Want" and "Mary Jane" are the only tracks from Jagged Little Pill that didn't appear in the set in any form.

~ wiki
Alanis Morissette - The Singles Box (1996) [5CD Box Set]


Alanis Morissette - The Singles Box (1996):

Tracklist CD1 - You Oughta Know:

01. You Oughta Know (Album Version) (04:09)
02. You Oughta Know (Clean Album Version) (04:08)
03. Perfect (Studio Acoustic Version) (03:06)
04. You Oughta Know (Live at the 1996 Grammys) (03:48)

Converted to Image (CUETools 2.1.4)

Exact Audio Copy V1.0 beta 1 from 15. November 2010

EAC extraction logfile from 5. May 2011, 14:57

Alanis Morissette / The Singles Box (CD 1)

Used drive : TEAC DV-W28S-RT Adapter: 1 ID: 0

Read mode : Secure
Utilize accurate stream : Yes
Defeat audio cache : Yes
Make use of C2 pointers : No

Read offset correction : 48
Overread into Lead-In and Lead-Out : No
Fill up missing offset samples with silence : Yes
Delete leading and trailing silent blocks : No
Null samples used in CRC calculations : Yes
Used interface : Native Win32 interface for Win NT & 2000
Gap handling : Appended to previous track

Used output format : User Defined Encoder
Selected bitrate : 768 kBit/s
Quality : High
Add ID3 tag : No
Command line compressor : C:\Program Files\Exact Audio Copy\FLAC\FLAC.EXE
Additional command line options : -8 -V -T "ARTIST=%a" -T "TITLE=%t" -T "ALBUM=%g" -T "DATE=%y" -T "TRACKNUMBER=%n" -T "TOTALTRACKS=%x" -T "GENRE=%m" -T "ALBUM ARTIST=%v" -T "ALBUMARTIST=%v" -T "COMMENT=EAC V1.0 Beta 1, Secure Mode, Test & Copy, AccurateRip


TOC of the extracted CD

Track | Start | Length | Start sector | End sector
––––––––––––––––––––––––––––-
1 | 0:00.00 | 4:08.62 | 0 | 18661
2 | 4:08.62 | 4:08.30 | 18662 | 37291
3 | 8:17.17 | 3:05.65 | 37292 | 51231
4 | 11:23.07 | 3:48.05 | 51232 | 68336


Track 1

Filename C:\EAC\01 - You Oughta Know (Album Version).wav

Pre-gap length 0:00:02.00

Peak level 99.9 %
Extraction speed 2.7 X
Track quality 100.0 %
Test CRC BAE9C6D6
Copy CRC BAE9C6D6
Accurately ripped (confidence 3) [F28052DA]
Copy OK

Track 2

Filename C:\EAC\02 - You Oughta Know (Clean Album Version).wav

Pre-gap length 0:00:01.43

Peak level 99.9 %
Extraction speed 2.7 X
Track quality 99.9 %
Test CRC 8966B021
Copy CRC 8966B021
Accurately ripped (confidence 3) [D4D19917]
Copy OK

Track 3

Filename C:\EAC\03 - Perfect (Studio Acoustic Version).wav

Peak level 99.9 %
Extraction speed 3.1 X
Track quality 100.0 %
Test CRC E32CE3E4
Copy CRC E32CE3E4
Accurately ripped (confidence 3) [78E806D0]
Copy OK

Track 4

Filename C:\EAC\04 - You Oughta Know (Live From The Grammy's).wav

Peak level 99.9 %
Extraction speed 3.4 X
Track quality 100.0 %
Test CRC 4B053910
Copy CRC 4B053910
Accurately ripped (confidence 3) [4303F39E]
Copy OK


All tracks accurately ripped

No errors occurred

End of status report

==== Log checksum EC0412A1FAF19E0F890F590DAFD793D9BEF121831C73CD5D397EFFA679651222 ====


Tracklist CD2 - Ironic:

01. Ironic (Album Version) (03:50)
02. Forgiven (Live from Tokyo) (06:10)
03. Not the Doctor (Modern Rock Live from L.A.) (06:05)
04. Wake Up (Modern Rock Live from L.A.) (05:06)

Converted to Image (CUETools 2.1.4)

Exact Audio Copy V1.0 beta 1 from 15. November 2010

EAC extraction logfile from 5. May 2011, 15:18

Alanis Morissette / The Singles Box (Disc 2)

Used drive : TEAC DV-W28S-RT Adapter: 1 ID: 0

Read mode : Secure
Utilize accurate stream : Yes
Defeat audio cache : Yes
Make use of C2 pointers : No

Read offset correction : 48
Overread into Lead-In and Lead-Out : No
Fill up missing offset samples with silence : Yes
Delete leading and trailing silent blocks : No
Null samples used in CRC calculations : Yes
Used interface : Native Win32 interface for Win NT & 2000
Gap handling : Appended to previous track

Used output format : User Defined Encoder
Selected bitrate : 768 kBit/s
Quality : High
Add ID3 tag : No
Command line compressor : C:\Program Files\Exact Audio Copy\FLAC\FLAC.EXE
Additional command line options : -8 -V -T "ARTIST=%a" -T "TITLE=%t" -T "ALBUM=%g" -T "DATE=%y" -T "TRACKNUMBER=%n" -T "TOTALTRACKS=%x" -T "GENRE=%m" -T "ALBUM ARTIST=%v" -T "ALBUMARTIST=%v" -T "COMMENT=EAC V1.0 Beta 1, Secure Mode, Test & Copy, AccurateRip


TOC of the extracted CD

Track | Start | Length | Start sector | End sector
––––––––––––––––––––––––––––-
1 | 0:00.32 | 3:48.43 | 32 | 17174
2 | 3:49.00 | 6:09.67 | 17175 | 44916
3 | 9:58.67 | 6:05.20 | 44917 | 72311
4 | 16:04.12 | 5:05.63 | 72312 | 95249


Track 1

Filename C:\EAC\01 - Ironic (Album Version).wav

Pre-gap length 0:00:02.32

Peak level 96.9 %
Extraction speed 2.9 X
Track quality 100.0 %
Test CRC 657F6D42
Copy CRC 657F6D42
Accurately ripped (confidence 11) [46113E79]
Copy OK

Track 2

Filename C:\EAC\02 - Forgiven (Live From Tokyo).wav

Pre-gap length 0:00:01.25

Peak level 99.3 %
Extraction speed 3.5 X
Track quality 100.0 %
Test CRC 73910209
Copy CRC 73910209
Accurately ripped (confidence 11) [B32396DA]
Copy OK

Track 3

Filename C:\EAC\03 - Not the Doctor (Modern Rock Live From L.A.).wav

Pre-gap length 0:00:01.14

Peak level 99.3 %
Extraction speed 3.5 X
Track quality 99.9 %
Test CRC 3E009CBD
Copy CRC 3E009CBD
Accurately ripped (confidence 11) [526E40E4]
Copy OK

Track 4

Filename C:\EAC\04 - Wake Up (Modern Rock Live From L.A.).wav

Pre-gap length 0:00:01.14

Peak level 99.3 %
Extraction speed 3.7 X
Track quality 99.9 %
Test CRC 4142EF65
Copy CRC 4142EF65
Accurately ripped (confidence 11) [AC452E4C]
Copy OK


All tracks accurately ripped

No errors occurred

End of status report

==== Log checksum E61B569082DC7A0F7ACB5A9072C87087580C83260481B23A8890EAF5195FD1CC ====


Tracklist CD3 - You Learn:

01. You Learn (Album Version) (04:00)
02. Your House (Live from Tokyo) (03:06)
03. Wake Up (Modern Rock Live from L.A.) (05:06)
04. Hand in My Pocket (Album Version) (03:42)

Converted to Image (CUETools 2.1.4)

Exact Audio Copy V1.0 beta 1 from 15. November 2010

EAC extraction logfile from 5. May 2011, 15:43

Alanis Morissette / The Singles Box (CD 3)

Used drive : TEAC DV-W28S-RT Adapter: 1 ID: 0

Read mode : Secure
Utilize accurate stream : Yes
Defeat audio cache : Yes
Make use of C2 pointers : No

Read offset correction : 48
Overread into Lead-In and Lead-Out : No
Fill up missing offset samples with silence : Yes
Delete leading and trailing silent blocks : No
Null samples used in CRC calculations : Yes
Used interface : Native Win32 interface for Win NT & 2000
Gap handling : Appended to previous track

Used output format : User Defined Encoder
Selected bitrate : 768 kBit/s
Quality : High
Add ID3 tag : No
Command line compressor : C:\Program Files\Exact Audio Copy\FLAC\FLAC.EXE
Additional command line options : -8 -V -T "ARTIST=%a" -T "TITLE=%t" -T "ALBUM=%g" -T "DATE=%y" -T "TRACKNUMBER=%n" -T "TOTALTRACKS=%x" -T "GENRE=%m" -T "ALBUM ARTIST=%v" -T "ALBUMARTIST=%v" -T "COMMENT=EAC V1.0 Beta 1, Secure Mode, Test & Copy, AccurateRip


TOC of the extracted CD

Track | Start | Length | Start sector | End sector
––––––––––––––––––––––––––––-
1 | 0:00.00 | 3:59.27 | 0 | 17951
2 | 3:59.27 | 3:05.48 | 17952 | 31874
3 | 7:05.00 | 5:07.72 | 31875 | 54971
4 | 12:12.72 | 3:38.20 | 54972 | 71341


Track 1

Filename C:\EAC\01 - You learn (Album version).wav

Pre-gap length 0:00:02.00

Peak level 95.4 %
Extraction speed 2.7 X
Track quality 100.0 %
Test CRC 7D7180E5
Copy CRC 7D7180E5
Accurately ripped (confidence 2) [1FDC8238]
Copy OK

Track 2

Filename C:\EAC\02 - Your house (live in Tokyo).wav

Pre-gap length 0:00:01.00

Peak level 89.8 %
Extraction speed 2.4 X
Track quality 99.9 %
Test CRC C32CCB42
Copy CRC C32CCB42
Accurately ripped (confidence 2) [1A774C6F]
Copy OK

Track 3

Filename C:\EAC\03 - Wake up (Modern Rock live).wav

Pre-gap length 0:00:02.03

Peak level 99.0 %
Extraction speed 3.3 X
Track quality 100.0 %
Test CRC E7164BBE
Copy CRC E7164BBE
Accurately ripped (confidence 2) [05686140]
Copy OK

Track 4

Filename C:\EAC\04 - Hand in my pocket (Album version).wav

Pre-gap length 0:00:00.33

Peak level 97.8 %
Extraction speed 3.4 X
Track quality 100.0 %
Test CRC 813557A9
Copy CRC 813557A9
Accurately ripped (confidence 2) [759D15A4]
Copy OK


All tracks accurately ripped

No errors occurred

End of status report

==== Log checksum 00982EB612CCC36022C563630C0F3F464024D62749DE8B888BC531307B76FCE8 ====


Tracklist CD4 - Hand in My Pocket:

01. Hand in My Pocket (Clean Version) (03:42)
02. Head Over Feet (Live from Holland) (04:11)
03. Not the Doctor (Live from Holland) (03:58)

Converted to Image (CUETools 2.1.4)

Exact Audio Copy V1.0 beta 1 from 15. November 2010

EAC extraction logfile from 5. May 2011, 16:38

Alanis Morissette / The Singles Box (CD4)

Used drive : TEAC DV-W28S-RT Adapter: 1 ID: 0

Read mode : Secure
Utilize accurate stream : Yes
Defeat audio cache : Yes
Make use of C2 pointers : No

Read offset correction : 48
Overread into Lead-In and Lead-Out : No
Fill up missing offset samples with silence : Yes
Delete leading and trailing silent blocks : No
Null samples used in CRC calculations : Yes
Used interface : Native Win32 interface for Win NT & 2000
Gap handling : Appended to previous track

Used output format : User Defined Encoder
Selected bitrate : 768 kBit/s
Quality : High
Add ID3 tag : No
Command line compressor : C:\Program Files\Exact Audio Copy\FLAC\FLAC.EXE
Additional command line options : -8 -V -T "ARTIST=%a" -T "TITLE=%t" -T "ALBUM=%g" -T "DATE=%y" -T "TRACKNUMBER=%n" -T "TOTALTRACKS=%x" -T "GENRE=%m" -T "ALBUM ARTIST=%v" -T "ALBUMARTIST=%v" -T "COMMENT=EAC V1.0 Beta 1, Secure Mode, Test & Copy, AccurateRip


TOC of the extracted CD

Track | Start | Length | Start sector | End sector
––––––––––––––––––––––––––––-
1 | 0:00.00 | 3:38.00 | 0 | 16349
2 | 3:38.00 | 4:10.62 | 16350 | 35161
3 | 7:48.62 | 3:58.05 | 35162 | 53016


Track 1

Filename C:\EAC\01 - Hand In My Pocket (Clean Version).wav

Pre-gap length 0:00:02.00

Peak level 95.6 %
Extraction speed 2.6 X
Track quality 100.0 %
Test CRC 934B5A5F
Copy CRC 934B5A5F
Accurately ripped (confidence 3) [383BE7A3]
Copy OK

Track 2

Filename C:\EAC\02 - Head Over Feet (Live From Holland).wav

Pre-gap length 0:00:00.28

Peak level 92.6 %
Extraction speed 3.0 X
Track quality 100.0 %
Test CRC 1D585539
Copy CRC 1D585539
Accurately ripped (confidence 3) [F539014D]
Copy OK

Track 3

Filename C:\EAC\03 - Not The Doctor (Live From Holland).wav

Pre-gap length 0:00:02.30

Peak level 96.0 %
Extraction speed 2.8 X
Track quality 99.9 %
Test CRC BD9774A6
Copy CRC BD9774A6
Accurately ripped (confidence 3) [62B6617D]
Copy OK


All tracks accurately ripped

No errors occurred

End of status report

==== Log checksum 816FBCE5A55F02D10A598602D1BA7FECC554F1D1EE7AB17FE6231FD27C52E5B1 ====


Tracklist CD5 - Head Over Feet:

01. Head Over Feet (Album Version) (04:27)
02. You Learn (Live from Michigan) (04:15)
03. Right Through You (Live from Michigan) (03:12)
04. Hand in My Pocket (Live from Brisbane) (04:29)
05. Ironic (Live from Sydney) (04:35)

Converted to Image (CUETools 2.1.4)

Exact Audio Copy V1.0 beta 1 from 15. November 2010

EAC extraction logfile from 5. May 2011, 16:01

Alanis Morissette / The Singles Box (CD 5)

Used drive : TEAC DV-W28S-RT Adapter: 1 ID: 0

Read mode : Secure
Utilize accurate stream : Yes
Defeat audio cache : Yes
Make use of C2 pointers : No

Read offset correction : 48
Overread into Lead-In and Lead-Out : No
Fill up missing offset samples with silence : Yes
Delete leading and trailing silent blocks : No
Null samples used in CRC calculations : Yes
Used interface : Native Win32 interface for Win NT & 2000
Gap handling : Appended to previous track

Used output format : User Defined Encoder
Selected bitrate : 768 kBit/s
Quality : High
Add ID3 tag : No
Command line compressor : C:\Program Files\Exact Audio Copy\FLAC\FLAC.EXE
Additional command line options : -8 -V -T "ARTIST=%a" -T "TITLE=%t" -T "ALBUM=%g" -T "DATE=%y" -T "TRACKNUMBER=%n" -T "TOTALTRACKS=%x" -T "GENRE=%m" -T "ALBUM ARTIST=%v" -T "ALBUMARTIST=%v" -T "COMMENT=EAC V1.0 Beta 1, Secure Mode, Test & Copy, AccurateRip


TOC of the extracted CD

Track | Start | Length | Start sector | End sector
––––––––––––––––––––––––––––-
1 | 0:00.00 | 4:23.67 | 0 | 19791
2 | 4:23.67 | 4:14.53 | 19792 | 38894
3 | 8:38.45 | 3:12.19 | 38895 | 53313
4 | 11:50.64 | 4:29.37 | 53314 | 73525
5 | 16:20.26 | 4:34.49 | 73526 | 94124


Track 1

Filename C:\EAC\01 - Head Over Feet (Album Version).wav

Pre-gap length 0:00:02.00

Peak level 92.2 %
Extraction speed 2.8 X
Track quality 100.0 %
Test CRC 69FA5955
Copy CRC 69FA5955
Accurately ripped (confidence 3) [C9FB2267]
Copy OK

Track 2

Filename C:\EAC\02 - You Learn (Live From Michigan).wav

Pre-gap length 0:00:02.00

Peak level 99.0 %
Extraction speed 2.7 X
Track quality 99.9 %
Test CRC E9BE95E3
Copy CRC E9BE95E3
Accurately ripped (confidence 3) [D0AA7106]
Copy OK

Track 3

Filename C:\EAC\03 - Right Through You (Live From Michigan).wav

Pre-gap length 0:00:02.00

Peak level 97.9 %
Extraction speed 2.7 X
Track quality 99.9 %
Test CRC B1AC612C
Copy CRC B1AC612C
Accurately ripped (confidence 3) [D36D120B]
Copy OK

Track 4

Filename C:\EAC\04 - Hand In My Pocket (Live From Brisbane).wav

Pre-gap length 0:00:02.00

Peak level 99.0 %
Extraction speed 3.5 X
Track quality 100.0 %
Test CRC 0A46BC2E
Copy CRC 0A46BC2E
Accurately ripped (confidence 3) [A82F0BFE]
Copy OK

Track 5

Filename C:\EAC\05 - Ironic (Live From Sydney).wav

Pre-gap length 0:00:02.00

Peak level 100.0 %
Extraction speed 3.7 X
Track quality 100.0 %
Test CRC D4E766BB
Copy CRC D4E766BB
Accurately ripped (confidence 3) [F58B0DAC]
Copy OK


All tracks accurately ripped

No errors occurred

End of status report

==== Log checksum AD5EC737AC08BB1E02DF7871038B7F38E69E53552931A6B227489E5BE8BE20DF ====


Alanis Morissette - The Singles Box (1996) [5CD Box Set]

All thanks go to the original releaser

Alanis Morissette in my Blog

Download Alanis Morissette - The Singles Box (1996):