Subcategories

Alcatrazz - Live Sentence (1984) {1991, Japan}

Posted By: popsakov
Alcatrazz - Live Sentence (1984) {1991, Japan}

Alcatrazz - Live Sentence (1984)
EAC Rip | FLAC (Img) + Cue + Log ~ 268 Mb | MP3 CBR320 ~ 103 Mb
Scans Included (JPG, 300 dpi) | RAR 5% Recovery
Hard Rock, Heavy Metal | Polydor K.K. #POCP-1836

Live Sentence (1984) was the only live album released by Graham Bonnet's Alcatrazz (excluding posthumous releases) and contains some of the songs performed by Bonnet in his time with Ritchie Blackmore's Rainbow. The live show was recorded at the Nakano Sun Plaza in Tokyo on January 28, 1984 and was based on their previous album No Parole From Rock N' Roll and had the same lineup. According to Billboard, the album spent 16 weeks on the chart and peaked at No. 133.
~ Wiki


This average quality live recording showcases Alcatrazz on their successful 1984 Japanese tour – the only country where the band could get arrested. Besides performing songs from their debut album, the band run through a few of vocalist Graham Bonnet's Rainbow-era songs ("Since You've Been Gone," "All Night Long," and "Night Games") and guitarist Yngwie J. Malmsteen's soon-to-be-released solo work ("Evil Eye"). Therefore, the album is more interesting as a historical curiosity than an artistic statement, as it provides one of the earliest showcases of a young Malmsteen shredding in a live setting. In fact, the guitarist quickly dispels any rumors that the words "restraint" and "economy" were ever part of his musical vocabulary. Malmsteen's attempts to cram every available space with a barrage of notes is both comical and amazing.
~ Eduardo Rivadavia, All Music

***************

Alcatrazz - Live Sentence (1984) {1991, Japan}

Track List:

01. Too Young to Die, Too Drunk to Live [0:04:47.68]
02. Hiroshima Mon Amour [0:04:12.55]
03. Night Games [0:03:28.35]
04. Island in the Sun [0:04:09.30]
05. Kree Nakoorie [0:06:52.52]
06. Coming Bach [0:00:53.00]
07. Since You've Been Gone [0:03:32.15]
08. Evil Eye [0:05:13.38]
09. All Night Long [0:05:45.72]

Personnel:

Graham Bonnet - vocals
Yngwie Malmsteen - guitar
Gary Shea - bass
Jan Uvena - drums, backing vocals
Jimmy Waldo - keyboards, backing vocals

Exact Audio Copy V1.1 from 23. June 2015

EAC extraction logfile from 10. March 2016, 18:20

Alcatrazz / Live Sentence [POCP-1836]

Used drive : HL-DT-STBD-RE BH10LS38 Adapter: 1 ID: 1

Read mode : Secure
Utilize accurate stream : Yes
Defeat audio cache : Yes
Make use of C2 pointers : No

Read offset correction : 667
Overread into Lead-In and Lead-Out : No
Fill up missing offset samples with silence : Yes
Delete leading and trailing silent blocks : No
Null samples used in CRC calculations : Yes
Used interface : Installed external ASPI interface

Used output format : User Defined Encoder
Selected bitrate : 128 kBit/s
Quality : High
Add ID3 tag : No
Command line compressor : C:\Program Files (x86)\Exact Audio Copy\wavpack-4.60.1\wavpack.exe
Additional command line options : -hm -w "Year=%year%" -w "Genre=%genre%" %source% %dest%


TOC of the extracted CD

Track | Start | Length | Start sector | End sector
––––––––––––––––––––––––––––-
1 | 0:00.37 | 4:47.68 | 37 | 21629
2 | 4:48.30 | 4:12.55 | 21630 | 40584
3 | 9:01.10 | 3:28.35 | 40585 | 56219
4 | 12:29.45 | 4:09.30 | 56220 | 74924
5 | 16:39.00 | 6:52.52 | 74925 | 105876
6 | 23:31.52 | 0:53.00 | 105877 | 109851
7 | 24:24.52 | 3:32.15 | 109852 | 125766
8 | 27:56.67 | 5:13.38 | 125767 | 149279
9 | 33:10.30 | 5:45.72 | 149280 | 175226


Range status and errors

Selected range

Filename G:\Rips by Alder\Alcatrazz - Live Sentence [POCP-1836].wav

Peak level 90.6 %
Extraction speed 6.8 X
Range quality 100.0 %
Test CRC 03C809CB
Copy CRC 03C809CB
Copy OK

No errors occurred


AccurateRip summary

Track 1 accurately ripped (confidence 3) [3D92246A] (AR v2)
Track 2 accurately ripped (confidence 3) [49DF4A01] (AR v2)
Track 3 accurately ripped (confidence 3) [51B6CBE1] (AR v2)
Track 4 accurately ripped (confidence 3) [B6FE3C12] (AR v2)
Track 5 accurately ripped (confidence 3) [2C5344FA] (AR v2)
Track 6 accurately ripped (confidence 3) [BD53A3AB] (AR v2)
Track 7 accurately ripped (confidence 3) [8EF31B41] (AR v2)
Track 8 accurately ripped (confidence 3) [658A3723] (AR v2)
Track 9 accurately ripped (confidence 3) [7BC9114D] (AR v2)

All tracks accurately ripped

End of status report

–– CUETools DB Plugin V2.1.6

[CTDB TOCID: pe9g9I7vt6gUSP7gYbGN5zlojHI-] found
Submit result: pe9g9I7vt6gUSP7gYbGN5zlojHI- has been confirmed
Track | CTDB Status
1 | (11/11) Accurately ripped
2 | (11/11) Accurately ripped
3 | (11/11) Accurately ripped
4 | (11/11) Accurately ripped
5 | (11/11) Accurately ripped
6 | (11/11) Accurately ripped
7 | (11/11) Accurately ripped
8 | (11/11) Accurately ripped
9 | (11/11) Accurately ripped


==== Log checksum 98D2F862BD8A5860509412968C822E87AF3BD54734875D43E56BAC8DA694D208 ====

foobar2000 1.2.6 / Dynamic Range Meter 1.1.1
log date: 2016-03-10 21:04:40

––––––––––––––––––––––––––––––––––––––––
Analyzed: Alcatrazz / Live Sentence [POCP-1836]
––––––––––––––––––––––––––––––––––––––––

DR Peak RMS Duration Track
––––––––––––––––––––––––––––––––––––––––
DR14 -1.48 dB -16.53 dB 4:48 01-Too Young to Die, Too Drunk to Live
DR14 -1.17 dB -16.74 dB 4:13 02-Hiroshima Mon Amour
DR13 -1.75 dB -17.24 dB 3:28 03-Night Games
DR12 -2.47 dB -16.99 dB 4:09 04-Island in the Sun
DR13 -0.85 dB -17.25 dB 6:53 05-Kree Nakoorie
DR10 -9.02 dB -21.92 dB 0:53 06-Coming Bach
DR14 -1.32 dB -16.68 dB 3:32 07-Since You've Been Gone
DR14 -1.03 dB -17.00 dB 5:14 08-Evil Eye
DR14 -1.39 dB -18.09 dB 5:46 09-All Night Long
––––––––––––––––––––––––––––––––––––––––

Number of tracks: 9
Official DR value: DR13

Samplerate: 44100 Hz
Channels: 2
Bits per sample: 16
Bitrate: 884 kbps
Codec: FLAC
================================================================================

[CUETools log; Date: 10.03.2016 21:04:32; Version: 2.1.5]
Pregap length 00:00:37.
[CTDB TOCID: pe9g9I7vt6gUSP7gYbGN5zlojHI-] found.
Track | CTDB Status
1 | (12/12) Accurately ripped
2 | (12/12) Accurately ripped
3 | (12/12) Accurately ripped
4 | (12/12) Accurately ripped
5 | (12/12) Accurately ripped
6 | (12/12) Accurately ripped
7 | (12/12) Accurately ripped
8 | (12/12) Accurately ripped
9 | (12/12) Accurately ripped
[AccurateRip ID: 000d1d08-005faef5-6d092009] found.
Track [ CRC | V2 ] Status
01 [2592f8f2|3d92246a] (02+03/18) Accurately ripped
02 [98e4747f|49df4a01] (02+03/18) Accurately ripped
03 [8f57c128|51b6cbe1] (02+03/18) Accurately ripped
04 [bcaf4a1a|b6fe3c12] (02+03/18) Accurately ripped
05 [638112af|2c5344fa] (02+03/18) Accurately ripped
06 [94ff02a8|bd53a3ab] (02+03/18) Accurately ripped
07 [8a57de0d|8ef31b41] (02+03/18) Accurately ripped
08 [7b3df5cb|658a3723] (02+03/18) Accurately ripped
09 [8e4254c2|7bc9114d] (02+03/18) Accurately ripped
Offsetted by -1814:
01 [b89be385] (02/18) Accurately ripped
02 [21ddeeb4] (02/18) Accurately ripped
03 [2658c291] (02/18) Accurately ripped
04 [88c82878] (02/18) Accurately ripped
05 [ffc2efab] (02/18) Accurately ripped
06 [177d8fce] (02/18) Accurately ripped
07 [4147f7dd] (02/18) Accurately ripped
08 [fdd7eafe] (02/18) Accurately ripped
09 [dd87fb22] (02/18) Accurately ripped
Offsetted by -1433:
01 [d72cb99e] (00/18) No match (V2 was not tested)
02 [528c5229] (00/18) No match (V2 was not tested)
03 [d8d638d2] (00/18) No match (V2 was not tested)
04 [5ef2f2fb] (00/18) No match (V2 was not tested)
05 [8e0d0e06] (00/18) No match (V2 was not tested)
06 [af3a4df6] (00/18) No match (V2 was not tested)
07 [39a29614] (00/18) No match (V2 was not tested)
08 [e900abdc] (00/18) No match (V2 was not tested)
09 [36e9828e] (00/18) No match (V2 was not tested)

Track Peak [ CRC32 ] [W/O NULL] [ LOG ]
– 90,6 [03C809CB] [7A893E94] CRC32
01 84,3 [466DE9C4] [79653462]
02 87,4 [D512E904] [F009FFF0]
03 81,7 [11CC4833] [B8BD8D80]
04 75,2 [6443FB3A] [9CA8C651]
05 90,6 [D32600A3] [928F3B0E]
06 35,4 [51AA9761] [C2F4C4CB]
07 85,9 [FE4B4E93] [B7F70D88]
08 88,8 [ADE74EE7] [6AEEE9B6]
09 85,2 [2CCC4E9B] [C92068F7]

Alcatrazz - Live Sentence (1984) {1991, Japan}

Alcatrazz - Live Sentence (1984) {1991, Japan}

All thanks go to Alder
Visit my blog!

Download:
Nitroflare: FLAC | mp3
Salefiles: FLAC | mp3