Alcatrazz - The Ultimate Fortress Rock Set (2016) {Box Set}

Posted By: popsakov
Alcatrazz - The Ultimate Fortress Rock Set (2016) {Box Set}

Alcatrazz - The Ultimate Fortress Rock Set (2016) {Box Set}
5CD | EAC Rip | FLAC (Img) + Cue + Log ~ 2,46 Gb | MP3 CBR320 ~ 864 Mb
Covers Icluded | Booklet (JPG, 300 dpi) ~ 16 Mb | RAR 5% Recovery
Hard Rock, Heavy Metal | The Store For Music Ltd. #SFMBOX002

This is the ultimate collection of Alcatrazz - with all their original albums, official bootleg bonus tracks and footage from 2 live concerts, one of which is previously unreleased. There is also a collectors logo sticker and booklet outlining all these recordings including some unique photographs. A must for all Alcatrazz and Graham Bonnet fans.

Although Alcatrazz provided Graham Bonnet with the perfect post-Rainbow/MSG platform, the real treasure within this jam-packed box set comes courtesy of two guitarists who would go on to rule the world of riffs.

Listen to No Parole For Rock N Roll and it's clear where Yngwie Malmsteen was heading his contribution to a killer record sewed the seeds for the Swede's landmark album Odyssey.

Complementing Bonnet's supreme vocals with a flurry of histrionic hooks, the guitar hero has a ball on Alcatrazz's dazzling debut. Five years later Mallmsteen hooked up with Joe Lynn Turner to do it all again with his own Rising Force and the similarities remain striking. By the time Alcatrazz had fired off live album Live Sentence the fiery Malmsteen was gone but his equally volatile replacement generated the same buzz of anticipation.

The decision to bring Steve Vai on board guaranteed guitar fans would continue to flock to gigs where technical wizardry traded blows with bluesy rock and roll. Disturbing The Peace debuted the Bonnet-Vai axis but despite a slick Eddie Kramer production job and the timely God Blessed Video single, a genuine commercial breakthrough continued to elude Alcatrazz. An album made for the mid-80s sounds like it should have shifted millions and as a record of it's time it still stands the test of time. Vai never Bonnet's first choice was picked up by David Lee Roth and Danny Johnston became the latest six-stringer to join Alacatrazz's revolving doors line-up.

Dangerous Games was released in 1986 but its mix of covers and pop rock doesn't do justice to a frontman still capable of hitting the high notes in 2016. Thankfully The Ultimate Fortress Box Set doesn't stop there vintage Japanese concerts introduce a raft of Rainbow classics and there's evidence of Bonnet's enduring class as last June's Graham Bonnet Band set gets an airing. At their peak with Malmsteen and Vai firing on all cylinders Alcatrazz were sensational. Thirty years later theirs is still a mysterious story of what might have been…
~ RushOnRock

Alcatrazz - The Ultimate Fortress Rock Set (2016) {Box Set}


***************

Alcatrazz - The Ultimate Fortress Rock Set (2016) {Box Set}

Alcatrazz - The Ultimate Fortress Rock Set (2016) {Box Set}

Track List CD1 - No Parole From Rock'n'Roll (1983):

01. Island In The Sun [3:57]
02. General Hospital [4:52]
03. Jet To Jet [4:29]
04. Hiroshima Mon Amour [4:03]
05. Kree Nakoorie [6:13]
06. Incubus [1:27]
07. Too Young To Die, Too Drunk To Live [4:21]
08. Big Foot [4:06]
09. Starcarr Lane [3:56]
10. Suffer Me [4:20]
11. Kree Nakoorie (Original Instrumental Demo Session) [5:20]
12. Starcarr Lane (Original Instrumental Demo Session) [4:31]
13. Island In The Sun (Original Instrumental Demo Session) [3:46]
14. Big Foot (Original Instrumental Demo Session) [3:52]
15. Hiroshima Mon Amour (Original Instrumental Demo Session) [3:22]
16. General Hospital (Original Instrumental Demo Session) [4:12]
17. Incubus (Original Instrumental Demo Session) [1:40]
18. Suffer Me (Original Instrumental Demo Session) [3:25]
19. Too Young To Die, Too Drunk To Live (Original Instrumental Demo Session) [3:44]
20. Jet To Jet (Original Instrumental Demo Session) [3:45]

Personnel:

Graham Bonnet - all vocals
Yngwie Malmsteen - all guitars & backing vocals
Gary Shea - bass
Jan Uvena - drums
Jimmy Waldo - keyboards

Exact Audio Copy V1.0 beta 3 from 29. August 2011

EAC extraction logfile from 2. September 2016, 20:27

Alcatrazz / No Parole From Rock 'N' Roll

Used drive : SlimtypeDVD A DS8A5SH Adapter: 0 ID: 0

Read mode : Secure
Utilize accurate stream : Yes
Defeat audio cache : Yes
Make use of C2 pointers : No

Read offset correction : 6
Overread into Lead-In and Lead-Out : No
Fill up missing offset samples with silence : Yes
Delete leading and trailing silent blocks : No
Null samples used in CRC calculations : Yes
Used interface : Installed external ASPI interface

Used output format : User Defined Encoder
Selected bitrate : 320 kBit/s
Quality : High
Add ID3 tag : No
Command line compressor : C:\Program Files (x86)\Exact Audio Copy\Flac\flac.exe
Additional command line options : -V -8 -T "Date=%year%" -T "Genre=%genre%" %source%


TOC of the extracted CD

Track | Start | Length | Start sector | End sector
––––––––––––––––––––––––––––-
1 | 0:00.00 | 3:56.58 | 0 | 17757
2 | 3:56.58 | 4:52.37 | 17758 | 39694
3 | 8:49.20 | 4:28.72 | 39695 | 59866
4 | 13:18.17 | 4:03.19 | 59867 | 78110
5 | 17:21.36 | 6:12.58 | 78111 | 106068
6 | 23:34.19 | 1:26.38 | 106069 | 112556
7 | 25:00.57 | 4:21.32 | 112557 | 132163
8 | 29:22.14 | 4:06.05 | 132164 | 150618
9 | 33:28.19 | 3:55.48 | 150619 | 168291
10 | 37:23.67 | 4:20.07 | 168292 | 187798
11 | 41:43.74 | 5:19.72 | 187799 | 211795
12 | 47:03.71 | 4:30.47 | 211796 | 232092
13 | 51:34.43 | 3:46.18 | 232093 | 249060
14 | 55:20.61 | 3:51.41 | 249061 | 266426
15 | 59:12.27 | 3:21.59 | 266427 | 281560
16 | 62:34.11 | 4:12.17 | 281561 | 300477
17 | 66:46.28 | 1:40.12 | 300478 | 307989
18 | 68:26.40 | 3:25.32 | 307990 | 323396
19 | 71:51.72 | 3:44.28 | 323397 | 340224
20 | 75:36.25 | 3:44.52 | 340225 | 357076


Range status and errors

Selected range

Filename D:\My Music\Alcatrazz - 2016 The Ultimate Fortress Rock Set\CD1 - No Parole From Rock 'N' Roll\Alcatrazz - No Parole From Rock 'N' Roll.wav

Peak level 100.0 %
Extraction speed 2.1 X
Range quality 100.0 %
Test CRC 576B3EF0
Copy CRC 576B3EF0
Copy OK

No errors occurred


AccurateRip summary

Track 1 cannot be verified as accurate (confidence 1) [7104A66E], AccurateRip returned [54D49F1B] (AR v2)
Track 2 cannot be verified as accurate (confidence 1) [D192808B], AccurateRip returned [2F9B54EF] (AR v2)
Track 3 cannot be verified as accurate (confidence 1) [C3E82059], AccurateRip returned [D50A1DD5] (AR v2)
Track 4 cannot be verified as accurate (confidence 1) [84EB6CAF], AccurateRip returned [EE235339] (AR v2)
Track 5 cannot be verified as accurate (confidence 1) [718969F7], AccurateRip returned [DA5BA162] (AR v2)
Track 6 cannot be verified as accurate (confidence 1) [BFA24F6D], AccurateRip returned [644BBF81] (AR v2)
Track 7 cannot be verified as accurate (confidence 1) [1AA0C706], AccurateRip returned [E236ACD8] (AR v2)
Track 8 cannot be verified as accurate (confidence 1) [C2B83890], AccurateRip returned [4049245F] (AR v2)
Track 9 cannot be verified as accurate (confidence 1) [BC17CEF5], AccurateRip returned [443C0552] (AR v2)
Track 10 cannot be verified as accurate (confidence 1) [FB4DA049], AccurateRip returned [56BE12B0] (AR v2)
Track 11 cannot be verified as accurate (confidence 2) [279A8CCD], AccurateRip returned [36D5DE24] (AR v2)
Track 12 cannot be verified as accurate (confidence 2) [0C29A1E5], AccurateRip returned [0E0AE911] (AR v2)
Track 13 cannot be verified as accurate (confidence 2) [087D7662], AccurateRip returned [156E1BFD] (AR v2)
Track 14 cannot be verified as accurate (confidence 2) [CC9B1552], AccurateRip returned [42AFED4D] (AR v2)
Track 15 cannot be verified as accurate (confidence 2) [2D634094], AccurateRip returned [DB213004] (AR v2)
Track 16 cannot be verified as accurate (confidence 2) [2D1763DD], AccurateRip returned [1F71C8D8] (AR v2)
Track 17 cannot be verified as accurate (confidence 2) [7BFE5636], AccurateRip returned [C163AE2F] (AR v2)
Track 18 cannot be verified as accurate (confidence 2) [189B4BFD], AccurateRip returned [21CFE652] (AR v2)
Track 19 cannot be verified as accurate (confidence 2) [A192E244], AccurateRip returned [D82C777D] (AR v2)
Track 20 cannot be verified as accurate (confidence 2) [D4421F8B], AccurateRip returned [F69AA654] (AR v2)

No tracks could be verified as accurate
You may have a different pressing from the one(s) in the database

End of status report

==== Log checksum 17603BC4EE98E243D8DF14E8A5C018816AA07ADD8A237D1D1939E2AD25727155 ====

foobar2000 1.2.6 / Dynamic Range Meter 1.1.1
log date: 2016-09-12 23:22:55

––––––––––––––––––––––––––––––––––––––––
Analyzed: Alcatrazz / No Parole From Rock 'N' Roll
––––––––––––––––––––––––––––––––––––––––

DR Peak RMS Duration Track
––––––––––––––––––––––––––––––––––––––––
DR7 -0.06 dB -8.94 dB 3:57 01-Island In The Sun
DR7 -0.06 dB -8.10 dB 4:52 02-General Hospital
DR7 -0.05 dB -8.23 dB 4:29 03-Jet To Jet
DR7 -0.05 dB -8.43 dB 4:03 04-Hiroshima Mon Amour
DR7 -0.06 dB -8.43 dB 6:13 05-Kree Nakoorie
DR7 -0.08 dB -10.80 dB 1:27 06-Incubus
DR7 -0.06 dB -7.81 dB 4:21 07-Too Young To Die, Too Drunk To Live
DR7 -0.06 dB -8.92 dB 4:06 08-Big Foot
DR6 -0.06 dB -7.81 dB 3:56 09-Starcarr Lane
DR7 -0.06 dB -9.44 dB 4:20 10-Suffer Me
DR10 0.00 dB -11.14 dB 5:20 11-Kree Nakoorie (Original Instrumental Demo Session)
DR11 0.00 dB -11.96 dB 4:31 12-Starcarr Lane (Original Instrumental Demo Session)
DR10 0.00 dB -11.32 dB 3:46 13-Island In The Sun (Original Instrumental Demo Session)
DR10 0.00 dB -11.45 dB 3:52 14-Big Foot (Original Instrumental Demo Session)
DR10 0.00 dB -12.31 dB 3:22 15-Hiroshima Mon Amour (Original Instrumental Demo Session)
DR11 0.00 dB -12.43 dB 4:12 16-General Hospital (Original Instrumental Demo Session)
DR10 0.00 dB -12.43 dB 1:40 17-Incubus (Original Instrumental Demo Session)
DR10 0.00 dB -12.92 dB 3:25 18-Suffer Me (Original Instrumental Demo Session)
DR9 0.00 dB -10.59 dB 3:44 19-Too Young To Die, Too Drunk To Live (Original Instrumental Demo Session)
DR10 0.00 dB -10.88 dB 3:45 20-Jet To Jet (Original Instrumental Demo Session)
––––––––––––––––––––––––––––––––––––––––

Number of tracks: 20
Official DR value: DR8

Samplerate: 44100 Hz
Channels: 2
Bits per sample: 16
Bitrate: 905 kbps
Codec: FLAC
================================================================================

[CUETools log; Date: 12.09.2016 23:21:56; Version: 2.1.5]
[CTDB TOCID: jbi4FfbIJaBGp_6zljqd71563s4-] found.
Track | CTDB Status
1 | (6/6) Accurately ripped
2 | (6/6) Accurately ripped
3 | (6/6) Accurately ripped
4 | (6/6) Accurately ripped
5 | (6/6) Accurately ripped
6 | (6/6) Accurately ripped
7 | (6/6) Accurately ripped
8 | (6/6) Accurately ripped
9 | (6/6) Accurately ripped
10 | (6/6) Accurately ripped
11 | (6/6) Accurately ripped
12 | (6/6) Accurately ripped
13 | (6/6) Accurately ripped
14 | (6/6) Accurately ripped
15 | (6/6) Accurately ripped
16 | (6/6) Accurately ripped
17 | (6/6) Accurately ripped
18 | (6/6) Accurately ripped
19 | (6/6) Accurately ripped
20 | (6/6) Accurately ripped
[AccurateRip ID: 003bdc5c-0366032c-f5129914] found.
Track [ CRC | V2 ] Status
01 [d7113206|7104a66e] (0+0/4) No match
02 [9d597f3b|d192808b] (0+0/4) No match
03 [ced9f773|c3e82059] (0+0/4) No match
04 [ead1c8b0|84eb6caf] (0+0/4) No match
05 [63f8f0df|718969f7] (0+0/4) No match
06 [44d8d917|bfa24f6d] (0+0/4) No match
07 [252cb107|1aa0c706] (0+0/4) No match
08 [28e899f4|c2b83890] (0+0/4) No match
09 [874de399|bc17cef5] (0+0/4) No match
10 [c81e6c26|fb4da049] (0+0/4) No match
11 [68955bdb|279a8ccd] (0+0/2) No match
12 [a6ea4794|0c29a1e5] (0+0/2) No match
13 [7afd255d|087d7662] (0+0/2) No match
14 [20f0855d|cc9b1552] (0+0/2) No match
15 [a1e70f61|2d634094] (0+0/2) No match
16 [c0673cf2|2d1763dd] (0+0/2) No match
17 [734baa06|7bfe5636] (0+0/2) No match
18 [70617f01|189b4bfd] (0+0/2) No match
19 [32442082|a192e244] (0+0/2) No match
20 [b1892c02|d4421f8b] (0+0/2) No match
Offsetted by -66:
01 [a6dc0d1c] (0/4) No match
02 [e2852f9d] (0/4) No match
03 [c94c09bd] (0/4) No match
04 [3f810792] (0/4) No match
05 [ad29225b] (0/4) No match
06 [e2721475] (0/4) No match
07 [d68622bf] (0/4) No match
08 [91cb816c] (0/4) No match
09 [fb85aaed] (0/4) No match
10 [0d9cb0dc] (0/4) No match
11 [5c2dd527] (0/2) No match (V2 was not tested)
12 [91615598] (0/2) No match (V2 was not tested)
13 [74755c9d] (0/2) No match (V2 was not tested)
14 [831c7291] (0/2) No match (V2 was not tested)
15 [3e751fd9] (0/2) No match (V2 was not tested)
16 [9d01243e] (0/2) No match (V2 was not tested)
17 [b0362a84] (0/2) No match (V2 was not tested)
18 [67dc5be1] (0/2) No match (V2 was not tested)
19 [55835a42] (0/2) No match (V2 was not tested)
20 [c085fd2a] (0/2) No match (V2 was not tested)

Track Peak [ CRC32 ] [W/O NULL] [ LOG ]
– 100,0 [576B3EF0] [678BB8E0] CRC32
01 99,3 [087139E9] [8A7B29CD]
02 99,3 [F476F749] [6752ACC8]
03 99,3 [78A04C67] [A548CBEA]
04 99,3 [4811A39F] [BA4A3BF8]
05 99,3 [03D680B2] [30EC5CD1]
06 99,1 [B6F843A1] [42E34EEC]
07 99,2 [9B1DD6C9] [C5E0FB7A]
08 99,3 [054D2604] [6AE0E82B]
09 99,3 [7D5DD669] [C9C0870B]
10 99,2 [38E510C8] [8EEE6E6B]
11 100,0 [A9D92C84] [EE285FE9]
12 100,0 [5DE1DE10] [1611EA2A]
13 100,0 [4B81B26D] [6EBE74C8]
14 100,0 [E3904CBA] [FA8B0AF7]
15 100,0 [233F3300] [7961FCE5]
16 100,0 [6501F333] [B144C384]
17 100,0 [4F324999] [56C3F04E]
18 100,0 [74B6792E] [88D80168]
19 100,0 [FCE4C96D] [A2C76D83]
20 100,0 [DD02A62D] [26260EAC]

Alcatrazz - The Ultimate Fortress Rock Set (2016) {Box Set}

Alcatrazz - The Ultimate Fortress Rock Set (2016) {Box Set}

Track List CD2 - Live Sentence (1984):

01. Too Young To Die, Too Drunk To Live [4:53]
02. Hiroshima Mon Amour [4:12]
03. Night Games [3:01]
04. Big Foot [4:13]
05. Island In The Sun [4:08]
06. Kree Nakoorie [7:36]
07. Coming Bach [3:21]
08. Since You Been Gone [3:22]
09. Suffer Me [4:51]
10. Desert Song [5:14]
11. Evil Eye [5:06]
12. Guitar Crash [4:38]
13. All Night Long [7:09]
14. Lost In Hollywood [5:23]
15. Kojo No Tsuki [1:38]
16. Something Else [3:10]

Personnel:

Graham Bonnet - all vocals
Yngwie Malmsteen - all guitars
Gary Shea - bass
Jan Uvena - drums
Jimmy Waldo - keyboards

Exact Audio Copy V1.0 beta 3 from 29. August 2011

EAC extraction logfile from 2. September 2016, 22:08

Alcatrazz / Live Sentence

Used drive : SlimtypeDVD A DS8A5SH Adapter: 0 ID: 0

Read mode : Secure
Utilize accurate stream : Yes
Defeat audio cache : Yes
Make use of C2 pointers : No

Read offset correction : 6
Overread into Lead-In and Lead-Out : No
Fill up missing offset samples with silence : Yes
Delete leading and trailing silent blocks : No
Null samples used in CRC calculations : Yes
Used interface : Installed external ASPI interface

Used output format : User Defined Encoder
Selected bitrate : 320 kBit/s
Quality : High
Add ID3 tag : No
Command line compressor : C:\Program Files (x86)\Exact Audio Copy\Flac\flac.exe
Additional command line options : -V -8 -T "Date=%year%" -T "Genre=%genre%" %source%


TOC of the extracted CD

Track | Start | Length | Start sector | End sector
––––––––––––––––––––––––––––-
1 | 0:00.00 | 4:53.17 | 0 | 21991
2 | 4:53.17 | 4:12.32 | 21992 | 40923
3 | 9:05.49 | 3:01.34 | 40924 | 54532
4 | 12:07.08 | 4:12.39 | 54533 | 73471
5 | 16:19.47 | 4:08.25 | 73472 | 92096
6 | 20:27.72 | 7:35.56 | 92097 | 126277
7 | 28:03.53 | 3:20.63 | 126278 | 141340
8 | 31:24.41 | 3:21.60 | 141341 | 156475
9 | 34:46.26 | 4:51.34 | 156476 | 178334
10 | 39:37.60 | 5:14.33 | 178335 | 201917
11 | 44:52.18 | 5:05.38 | 201918 | 224830
12 | 49:57.56 | 4:37.51 | 224831 | 245656
13 | 54:35.32 | 7:08.67 | 245657 | 277823
14 | 61:44.24 | 5:22.70 | 277824 | 302043
15 | 67:07.19 | 1:37.66 | 302044 | 309384
16 | 68:45.10 | 3:10.32 | 309385 | 323666


Range status and errors

Selected range

Filename D:\My Music\Alcatrazz - 2016 The Ultimate Fortress Rock Set\CD2 - Live Sentence\Alcatrazz - Live Sentence.wav

Peak level 99.3 %
Extraction speed 1.9 X
Range quality 100.0 %
Test CRC 8CDA315A
Copy CRC 8CDA315A
Copy OK

No errors occurred


AccurateRip summary

Track 1 not present in database
Track 2 not present in database
Track 3 not present in database
Track 4 not present in database
Track 5 not present in database
Track 6 not present in database
Track 7 not present in database
Track 8 not present in database
Track 9 not present in database
Track 10 not present in database
Track 11 not present in database
Track 12 not present in database
Track 13 not present in database
Track 14 not present in database
Track 15 not present in database
Track 16 not present in database

None of the tracks are present in the AccurateRip database

End of status report

==== Log checksum 4B0911D84E835C8E79FE32A2DE3F70149B0CD3DBC550B455CB3F755A25924078 ====

foobar2000 1.2.6 / Dynamic Range Meter 1.1.1
log date: 2016-09-12 23:26:11

––––––––––––––––––––––––––––––––––––––––
Analyzed: Alcatrazz / Live Sentence
––––––––––––––––––––––––––––––––––––––––

DR Peak RMS Duration Track
––––––––––––––––––––––––––––––––––––––––
DR7 -0.20 dB -8.61 dB 4:53 01-Too Young To Die, Too Drunk To Live
DR7 -0.20 dB -8.91 dB 4:12 02-Hiroshima Mon Amour
DR7 -0.20 dB -8.01 dB 3:01 03-Night Games
DR8 -0.05 dB -9.01 dB 4:13 04-Big Foot
DR7 -0.20 dB -8.18 dB 4:08 05-Island In The Sun
DR7 -0.20 dB -8.70 dB 7:36 06-Kree Nakoorie
DR9 -0.20 dB -11.27 dB 3:21 07-Coming Bach
DR8 -0.20 dB -8.78 dB 3:22 08-Since You Been Gone
DR9 -0.20 dB -11.60 dB 4:51 09-Suffer Me
DR8 -0.20 dB -9.44 dB 5:14 10-Desert Song
DR8 -0.20 dB -9.54 dB 5:06 11-Evil Eye
DR7 -0.20 dB -8.74 dB 4:38 12-Guitar Crash
DR7 -0.20 dB -9.04 dB 7:09 13-All Night Long
DR7 -0.20 dB -8.45 dB 5:23 14-Lost In Hollywood
DR8 -0.20 dB -10.16 dB 1:38 15-Kojo No Tsuki
DR7 -0.20 dB -8.99 dB 3:10 16-Something Else
––––––––––––––––––––––––––––––––––––––––

Number of tracks: 16
Official DR value: DR7

Samplerate: 44100 Hz
Channels: 2
Bits per sample: 16
Bitrate: 953 kbps
Codec: FLAC
================================================================================

[CUETools log; Date: 12.09.2016 23:26:13; Version: 2.1.5]
[CTDB TOCID: YIfl24apWi4YFC4wvgv_moFSc9w-] found.
Track | CTDB Status
1 | (1/1) Accurately ripped
2 | (1/1) Accurately ripped
3 | (1/1) Accurately ripped
4 | (1/1) Accurately ripped
5 | (1/1) Accurately ripped
6 | (1/1) Accurately ripped
7 | (1/1) Accurately ripped
8 | (1/1) Accurately ripped
9 | (1/1) Accurately ripped
10 | (1/1) Accurately ripped
11 | (1/1) Accurately ripped
12 | (1/1) Accurately ripped
13 | (1/1) Accurately ripped
14 | (1/1) Accurately ripped
15 | (1/1) Accurately ripped
16 | (1/1) Accurately ripped
[AccurateRip ID: 002a4756-01ff1d7d-1910db10] disk not present in database.

Track Peak [ CRC32 ] [W/O NULL] [ LOG ]
– 99,3 [8CDA315A] [CB62B407] CRC32
01 97,7 [83BDBF92] [A1B262D5]
02 97,7 [E29352B4] [76E2A6D3]
03 97,7 [7B33B68F] [8A7E06ED]
04 99,3 [980D1D2D] [AB25E724]
05 97,7 [2A5BBF80] [C2B80D34]
06 97,7 [5299C2CD] [EEEDDA3D]
07 97,7 [AA2C48D5] [839A0F92]
08 97,7 [6B80BF2D] [3C98D6E0]
09 97,7 [3F72D7DC] [3D129107]
10 97,7 [088E3CE9] [E8A1004C]
11 97,7 [5447D1DE] [F5A3AD4E]
12 97,7 [D7BBFB8E] [ED62057D]
13 97,7 [F8F268D3] [5FEE78AE]
14 97,7 [80620CFF] [A9F180B8]
15 97,7 [591625AB] [B9C516DE]
16 97,7 [2A94505A] [B767263E]

Alcatrazz - The Ultimate Fortress Rock Set (2016) {Box Set}

Alcatrazz - The Ultimate Fortress Rock Set (2016) {Box Set}

Track List CD3 - Disturbing The Peace (1985):

01. God Blessed Video [3:30]
02. Mercy [4:22]
03. Will You Be Home Tonight [4:54]
04. Wire And Wood [3:29]
05. Desert Diamond [4:20]
06. Stripper [3:54]
07. Painted Lover [3:22]
08. Lighter Shade Of Green (Instrumental) [0:49]
09. Sons And Lovers [3:40]
10. Skyfire [3:57]
11. Breaking The Heart Of The City [4:59]
12. Glass Mountain (bonus track) [4:27]
13. Red Rum (bonus track) [3:51]
14. Interview '83 [18:57]

Personnel:

Graham Bonnet - vocals
Steve Vai - guitars
Gary Shea - bass
Jan Uvena - drums
Jimmy Waldo - keyboards

Exact Audio Copy V1.0 beta 3 from 29. August 2011

EAC extraction logfile from 2. September 2016, 22:43

Alcatrazz / Disturbing The Peace

Used drive : SlimtypeDVD A DS8A5SH Adapter: 0 ID: 0

Read mode : Secure
Utilize accurate stream : Yes
Defeat audio cache : Yes
Make use of C2 pointers : No

Read offset correction : 6
Overread into Lead-In and Lead-Out : No
Fill up missing offset samples with silence : Yes
Delete leading and trailing silent blocks : No
Null samples used in CRC calculations : Yes
Used interface : Installed external ASPI interface

Used output format : User Defined Encoder
Selected bitrate : 320 kBit/s
Quality : High
Add ID3 tag : No
Command line compressor : C:\Program Files (x86)\Exact Audio Copy\Flac\flac.exe
Additional command line options : -V -8 -T "Date=%year%" -T "Genre=%genre%" %source%


TOC of the extracted CD

Track | Start | Length | Start sector | End sector
––––––––––––––––––––––––––––-
1 | 0:00.00 | 3:30.27 | 0 | 15776
2 | 3:30.27 | 4:22.34 | 15777 | 35460
3 | 7:52.61 | 4:53.46 | 35461 | 57481
4 | 12:46.32 | 3:29.17 | 57482 | 73173
5 | 16:15.49 | 4:20.31 | 73174 | 92704
6 | 20:36.05 | 3:54.28 | 92705 | 110282
7 | 24:30.33 | 3:22.25 | 110283 | 125457
8 | 27:52.58 | 0:48.65 | 125458 | 129122
9 | 28:41.48 | 3:39.50 | 129123 | 145597
10 | 32:21.23 | 3:56.48 | 145598 | 163345
11 | 36:17.71 | 4:58.64 | 163346 | 185759
12 | 41:16.60 | 4:27.13 | 185760 | 205797
13 | 45:43.73 | 3:51.28 | 205798 | 223150
14 | 49:35.26 | 18:57.00 | 223151 | 308425


Range status and errors

Selected range

Filename D:\My Music\Alcatrazz - 2016 The Ultimate Fortress Rock Set\CD3 - Disturbing The Peace\Alcatrazz - Disturbing The Peace.wav

Peak level 98.2 %
Extraction speed 4.6 X
Range quality 100.0 %
Test CRC 074BA7AE
Copy CRC 074BA7AE
Copy OK

No errors occurred


AccurateRip summary

Track 1 not present in database
Track 2 not present in database
Track 3 not present in database
Track 4 not present in database
Track 5 not present in database
Track 6 not present in database
Track 7 not present in database
Track 8 not present in database
Track 9 not present in database
Track 10 not present in database
Track 11 not present in database
Track 12 not present in database
Track 13 not present in database
Track 14 not present in database

None of the tracks are present in the AccurateRip database

End of status report

==== Log checksum 261FB7AA95393B95987324233231FE6FA9661E6BBFD4BF190BFD46795CF0858E ====

foobar2000 1.2.6 / Dynamic Range Meter 1.1.1
log date: 2016-09-12 23:27:16

––––––––––––––––––––––––––––––––––––––––
Analyzed: Alcatrazz / Disturbing The Peace
––––––––––––––––––––––––––––––––––––––––

DR Peak RMS Duration Track
––––––––––––––––––––––––––––––––––––––––
DR9 -0.15 dB -10.22 dB 3:30 01-God Blessed Video
DR10 -0.15 dB -11.59 dB 4:22 02-Mercy
DR10 -0.15 dB -12.38 dB 4:54 03-Will You Be Home Tonight
DR10 -0.18 dB -11.59 dB 3:29 04-Wire And Wood
DR11 -0.15 dB -14.14 dB 4:20 05-Desert Diamond
DR10 -0.15 dB -11.48 dB 3:54 06-Stripper
DR10 -0.16 dB -11.40 dB 3:22 07-Painted Lover
DR11 -3.34 dB -17.44 dB 0:49 08-Lighter Shade Of Green (Instrumental)
DR10 -0.15 dB -11.72 dB 3:40 09-Sons And Lovers
DR9 -0.15 dB -10.87 dB 3:57 10-Skyfire
DR10 -0.17 dB -12.77 dB 4:59 11-Breaking The Heart Of The City
DR15 -0.60 dB -20.25 dB 18:57 14-Interview '83
––––––––––––––––––––––––––––––––––––––––

Number of tracks: 12
Official DR value: DR10

Samplerate: 44100 Hz
Channels: 2
Bits per sample: 16
Bitrate: 927 kbps
Codec: FLAC
================================================================================

––––––––––––––––––––––––––––––––––––––––
Analyzed: Tomorrow's Outlook / Disturbing The Peace
––––––––––––––––––––––––––––––––––––––––

DR Peak RMS Duration Track
––––––––––––––––––––––––––––––––––––––––
DR7 -1.58 dB -8.88 dB 4:27 12-Glass Mountain (bonus track)
DR6 -1.50 dB -8.36 dB 3:51 13-Red Rum (bonus track)
––––––––––––––––––––––––––––––––––––––––

Number of tracks: 2
Official DR value: DR6

Samplerate: 44100 Hz
Channels: 2
Bits per sample: 16
Bitrate: 927 kbps
Codec: FLAC
================================================================================

[CUETools log; Date: 12.09.2016 23:27:19; Version: 2.1.5]
[CTDB TOCID: Go3czM0sjVN6hZQE5bqg0V2AKWs-] disk not present in database.
[AccurateRip ID: 001c8eb6-01333e4e-e110100e] disk not present in database.

Track Peak [ CRC32 ] [W/O NULL] [ LOG ]
– 98,2 [074BA7AE] [A50975D9] CRC32
01 98,2 [26A2647C] [77F933F4]
02 98,2 [C642C9AE] [35D04182]
03 98,2 [889B473B] [F2D7EFA9]
04 97,9 [96E43AD5] [32D77708]
05 98,2 [4E1E02AF] [CAC5FBE7]
06 98,2 [78953F7C] [259A19DC]
07 98,2 [ED655E9F] [76319DE2]
08 68,0 [35ABC4BB] [018B12EF]
09 98,2 [09E787B7] [B584DA67]
10 98,2 [F8C1FFC2] [8BDF7A34]
11 98,1 [B0D7B7C9] [510F27CC]
12 83,3 [AC0D48F8] [F005CD08]
13 84,1 [D70F167F] [8CFADDAC]
14 93,3 [3705772F] [223E0613]

Alcatrazz - The Ultimate Fortress Rock Set (2016) {Box Set}

Alcatrazz - The Ultimate Fortress Rock Set (2016) {Box Set}

Track List CD4 - Dangerous Games (1986):

01. It's My Life [4:12]
02. Undercover [3:41]
03. That Ain't Nothin [3:54]
04. No Imagination [3:16]
05. Ohayo Tokyo [2:59]
06. Dangerous Games [3:26]
07. Blue Boar [3:15]
08. Only One Woman [3:43]
09. Witchwood [4:00]
10. Double Man [4:30]
11. Night Of The Shooting Star [1:07]
12. All Night Long (bonus track) [5:18]
13. The Badger (bonus track) [5:04]
14. Piper At The Gates Of Dawn (bonus track) [8:11]

Personnel:

Graham Bonnet - lead vocals
Danny Johnson - guitars & backing vocals
Gary Shea - bass
Jan Uvena - drums & backing vocals
Jimmy Waldo - keyboards & backing vocals

Exact Audio Copy V1.0 beta 3 from 29. August 2011

EAC extraction logfile from 2. September 2016, 23:52

Alcatrazz / Dangerous Games

Used drive : SlimtypeDVD A DS8A5SH Adapter: 0 ID: 0

Read mode : Secure
Utilize accurate stream : Yes
Defeat audio cache : Yes
Make use of C2 pointers : No

Read offset correction : 6
Overread into Lead-In and Lead-Out : No
Fill up missing offset samples with silence : Yes
Delete leading and trailing silent blocks : No
Null samples used in CRC calculations : Yes
Used interface : Installed external ASPI interface

Used output format : User Defined Encoder
Selected bitrate : 320 kBit/s
Quality : High
Add ID3 tag : No
Command line compressor : C:\Program Files (x86)\Exact Audio Copy\Flac\flac.exe
Additional command line options : -V -8 -T "Date=%year%" -T "Genre=%genre%" %source%


TOC of the extracted CD

Track | Start | Length | Start sector | End sector
––––––––––––––––––––––––––––-
1 | 0:00.00 | 4:12.08 | 0 | 18907
2 | 4:12.08 | 3:40.74 | 18908 | 35481
3 | 7:53.07 | 3:53.61 | 35482 | 53017
4 | 11:46.68 | 3:16.32 | 53018 | 67749
5 | 15:03.25 | 2:59.14 | 67750 | 81188
6 | 18:02.39 | 3:26.04 | 81189 | 96642
7 | 21:28.43 | 3:14.54 | 96643 | 111246
8 | 24:43.22 | 3:43.32 | 111247 | 128003
9 | 28:26.54 | 4:00.17 | 128004 | 146020
10 | 32:26.71 | 4:29.47 | 146021 | 166242
11 | 36:56.43 | 1:06.73 | 166243 | 171265
12 | 38:03.41 | 5:17.41 | 171266 | 195081
13 | 43:21.07 | 5:03.74 | 195082 | 217880
14 | 48:25.06 | 8:11.17 | 217881 | 254722


Range status and errors

Selected range

Filename D:\My Music\Alcatrazz - 2016 The Ultimate Fortress Rock Set\CD4 - Dangerous Games\Alcatrazz - Dangerous Games.wav

Peak level 98.5 %
Extraction speed 4.4 X
Range quality 100.0 %
Test CRC 72BE942C
Copy CRC 72BE942C
Copy OK

No errors occurred


AccurateRip summary

Track 1 not present in database
Track 2 not present in database
Track 3 not present in database
Track 4 not present in database
Track 5 not present in database
Track 6 not present in database
Track 7 not present in database
Track 8 not present in database
Track 9 not present in database
Track 10 not present in database
Track 11 not present in database
Track 12 not present in database
Track 13 not present in database
Track 14 not present in database

None of the tracks are present in the AccurateRip database

End of status report

==== Log checksum 7340B35AAFAF017A68D34A2FCF6B2C9C5A45D6C17013F538ACA467B6606F6511 ====

foobar2000 1.2.6 / Dynamic Range Meter 1.1.1
log date: 2016-09-12 23:28:11

––––––––––––––––––––––––––––––––––––––––
Analyzed: Alcatrazz / Dangerous Games
––––––––––––––––––––––––––––––––––––––––

DR Peak RMS Duration Track
––––––––––––––––––––––––––––––––––––––––
DR10 -0.15 dB -11.82 dB 4:12 01-It's My Life
DR10 -0.15 dB -10.81 dB 3:41 02-Undercover
DR11 -0.15 dB -12.35 dB 3:54 03-That Ain't Nothin
DR10 -0.16 dB -11.00 dB 3:16 04-No Imagination
DR9 -0.15 dB -10.78 dB 2:59 05-Ohayo Tokyo
DR10 -0.16 dB -11.86 dB 3:26 06-Dangerous Games
DR10 -0.16 dB -11.16 dB 3:15 07-Blue Boar
DR9 -0.15 dB -11.07 dB 3:43 08-Only One Woman
DR10 -0.16 dB -11.57 dB 4:00 09-Witchwood
DR10 -0.15 dB -11.11 dB 4:30 10-Double Man
DR10 -4.40 dB -17.17 dB 1:07 11-Night Of The Shooting Star
DR5 -3.31 dB -9.26 dB 5:18 12-All Night Long (bonus track)
DR9 -0.15 dB -11.63 dB 8:11 14-Piper At The Gates Of Dawn (bonus track)
––––––––––––––––––––––––––––––––––––––––

Number of tracks: 13
Official DR value: DR9

Samplerate: 44100 Hz
Channels: 2
Bits per sample: 16
Bitrate: 935 kbps
Codec: FLAC
================================================================================

––––––––––––––––––––––––––––––––––––––––
Statistics for: 13-The Badger (bonus track)
Number of samples: 13405812
Duration: 5:04
––––––––––––––––––––––––––––––––––––––––

Left Right

Peak Value: -0.13 dB –- -0.12 dB
Avg RMS: -11.54 dB –- -11.58 dB
DR channel: 9.24 dB –- 9.43 dB
––––––––––––––––––––––––––––––––––––––––

Official DR Value: DR9

Samplerate: 44100 Hz
Channels: 2
Bits per sample: 16
Bitrate: 935 kbps
Codec: FLAC
================================================================================

[CUETools log; Date: 12.09.2016 23:28:13; Version: 2.1.5]
[CTDB TOCID: pIT1v4fiwECdH0RATZfqVUjEUPk-] disk not present in database.
[AccurateRip ID: 001a9a61-011c9b94-c60d440e] disk not present in database.

Track Peak [ CRC32 ] [W/O NULL] [ LOG ]
– 98,5 [72BE942C] [8AD35F00] CRC32
01 98,2 [19FF7A75] [22380A90]
02 98,2 [FF74DDE1] [6A9C50EF]
03 98,2 [85599FF6] [6CDB3FC0]
04 98,1 [F6EC4EA6] [51B9945E]
05 98,2 [BE83F786] [9670235B]
06 98,1 [D5492344] [C2AFEC55]
07 98,2 [2369754D] [5BDB6372]
08 98,2 [CC5EE120] [ABF25A84]
09 98,2 [0D0E9C19] [4FC696B0]
10 98,2 [7BAF6C64] [7EE3335E]
11 60,2 [50A12F38] [B09EDAF8]
12 68,3 [1CA5718F] [2B40A93A]
13 98,5 [4FF3ECB0] [4689039F]
14 98,2 [00978EB8] [B64B7379]

Alcatrazz - The Ultimate Fortress Rock Set (2016) {Box Set}

Alcatrazz - The Ultimate Fortress Rock Set (2016) {Box Set}

Track List CD5 - Bonus Tracks:

Recorded live at the Country Club, Reseda California 1983
01. Too Young To Die, Too Drunk To Live [4:41]
02. General Hospital [4:44]
03. Kree Nakoorie [6:04]
04. Island In The Sun [3:47]
05. Evil Eye [5:07]
06. Since You've Been Gone [3:33]
07. Hiroshima Mon Amour [3:42]
08. Suffer Me [4:46]
09. Desert Song [5:32]
10. Jet To Jet [4:43]

The Graham Bonnet Band
Escape From Alcatrazz - Japan June 2015
11. All Night Long [4:07]
12. Love's No Friend [4:59]
13. Since You've Been Gone [3:38]
14. Suffer Me [5:26]
15. Night Games [4:04]
16. Lost In Hollywood [5:56]

Exact Audio Copy V1.0 beta 3 from 29. August 2011

EAC extraction logfile from 3. September 2016, 1:53

Alcatrazz / Bonus Tracks

Used drive : SlimtypeDVD A DS8A5SH Adapter: 0 ID: 0

Read mode : Secure
Utilize accurate stream : Yes
Defeat audio cache : Yes
Make use of C2 pointers : No

Read offset correction : 6
Overread into Lead-In and Lead-Out : No
Fill up missing offset samples with silence : Yes
Delete leading and trailing silent blocks : No
Null samples used in CRC calculations : Yes
Used interface : Installed external ASPI interface

Used output format : User Defined Encoder
Selected bitrate : 320 kBit/s
Quality : High
Add ID3 tag : No
Command line compressor : C:\Program Files (x86)\Exact Audio Copy\Flac\flac.exe
Additional command line options : -V -8 -T "Date=%year%" -T "Genre=%genre%" %source%


TOC of the extracted CD

Track | Start | Length | Start sector | End sector
––––––––––––––––––––––––––––-
1 | 0:00.00 | 4:41.01 | 0 | 21075
2 | 4:41.01 | 4:44.07 | 21076 | 42382
3 | 9:25.08 | 6:04.18 | 42383 | 69700
4 | 15:29.26 | 3:46.65 | 69701 | 86715
5 | 19:16.16 | 5:07.15 | 86716 | 109755
6 | 24:23.31 | 3:33.00 | 109756 | 125730
7 | 27:56.31 | 3:42.37 | 125731 | 142417
8 | 31:38.68 | 4:45.55 | 142418 | 163847
9 | 36:24.48 | 5:32.13 | 163848 | 188760
10 | 41:56.61 | 4:42.72 | 188761 | 209982
11 | 46:39.58 | 4:07.28 | 209983 | 228535
12 | 50:47.11 | 4:58.64 | 228536 | 250949
13 | 55:46.00 | 3:38.06 | 250950 | 267305
14 | 59:24.06 | 5:26.08 | 267306 | 291763
15 | 64:50.14 | 4:04.00 | 291764 | 310063
16 | 68:54.14 | 5:55.55 | 310064 | 336743


Range status and errors

Selected range

Filename D:\My Music\Alcatrazz - 2016 The Ultimate Fortress Rock Set\CD5 - Bonus Tracks\Alcatrazz - Bonus Tracks.wav

Peak level 98.2 %
Extraction speed 5.1 X
Range quality 100.0 %
Test CRC D29817BB
Copy CRC D29817BB
Copy OK

No errors occurred


AccurateRip summary

Track 1 not present in database
Track 2 not present in database
Track 3 not present in database
Track 4 not present in database
Track 5 not present in database
Track 6 not present in database
Track 7 not present in database
Track 8 not present in database
Track 9 not present in database
Track 10 not present in database
Track 11 not present in database
Track 12 not present in database
Track 13 not present in database
Track 14 not present in database
Track 15 not present in database
Track 16 not present in database

None of the tracks are present in the AccurateRip database

End of status report

==== Log checksum BF12E85AAE84A266C27E3DDA7FC4F6FCED7E0ADFC1DB264179E4C1BDF59FDACA ====

foobar2000 1.2.6 / Dynamic Range Meter 1.1.1
log date: 2016-09-12 23:29:19

––––––––––––––––––––––––––––––––––––––––
Analyzed: Alcatrazz / Bonus Tracks (1-10)
The Graham Bonnet Band / Bonus Tracks (11-16)
––––––––––––––––––––––––––––––––––––––––

DR Peak RMS Duration Track
––––––––––––––––––––––––––––––––––––––––
DR5 -0.31 dB -6.02 dB 4:41 01-Too Young To Die, Too Drunk To Live
DR4 -0.31 dB -5.25 dB 4:44 02-General Hospital
DR4 -0.31 dB -5.40 dB 6:04 03-Kree Nakoorie
DR4 -0.31 dB -5.25 dB 3:47 04-Island In The Sun
DR5 -0.31 dB -6.77 dB 5:07 05-Evil Eye
DR5 -0.31 dB -5.85 dB 3:33 06-Since You've Been Gone
DR5 -0.31 dB -5.86 dB 3:42 07-Hiroshima Mon Amour
DR5 -0.31 dB -7.10 dB 4:46 08-Suffer Me
DR5 -0.31 dB -6.13 dB 5:32 09-Desert Song
DR4 -0.31 dB -5.09 dB 4:43 10-Jet To Jet
DR7 -0.15 dB -8.07 dB 4:07 11-All Night Long
DR8 -0.15 dB -8.98 dB 4:59 12-Love's No Friend
DR8 -0.15 dB -9.00 dB 3:38 13-Since You've Been Gone
DR8 -0.15 dB -9.55 dB 5:26 14-Suffer Me
DR8 -0.15 dB -8.55 dB 4:04 15-Night Games
DR7 -0.15 dB -8.57 dB 5:56 16-Lost In Hollywood
––––––––––––––––––––––––––––––––––––––––

Number of tracks: 16
Official DR value: DR6

Samplerate: 44100 Hz
Channels: 2
Bits per sample: 16
Bitrate: 1024 kbps
Codec: FLAC
================================================================================

[CUETools log; Date: 12.09.2016 23:29:19; Version: 2.1.5]
[CTDB TOCID: tG0nCWOSHAYc9nXJjUUxhCvKzK0-] disk not present in database.
[AccurateRip ID: 002b6c29-02076c68-f3118910] disk not present in database.

Track Peak [ CRC32 ] [W/O NULL] [ LOG ]
– 98,2 [D29817BB] [B9C8F81C] CRC32
01 96,5 [916628B4] [BF733ACC]
02 96,5 [34135CC4] [7404EDEE]
03 96,5 [74EEDA2D] [90C2669F]
04 96,5 [D25ACA04] [689F6357]
05 96,5 [3685CD89] [50CEAF50]
06 96,5 [2E05F669] [9724DC4D]
07 96,5 [8D50985F] [4A8A67CD]
08 96,5 [666E917A] [CEEAA7AD]
09 96,5 [BC54A363] [50F681D5]
10 96,5 [74793B18] [0CC09A00]
11 98,2 [A3D10DC2] [A2CEE178]
12 98,2 [04DF46FA] [CC642B9E]
13 98,2 [8DC7761B] [C55C0157]
14 98,2 [B59708F7] [115ADB3E]
15 98,2 [1C33B657] [DC6272AD]
16 98,2 [7FD361F0] [FE16F695]

Alcatrazz - The Ultimate Fortress Rock Set (2016) {Box Set}

All thanks go to kolushew

> Alcatrazz in my blog <

Download: