Subcategories

Alejandra Ribera - This Island (2017)

Posted By: SERTiL
Alejandra Ribera - This Island (2017)

Alejandra Ribera - This Island
EAC Rip | FLAC (tracks)+cue, m3u, log, front, back & inlay cover | 39:18 min | 205 MB
Label: Pheromone Recordings - 823674103927 | Tracks: 11 | Rls.date: 2017
Indie Pop, Indie Folk

Alejandra Ribera's new album, This Island, sounds distinctly different from her last two releases. She's still got that torchy-jazzy-folk vibe, and her liquid and expressive voice is still utterly unique, but the rhythmic ebb and flow of her songwriting is turned up a notch, taking her into territory that, while not quite pop, is certainly catchy.

The album starts off slowly, with the pensive, heartbeat rhythm of "Russian Plates on Michigan Avenue" and continues in a crescendo of speed and urgency. Later on the album, songs like "Carry Me" and "Led Me to You" feature subtle, hip–shaking beats and full arrangements, with a bit of brass in the background.

It all leads up to the intense, bilingual release of "Will Not Drown," before the songs slow down again for a denouement of ballads, including the stunning "Undeclared War." On that song, she sings in an almost conversational exchange between French and English, winding and rhyming the two languages together in a way that anyone with a bilingual family will find familiar.

While Ribera's earlier work seemed written for people to listen to, This Island is going to make the audience move. (Pheromone)

Alejandra Ribera - This Island (2017)


TRACKLIST
01 - Russian Plates On Michigan Avenue
02 - The Undertow
03 - Carry Me
04 - Higher
05 - Led Me To You
06 - Will Not Drown
07 - Blood Moon Rising
08 - Undeclared War
09 - Soft Place to Land
10 - I Am Orlando

Exact Audio Copy V1.3 from 2. September 2016

EAC extraction logfile from 23. February 2017, 14:56

Alejandra Ribera / This Island

Used drive : ATAPI DVD A DH16AAL Adapter: 1 ID: 0

Read mode : Secure
Utilize accurate stream : Yes
Defeat audio cache : Yes
Make use of C2 pointers : No

Read offset correction : 6
Overread into Lead-In and Lead-Out : No
Fill up missing offset samples with silence : Yes
Delete leading and trailing silent blocks : No
Null samples used in CRC calculations : Yes
Used interface : Native Win32 interface for Win NT & 2000
Gap handling : Appended to previous track

Used output format : User Defined Encoder
Selected bitrate : 1024 kBit/s
Quality : High
Add ID3 tag : No
Command line compressor : C:\Program Files (x86)\Exact Audio Copy\Flac\flac.exe
Additional command line options : -8 -e -p -V -T "ARTIST=%artist%" -T "TITLE=%title%" -T "ALBUM=%albumtitle%" -T "DATE=%year%" -T "TRACKNUMBER=%tracknr%" -T "GENRE=%genre%" -T "PERFORMER=%albuminterpret%" -T "COMPOSER=%composer%" %haslyrics%–tag-from-file=LYRICS="%lyricsfile%"%haslyrics% -T "ALBUMARTIST=%albumartist%" -T "DISCNUMBER=%cdnumber%" -T "TOTALDISCS=%totalcds%" -T "TOTALTRACKS=%numtracks%" -T "COMMENT=%comment%" %source% -o %dest%


TOC of the extracted CD

Track | Start | Length | Start sector | End sector
––––––––––––––––––––––––––––-
1 | 0:00.00 | 6:21.73 | 0 | 28647
2 | 6:21.73 | 3:41.41 | 28648 | 45263
3 | 10:03.39 | 3:33.34 | 45264 | 61272
4 | 13:36.73 | 3:26.07 | 61273 | 76729
5 | 17:03.05 | 3:22.04 | 76730 | 91883
6 | 20:25.09 | 2:43.64 | 91884 | 104172
7 | 23:08.73 | 3:26.15 | 104173 | 119637
8 | 26:35.13 | 3:19.20 | 119638 | 134582
9 | 29:54.33 | 3:55.10 | 134583 | 152217
10 | 33:49.43 | 5:32.32 | 152218 | 177149


Track 1

Filename C:\Zelou\EAC Rips\Alejandra Ribera - This Island (2017) [FLAC] {PHER CD 1039}\01 - Russian Plates On Michigan Avenue.wav

Pre-gap length 0:00:02.00

Peak level 91.2 %
Extraction speed 1.9 X
Track quality 100.0 %
Test CRC 39B2C65D
Copy CRC 39B2C65D
Track not present in AccurateRip database
Copy OK

Track 2

Filename C:\Zelou\EAC Rips\Alejandra Ribera - This Island (2017) [FLAC] {PHER CD 1039}\02 - The Undertow.wav

Peak level 94.1 %
Extraction speed 2.1 X
Track quality 100.0 %
Test CRC B3107FB6
Copy CRC B3107FB6
Track not present in AccurateRip database
Copy OK

Track 3

Filename C:\Zelou\EAC Rips\Alejandra Ribera - This Island (2017) [FLAC] {PHER CD 1039}\03 - Carry Me.wav

Peak level 93.5 %
Extraction speed 1.6 X
Track quality 99.9 %
Test CRC 9AD70613
Copy CRC 9AD70613
Track not present in AccurateRip database
Copy OK

Track 4

Filename C:\Zelou\EAC Rips\Alejandra Ribera - This Island (2017) [FLAC] {PHER CD 1039}\04 - Higher.wav

Peak level 88.1 %
Extraction speed 2.3 X
Track quality 100.0 %
Test CRC 0804831D
Copy CRC 0804831D
Track not present in AccurateRip database
Copy OK

Track 5

Filename C:\Zelou\EAC Rips\Alejandra Ribera - This Island (2017) [FLAC] {PHER CD 1039}\05 - Led Me To You.wav

Peak level 94.5 %
Extraction speed 2.5 X
Track quality 100.0 %
Test CRC 3733DDC0
Copy CRC 3733DDC0
Track not present in AccurateRip database
Copy OK

Track 6

Filename C:\Zelou\EAC Rips\Alejandra Ribera - This Island (2017) [FLAC] {PHER CD 1039}\06 - Will Not Drown.wav

Peak level 94.1 %
Extraction speed 2.5 X
Track quality 100.0 %
Test CRC 3C7321B2
Copy CRC 3C7321B2
Track not present in AccurateRip database
Copy OK

Track 7

Filename C:\Zelou\EAC Rips\Alejandra Ribera - This Island (2017) [FLAC] {PHER CD 1039}\07 - Blood Moon Rising.wav

Peak level 86.6 %
Extraction speed 1.9 X
Track quality 99.9 %
Test CRC 61DC5287
Copy CRC 61DC5287
Track not present in AccurateRip database
Copy OK

Track 8

Filename C:\Zelou\EAC Rips\Alejandra Ribera - This Island (2017) [FLAC] {PHER CD 1039}\08 - Undeclared War.wav

Peak level 94.3 %
Extraction speed 2.8 X
Track quality 100.0 %
Test CRC B89627BF
Copy CRC B89627BF
Track not present in AccurateRip database
Copy OK

Track 9

Filename C:\Zelou\EAC Rips\Alejandra Ribera - This Island (2017) [FLAC] {PHER CD 1039}\09 - Soft Place to Land.wav

Peak level 94.1 %
Extraction speed 3.0 X
Track quality 100.0 %
Test CRC 4EEA1542
Copy CRC 4EEA1542
Track not present in AccurateRip database
Copy OK

Track 10

Filename C:\Zelou\EAC Rips\Alejandra Ribera - This Island (2017) [FLAC] {PHER CD 1039}\10 - I Am Orlando.wav

Peak level 89.8 %
Extraction speed 3.3 X
Track quality 100.0 %
Test CRC 7AD2F95C
Copy CRC 7AD2F95C
Track not present in AccurateRip database
Copy OK


None of the tracks are present in the AccurateRip database

No errors occurred

End of status report

–– CUETools DB Plugin V2.1.6

[CTDB TOCID: Wfe2bKZV4f_VYqBrAKHrTW3QeG4-] found
Submit result: Wfe2bKZV4f_VYqBrAKHrTW3QeG4- has been confirmed
Track | CTDB Status
1 | (2/2) Accurately ripped
2 | (2/2) Accurately ripped
3 | (2/2) Accurately ripped
4 | (2/2) Accurately ripped
5 | (2/2) Accurately ripped
6 | (2/2) Accurately ripped
7 | (2/2) Accurately ripped
8 | (2/2) Accurately ripped
9 | (2/2) Accurately ripped
10 | (2/2) Accurately ripped


==== Log checksum 260833659FC6CCBB4DD64B5DB7458B0F09F7FE09392AC51E66475FB595B2BA1D ====


Alejandra Ribera - This Island (2017)


Thanks to the Original customer.