Subcategories

Alessandro Stradella Consort, Esteban Velardi - Stradella: Moro per amore (1993)

Posted By: tirexiss
Alessandro Stradella Consort, Esteban Velardi - Stradella: Moro per amore (1993)

Alessandro Stradella Consort, Esteban Velardi - Stradella: Moro per amore (1993)
EAC | FLAC (image+.cue, log) | Covers Included | 03:24:23 | 904 MB
Genre: Baroque, Opera | Label: Bongiovanni | Catalog: 2121

Alessandro Stradella was, along with Henry Purcell and Heinrich von Biber, among the most striking and idiosyncratic composers of the late seventeenth century. He is known principally for his cantatas on sacred subjects such as "La Susanna" and "San Giovanni Battista," which prefigure Handel's oratorios, and from which Handel borrowed freely. Stradella's musical eccentricities were paralleled by his irregular life. A member of the minor nobility, he ran through his inheritance while young, and thereafter supplemented his musical earnings by questionable financial dealings that incurred the anger of influential families. These obliged him to flee Rome for Venice in 1677. At Venice he seduced the mistress of a patrician, who in consequence sent assassins after him. He fled again to Turin, then to Genoa, where he was finally klled in 1682. Responsibility for his murder has never been convincingly assigned. Stradella's life resembled a melodrama, and has indeed been made the subject of an opera by Flotow.
"Moro per amore" (A Moor for love, or alternately, A fool for love) is not a cantata but a full-fledged opera, and a grand one at that. The libretto by Flavio Orsini, duke of Bracchiano, is alternatively titled "Il Floridoro." It was composed as a private diversion for that nobleman's friends in the Accademia degli Arcadi, a semi-secret learned society typical of the age, in which its author held the anagrammatic deckname Filosinavoro.
While it is not Shakespearean in its gravitas, the story reminds us why so many of Shakespeare's comedies and tragedies had Italian settings - such Italian comedies of manners as this one had been written years before Shakespeare, and continued to be for many years after his time, as this one was. The interplay between the "downstairs" and "upstairs" characters is a staple, the servants often being used for low comedy, as for example Juliet's nurse in "Romeo and Juliet." The comparable character in "Moro per amore," Lindora, is given some of the most resplendent singing; the aria "Muta stil" is a real showpiece.
Indeed, the music of "Moro per amore" challenges all its singers. It was intended for a cast of virtuosi: two female sopranos (Eurinda and Lucinda); a castrato soprano (Fiorino); a female contralto (Lindora), a castrato contralto (Feraspe/Floridoro), a tenor (Filandro) and a bass (Rodrigo). Here the rôle of Lindora is sung by the male contralto Marco Lazzara, that of Feraspe/Floridoro by female contralto Valeria Matacchini, and Fiorino by female soprano Maria Grazia Liguori. Roberta Invernizzi sings Eurinda, Silvia Piccollo is Lucinda, Filandro is Marco Beasley, and Rodrigo, Riccardo Ristori. The cast are all more than competent, but outstanding performances are delivered by Invernizzi as Eurinda, and especially by Lazzara as Lindora. Esteban Velardi ably conducts the Alessandro Stradella Consort in the sinfonie and ritornelle. This 3-disc set under the off-brand Bongiovanni label is a very fine recording of some great music.

Alessandro Stradella Consort, Esteban Velardi - Stradella: Moro per amore (1993)

Track List:

CD 1:
Atto primo
1. Il Moro per Amore, opera: Sinfonia avanti l'Opera, 1 mvt.
2. Aria: Tornate, omai tornate
3. Aria: Un cor ch'è libero
4. Semplicetta Regina
5. Aria: Se il bel fior di verde età
6. E da voi contrario affé
7. Perché d'un bianco crin
8. Aria: Lasciami in pace, Amor
9. Ma le querele mie
10. Aria: Non ho forza che resista
11. Aria: Stelle tiranne, e che volete più
12. I cenni miei Feraspe
13. Aria: Accingetevi, preparatevi
14. Ma la superba Eurinds
15. Aria: Su, persieri, all difesa
16. Amorosa impazienza
17. Aria: Luci care, i vostri sguardi
18. Mirami in volto o bella
19. Duetto: Mai non deve/Deve spesso l'onsestà
20. Ad eseguir del mio Signor i cenni
21. Aria: La fortuna è troppo avara
22. Aria: A chi mai arrise il fato
23. Del paterno diadema
24. Aria: Si, del Moro la Figura
25. Dimmi, gentil Lindora
26. Duetto: Vogliamoci bene
27. Lindora io ben sapea
Atto secondo
28. Aria: Mai gioir, ah non potea
29. Sinfonia, 4 mvts.
30. Se d'un padrone solo
31. Aria: Come mai sarà possibile
32. Ma alla sventura mia
33. Aria: Deve aver lumi di Lince
34. Torna e digli
35. Ecco che pronto ad obbedir
36. Aria: È prodigio d'eccelsa beltà
37. Sa il ciel se ognor m'affanna
38. Aria: È invariabile la fede mia
39. Dunque solo a mio danno
40. Aria: Nume Amor, fammi gioir
41. Parla d'Amore, Eurinda
42. Aria: Stelle ingrate, che sarà?
43. Reina a me non lice
44. Aria: Dimmi Amor, che fia di me?
45. Io si che più non posso
46. Aria: Bellezze che in sdegni
47. Stelle, ch'avete in cura
48. Aria: Muta stil, se vuoi gioire
49. Crudele servitù
Alessandro Stradella Consort, Esteban Velardi - Stradella: Moro per amore (1993)

Exact Audio Copy V1.0 beta 1 from 15. November 2010

EAC extraction logfile from 27. March 2012, 18:13

Stradella / Moro per Amore

Used drive : ASUS DRW-1608P Adapter: 0 ID: 0

Read mode : Secure
Utilize accurate stream : Yes
Defeat audio cache : Yes
Make use of C2 pointers : No

Read offset correction : 48
Overread into Lead-In and Lead-Out : No
Fill up missing offset samples with silence : Yes
Delete leading and trailing silent blocks : No
Null samples used in CRC calculations : Yes
Used interface : Installed external ASPI interface

Used output format : Monkey's Audio Lossless Encoder v3.99 DLL
Sample format : High Lossless Compression


TOC of the extracted CD

Track | Start | Length | Start sector | End sector
––––––––––––––––––––––––––––-
1 | 0:00.32 | 2:11.45 | 32 | 9901
2 | 2:12.02 | 2:33.38 | 9902 | 21414
3 | 4:45.40 | 1:56.42 | 21415 | 30156
4 | 6:42.07 | 0:25.05 | 30157 | 32036
5 | 7:07.12 | 1:54.38 | 32037 | 40624
6 | 9:01.50 | 0:46.37 | 40625 | 44111
7 | 9:48.12 | 1:14.28 | 44112 | 49689
8 | 11:02.40 | 2:13.30 | 49690 | 59694
9 | 13:15.70 | 0:47.32 | 59695 | 63251
10 | 14:03.27 | 1:03.10 | 63252 | 67986
11 | 15:06.37 | 1:32.13 | 67987 | 74899
12 | 16:38.50 | 0:25.32 | 74900 | 76806
13 | 17:04.07 | 1:24.53 | 76807 | 83159
14 | 18:28.60 | 1:26.47 | 83160 | 89656
15 | 19:55.32 | 3:57.58 | 89657 | 107489
16 | 23:53.15 | 0:21.17 | 107490 | 109081
17 | 24:14.32 | 3:04.10 | 109082 | 122891
18 | 27:18.42 | 1:14.60 | 122892 | 128501
19 | 28:33.27 | 1:35.43 | 128502 | 135669
20 | 30:08.70 | 0:17.55 | 135670 | 136999
21 | 30:26.50 | 3:13.45 | 137000 | 151519
22 | 33:40.20 | 0:54.27 | 151520 | 155596
23 | 34:34.47 | 0:57.38 | 155597 | 159909
24 | 35:32.10 | 2:15.12 | 159910 | 170046
25 | 37:47.22 | 1:11.63 | 170047 | 175434
26 | 38:59.10 | 1:24.22 | 175435 | 181756
27 | 40:23.32 | 1:26.08 | 181757 | 188214
28 | 41:49.40 | 1:46.52 | 188215 | 196216
29 | 43:36.17 | 4:56.10 | 196217 | 218426
30 | 48:32.27 | 0:20.20 | 218427 | 219946
31 | 48:52.47 | 1:42.48 | 219947 | 227644
32 | 50:35.20 | 1:23.45 | 227645 | 233914
33 | 51:58.65 | 1:01.25 | 233915 | 238514
34 | 53:00.15 | 0:39.22 | 238515 | 241461
35 | 53:39.37 | 0:52.50 | 241462 | 245411
36 | 54:32.12 | 2:45.65 | 245412 | 257851
37 | 57:18.02 | 0:55.50 | 257852 | 262026
38 | 58:13.52 | 1:13.40 | 262027 | 267541
39 | 59:27.17 | 0:14.15 | 267542 | 268606
40 | 59:41.32 | 2:50.25 | 268607 | 281381
41 | 62:31.57 | 1:32.10 | 281382 | 288291
42 | 64:03.67 | 1:38.20 | 288292 | 295661
43 | 65:42.12 | 0:36.40 | 295662 | 298401
44 | 66:18.52 | 1:46.38 | 298402 | 306389
45 | 68:05.15 | 0:59.40 | 306390 | 310854
46 | 69:04.55 | 3:11.40 | 310855 | 325219
47 | 72:16.20 | 1:27.62 | 325220 | 331806
48 | 73:44.07 | 2:53.33 | 331807 | 344814
49 | 76:37.40 | 0:32.05 | 344815 | 347219


Range status and errors

Selected range

Filename D:\Downloads\Stradella - Moro per Amore CD1.ape

Peak level 95.9 %
Extraction speed 0.0 X
Range quality 100.0 %
Copy CRC 9B59C942
Copy OK

No errors occurred


AccurateRip summary

Track 1 not present in database
Track 2 not present in database
Track 3 not present in database
Track 4 not present in database
Track 5 not present in database
Track 6 not present in database
Track 7 not present in database
Track 8 not present in database
Track 9 not present in database
Track 10 not present in database
Track 11 not present in database
Track 12 not present in database
Track 13 not present in database
Track 14 not present in database
Track 15 not present in database
Track 16 not present in database
Track 17 not present in database
Track 18 not present in database
Track 19 not present in database
Track 20 not present in database
Track 21 not present in database
Track 22 not present in database
Track 23 not present in database
Track 24 not present in database
Track 25 not present in database
Track 26 not present in database
Track 27 not present in database
Track 28 not present in database
Track 29 not present in database
Track 30 not present in database
Track 31 not present in database
Track 32 not present in database
Track 33 not present in database
Track 34 not present in database
Track 35 not present in database
Track 36 not present in database
Track 37 not present in database
Track 38 not present in database
Track 39 not present in database
Track 40 not present in database
Track 41 not present in database
Track 42 not present in database
Track 43 not present in database
Track 44 not present in database
Track 45 not present in database
Track 46 not present in database
Track 47 not present in database
Track 48 not present in database
Track 49 not present in database

None of the tracks are present in the AccurateRip database

End of status report

[CUETools log; Date: 28.11.2016 17:34:38; Version: 2.1.5]
Pregap length 00:00:32.
[CTDB TOCID: 1Ge_AbbVjJl0EHdVCbkqPYLMXHE-] found.
Track | CTDB Status
1 | (1/2) Accurately ripped, or (1/2) differs in 34 samples @00:00:53-00:00:55
2 | (2/2) Accurately ripped
3 | (2/2) Accurately ripped
4 | (2/2) Accurately ripped
5 | (2/2) Accurately ripped
6 | (2/2) Accurately ripped
7 | (2/2) Accurately ripped
8 | (2/2) Accurately ripped
9 | (2/2) Accurately ripped
10 | (2/2) Accurately ripped
11 | (2/2) Accurately ripped
12 | (2/2) Accurately ripped
13 | (2/2) Accurately ripped
14 | (2/2) Accurately ripped
15 | (2/2) Accurately ripped
16 | (2/2) Accurately ripped
17 | (2/2) Accurately ripped
18 | (2/2) Accurately ripped
19 | (2/2) Accurately ripped
20 | (2/2) Accurately ripped
21 | (2/2) Accurately ripped
22 | (2/2) Accurately ripped
23 | (2/2) Accurately ripped
24 | (2/2) Accurately ripped
25 | (2/2) Accurately ripped
26 | (2/2) Accurately ripped
27 | (2/2) Accurately ripped
28 | (2/2) Accurately ripped
29 | (2/2) Accurately ripped
30 | (2/2) Accurately ripped
31 | (2/2) Accurately ripped
32 | (2/2) Accurately ripped
33 | (2/2) Accurately ripped
34 | (2/2) Accurately ripped
35 | (2/2) Accurately ripped
36 | (2/2) Accurately ripped
37 | (2/2) Accurately ripped
38 | (2/2) Accurately ripped
39 | (2/2) Accurately ripped
40 | (2/2) Accurately ripped
41 | (2/2) Accurately ripped
42 | (2/2) Accurately ripped
43 | (2/2) Accurately ripped
44 | (2/2) Accurately ripped
45 | (2/2) Accurately ripped
46 | (2/2) Accurately ripped
47 | (2/2) Accurately ripped
48 | (2/2) Accurately ripped
49 | (2/2) Accurately ripped

CD 2:
1. Aria: Libertà, quanto sei cara
2. Perdonna o bella
3. Aria: Seppellitevi nel core
4. Ardire o Floridoro
5. Aria: Quante forme strane e varie
6. Ma che fai?
7. Aria: O tormenti o crudi affanni
8. Aria: A consiglio, amorosi pensieri
9. Del regio appartamento
10. Aria: O che mai gioisca un di
11. Filandro ognor si lagna
12. Aria: Amor, dammi mercè
13. E qual speranza mai
14. Duetto: Mi va sempre stuzzicando
15. Sian lodate le stelle
16. Aria: Non s'intright con Amore
17. Pur ti ritrovo a solo
18. Aria: Goderò fortuna un dì
19. Perché bella reina
20. Aria: Del labbro assetato
21. Feraspe in questi allori
22. Aria: Mio core respira, ardisci
23. Ma pria che l'alto affare
24. Aria: T'intendo sì, t'intendo
25. Dunque perché non goda
26. Aria: Non so dir chi vincerà
27. Dove, dove il cammino
28. Aria: A chi è in corte va così
Atto terzo
29. Sinfonia, 4 mvts.
30. Aria: Con lo strale che fatale
31. Deh, se il volto d'un servo
32. Aria: Dammi spirto da resistere
33. Se non mentisce il guardo
34. Aria: Non speri di gioir
35. Leggo ne' lumi suoi
36. Aria: Afflitta, trafitta
Alessandro Stradella Consort, Esteban Velardi - Stradella: Moro per amore (1993)

Exact Audio Copy V1.0 beta 1 from 15. November 2010

EAC extraction logfile from 27. March 2012, 18:26
Stradella Moro per Amore - Velardi CD2 / Stradella Moro per Amore - Velardi CD2 Moro per Amore - Velardi CD2

Used drive : ASUS DRW-1608P Adapter: 0 ID: 0

Read mode : Secure
Utilize accurate stream : Yes
Defeat audio cache : Yes
Make use of C2 pointers : No

Read offset correction : 48
Overread into Lead-In and Lead-Out : No
Fill up missing offset samples with silence : Yes
Delete leading and trailing silent blocks : No
Null samples used in CRC calculations : Yes
Used interface : Installed external ASPI interface

Used output format : Monkey's Audio Lossless Encoder v3.99 DLL
Sample format : High Lossless Compression


TOC of the extracted CD

Track | Start | Length | Start sector | End sector
––––––––––––––––––––––––––––-
1 | 0:00.32 | 1:11.63 | 32 | 5419
2 | 1:12.20 | 2:52.45 | 5420 | 18364
3 | 4:04.65 | 4:46.42 | 18365 | 39856
4 | 8:51.32 | 1:33.58 | 39857 | 46889
5 | 10:25.15 | 1:14.67 | 46890 | 52506
6 | 11:40.07 | 1:13.45 | 52507 | 58026
7 | 12:53.52 | 2:34.73 | 58027 | 69649
8 | 15:28.50 | 2:32.02 | 69650 | 81051
9 | 18:00.52 | 0:39.50 | 81052 | 84026
10 | 18:40.27 | 1:22.43 | 84027 | 90219
11 | 20:02.70 | 0:38.67 | 90220 | 93136
12 | 20:41.62 | 1:13.50 | 93137 | 98661
13 | 21:55.37 | 0:19.23 | 98662 | 100109
14 | 22:14.60 | 1:10.65 | 100110 | 105424
15 | 23:25.50 | 0:25.35 | 105425 | 107334
16 | 23:51.10 | 1:49.42 | 107335 | 115551
17 | 25:40.52 | 1:32.68 | 115552 | 122519
18 | 27:13.45 | 1:55.15 | 122520 | 131159
19 | 29:08.60 | 0:48.27 | 131160 | 134786
20 | 29:57.12 | 1:56.00 | 134787 | 143486
21 | 31:53.12 | 0:28.48 | 143487 | 145634
22 | 32:21.60 | 1:17.12 | 145635 | 151421
23 | 33:38.72 | 2:11.33 | 151422 | 161279
24 | 35:50.30 | 1:38.47 | 161280 | 168676
25 | 37:29.02 | 0:34.40 | 168677 | 171266
26 | 38:03.42 | 1:48.08 | 171267 | 179374
27 | 39:51.50 | 0:47.40 | 179375 | 182939
28 | 40:39.15 | 2:17.72 | 182940 | 193286
29 | 42:57.12 | 5:20.40 | 193287 | 217326
30 | 48:17.52 | 2:02.53 | 217327 | 226529
31 | 50:20.30 | 1:19.52 | 226530 | 232506
32 | 51:40.07 | 1:56.35 | 232507 | 241241
33 | 53:36.42 | 0:15.45 | 241242 | 242411
34 | 53:52.12 | 3:03.23 | 242412 | 256159
35 | 56:55.35 | 0:18.32 | 256160 | 257541
36 | 57:13.67 | 4:53.48 | 257542 | 279564


Range status and errors

Selected range

Filename D:\Downloads\A.Scarlatti Moro per Amore - Velardi CD2.ape

Peak level 94.1 %
Extraction speed 0.5 X
Range quality 100.0 %
Copy CRC EF21C7C9
Copy OK

No errors occurred


AccurateRip summary

Track 1 not present in database
Track 2 not present in database
Track 3 not present in database
Track 4 not present in database
Track 5 not present in database
Track 6 not present in database
Track 7 not present in database
Track 8 not present in database
Track 9 not present in database
Track 10 not present in database
Track 11 not present in database
Track 12 not present in database
Track 13 not present in database
Track 14 not present in database
Track 15 not present in database
Track 16 not present in database
Track 17 not present in database
Track 18 not present in database
Track 19 not present in database
Track 20 not present in database
Track 21 not present in database
Track 22 not present in database
Track 23 not present in database
Track 24 not present in database
Track 25 not present in database
Track 26 not present in database
Track 27 not present in database
Track 28 not present in database
Track 29 not present in database
Track 30 not present in database
Track 31 not present in database
Track 32 not present in database
Track 33 not present in database
Track 34 not present in database
Track 35 not present in database
Track 36 not present in database

None of the tracks are present in the AccurateRip database

End of status report

[CUETools log; Date: 28.11.2016 17:36:44; Version: 2.1.5]
Pregap length 00:00:32.
[CTDB TOCID: WF3gFOMz5Vts9kxw7iqd15iKDvI-] found.
Track | CTDB Status
1 | (1/1) Accurately ripped
2 | (1/1) Accurately ripped
3 | (1/1) Accurately ripped
4 | (1/1) Accurately ripped
5 | (1/1) Accurately ripped
6 | (1/1) Accurately ripped
7 | (1/1) Accurately ripped
8 | (1/1) Accurately ripped
9 | (1/1) Accurately ripped
10 | (1/1) Accurately ripped
11 | (1/1) Accurately ripped
12 | (1/1) Accurately ripped
13 | (1/1) Accurately ripped
14 | (1/1) Accurately ripped
15 | (1/1) Accurately ripped
16 | (1/1) Accurately ripped
17 | (1/1) Accurately ripped
18 | (1/1) Accurately ripped
19 | (1/1) Accurately ripped
20 | (1/1) Accurately ripped
21 | (1/1) Accurately ripped
22 | (1/1) Accurately ripped
23 | (1/1) Accurately ripped
24 | (1/1) Accurately ripped
25 | (1/1) Accurately ripped
26 | (1/1) Accurately ripped
27 | (1/1) Accurately ripped
28 | (1/1) Accurately ripped
29 | (1/1) Accurately ripped
30 | (1/1) Accurately ripped
31 | (1/1) Accurately ripped
32 | (1/1) Accurately ripped
33 | (1/1) Accurately ripped
34 | (1/1) Accurately ripped
35 | (1/1) Accurately ripped
36 | (1/1) Accurately ripped
[AccurateRip ID: 004c604e-07693858-ce0e8f24] found.
Track [ CRC | V2 ] Status
01 [1e36bc82|0fbcc092] (0+2/2) Accurately ripped
02 [e9218256|5b08d529] (0+2/2) Accurately ripped
03 [6b4e95a9|7346916e] (0+2/2) Accurately ripped
04 [6e9e1a96|f7d744bc] (0+2/2) Accurately ripped
05 [6c161bca|b1497fb9] (0+2/2) Accurately ripped
06 [aafcdfca|70acef31] (0+2/2) Accurately ripped
07 [8ca44d21|a583ba3a] (0+2/2) Accurately ripped
08 [c048c314|51a4ae22] (0+2/2) Accurately ripped
09 [1575fc0f|f05d63b0] (0+2/2) Accurately ripped
10 [e4fb3466|765ce1d6] (0+2/2) Accurately ripped
11 [353429b2|56cfd119] (0+2/2) Accurately ripped
12 [295fe0a7|75708b8a] (0+2/2) Accurately ripped
13 [baa193e5|3cf5749d] (0+2/2) Accurately ripped
14 [e2b16962|a49c804d] (0+2/2) Accurately ripped
15 [d94d4699|3c5575c2] (0+2/2) Accurately ripped
16 [7367b51d|5b11b53b] (0+2/2) Accurately ripped
17 [3e4f0885|cf77b479] (0+2/2) Accurately ripped
18 [a83f1d3a|4e7270ab] (0+2/2) Accurately ripped
19 [73c8d9d9|42cee68c] (0+2/2) Accurately ripped
20 [d46ebb74|dccb1f5a] (0+2/2) Accurately ripped
21 [3e7d6f17|3d03b367] (0+2/2) Accurately ripped
22 [e4245dc2|3e355b28] (0+2/2) Accurately ripped
23 [9dfe0daf|013bb967] (0+2/2) Accurately ripped
24 [7eb131a7|4b17dbb5] (0+2/2) Accurately ripped
25 [c9a688f6|9dad772c] (0+2/2) Accurately ripped
26 [e13bf794|6720ac1e] (0+2/2) Accurately ripped
27 [6b6abfbe|b8ee1687] (0+2/2) Accurately ripped
28 [8f896ee4|088ff7bb] (0+2/2) Accurately ripped
29 [d99ea19a|3ad9cb21] (0+2/2) Accurately ripped
30 [f7f11c91|4d198bcd] (0+2/2) Accurately ripped
31 [af4baa28|16da4592] (0+2/2) Accurately ripped
32 [e082ed78|36326fa3] (0+2/2) Accurately ripped
33 [f33aba74|75d38441] (0+2/2) Accurately ripped
34 [96bb1f0b|51d9ac38] (0+2/2) Accurately ripped
35 [09b9272b|710acfcc] (0+2/2) Accurately ripped
36 [a930839c|4d88afcc] (0+2/2) Accurately ripped

Track Peak [ CRC32 ] [W/O NULL] [ LOG ]
– 94,1 [EF21C7C9] [ED196166] CRC32
01 47,5 [2619700F] [16382CB1]
02 55,2 [5F166BE6] [E7EAB5C7]
03 81,6 [6C19D200] [6AE29EB2]
04 32,3 [FA4DCFE6] [2FC5C3EB]
05 69,8 [07E93F5E] [38C7AAC9]
06 50,5 [2F4DDEAE] [3228479C]
07 94,1 [B4E625AF] [D38339ED]
08 34,4 [41B13339] [7D3379C6]
09 22,0 [9330EF07] [7B4A477C]
10 28,3 [0AD78322] [4AE8D0FF]
11 25,0 [8D072E46] [419BB22A]
12 48,4 [77548AB3] [A3465729]
13 24,0 [643D0DDD] [6AB099EF]
14 53,2 [3E9711DA] [EFC72371]
15 51,1 [21830624] [362D9707]
16 53,7 [C8D62E42] [9E716000]
17 49,0 [7C8E15B9] [FA1FFE5B]
18 16,3 [7FC62B2C] [299E7EC6]
19 22,2 [35786A82] [89EDAB42]
20 21,7 [28E2A51A] [C81BB2D2]
21 23,8 [A44837D6] [38097863]
22 76,0 [2054793D] [2552DF00]
23 45,6 [F402006A] [277ABE12]
24 83,4 [C3DCD27A] [E1054BF9]
25 27,2 [D5A318D4] [C562E810]
26 28,5 [E4F6C1B8] [D3186DE6]
27 54,1 [B9DC6FFD] [67066143]
28 53,6 [B4ADAB22] [5286C544]
29 22,5 [B66E0E04] [7AE1C643]
30 70,7 [885D7180] [1801BFF9]
31 68,7 [BF1C145E] [5539908F]
32 92,0 [28165D8D] [B80175F0]
33 11,0 [F79DB900] [78FC808B]
34 74,8 [CFDAFF10] [F69CBEB7]
35 32,7 [A64BB85F] [2D6BE35F]
36 83,0 [E17FEC78] [570D85D3]

CD 3:
1. Aria: Sono care quelle pene
2. Non son gravi i martiri
3. Aria: Dolce Amor, nume bendato
4. Del consiglier Rodrigo
5. O del tronco sicano
6. Aria: Non mi voglio disperar
7. Che Feraspe?
8. Aria: A che tardi a morir, misero core
9. Raffrena, Eurinda il duolo
10. Aria: Furie terribili, incrudelitevi
11. Che fa, dunque che fa
12. Aria: Con folle pensiero
13. Tormentata Lucinda
14. Aria: Fugga il pianto, o miei pensieri
15. Non sichiaro e lucente
16. Aria: Ti dovresti contentar
17. Filandro, al tuo gran merto
18. Duetto: Quando un core un amore
19. Vilentieri ritorno
20. Aria: Col mio sangue comprarei
21. Aria: Per pieta, deh torna a me
22. Astri, che a danno mio
23. Aria: Fiorin sen fuggì
24. Mai vanno le disgrazie
25. Aria: Oh, che caso stravagante
26. Mie pupille dolenti
27. Aria: Pensier ch'affliggete
28. E perché non sia vana
29. Duetto: Così burlasti Amore
30. Non inarcar le ciglia
31. Trio: Non disperi, ah no, la gloria
Alessandro Stradella Consort, Esteban Velardi - Stradella: Moro per amore (1993)

Exact Audio Copy V1.0 beta 1 from 15. November 2010

EAC extraction logfile from 27. March 2012, 18:39

A.Scarlatti / A.Stradella Moro perv Amore CD3 Velardi

Used drive : ASUS DRW-1608P Adapter: 0 ID: 0

Read mode : Secure
Utilize accurate stream : Yes
Defeat audio cache : Yes
Make use of C2 pointers : No

Read offset correction : 48
Overread into Lead-In and Lead-Out : No
Fill up missing offset samples with silence : Yes
Delete leading and trailing silent blocks : No
Null samples used in CRC calculations : Yes
Used interface : Installed external ASPI interface

Used output format : Monkey's Audio Lossless Encoder v3.99 DLL
Sample format : High Lossless Compression


TOC of the extracted CD

Track | Start | Length | Start sector | End sector
––––––––––––––––––––––––––––-
1 | 0:00.33 | 1:40.42 | 33 | 7574
2 | 1:41.00 | 0:48.33 | 7575 | 11207
3 | 2:29.33 | 2:40.30 | 11208 | 23237
4 | 5:09.63 | 2:02.37 | 23238 | 32424
5 | 7:12.25 | 4:07.50 | 32425 | 50999
6 | 11:20.00 | 2:33.08 | 51000 | 62482
7 | 13:53.08 | 0:49.47 | 62483 | 66204
8 | 14:42.55 | 3:28.18 | 66205 | 81822
9 | 18:10.73 | 1:43.07 | 81823 | 89554
10 | 19:54.05 | 1:37.63 | 89555 | 96892
11 | 21:31.68 | 1:11.17 | 96893 | 102234
12 | 22:43.10 | 1:35.38 | 102235 | 109397
13 | 24:18.48 | 1:12.12 | 109398 | 114809
14 | 25:30.60 | 1:04.38 | 114810 | 119647
15 | 26:35.23 | 0:51.55 | 119648 | 123527
16 | 27:27.03 | 2:56.27 | 123528 | 136754
17 | 30:23.30 | 0:43.18 | 136755 | 139997
18 | 31:06.48 | 2:22.20 | 139998 | 150667
19 | 33:28.68 | 1:37.47 | 150668 | 157989
20 | 35:06.40 | 3:08.73 | 157990 | 172162
21 | 38:15.38 | 2:18.57 | 172163 | 182569
22 | 40:34.20 | 0:16.68 | 182570 | 183837
23 | 40:51.13 | 1:36.17 | 183838 | 191054
24 | 42:27.30 | 3:07.40 | 191055 | 205119
25 | 45:34.70 | 2:10.28 | 205120 | 214897
26 | 47:45.23 | 1:00.65 | 214898 | 219462
27 | 48:46.13 | 2:01.70 | 219463 | 228607
28 | 50:48.08 | 4:03.55 | 228608 | 246887
29 | 54:51.63 | 2:22.25 | 246888 | 257562
30 | 57:14.13 | 6:03.32 | 257563 | 284819
31 | 63:17.45 | 1:40.60 | 284820 | 292379


Range status and errors

Selected range

Filename D:\Downloads\A.Stradella Moro perv Amore CD3 Velardi.ape

Peak level 97.1 %
Extraction speed 0.2 X
Range quality 100.0 %
Copy CRC F308791F
Copy OK

No errors occurred


AccurateRip summary

Track 1 not present in database
Track 2 not present in database
Track 3 not present in database
Track 4 not present in database
Track 5 not present in database
Track 6 not present in database
Track 7 not present in database
Track 8 not present in database
Track 9 not present in database
Track 10 not present in database
Track 11 not present in database
Track 12 not present in database
Track 13 not present in database
Track 14 not present in database
Track 15 not present in database
Track 16 not present in database
Track 17 not present in database
Track 18 not present in database
Track 19 not present in database
Track 20 not present in database
Track 21 not present in database
Track 22 not present in database
Track 23 not present in database
Track 24 not present in database
Track 25 not present in database
Track 26 not present in database
Track 27 not present in database
Track 28 not present in database
Track 29 not present in database
Track 30 not present in database
Track 31 not present in database

None of the tracks are present in the AccurateRip database

End of status report

[CUETools log; Date: 28.11.2016 17:37:53; Version: 2.1.5]
Pregap length 00:00:33.
[CTDB TOCID: JaDKRXGCYC47I5a6tE5Z77Hky5g-] found.
Track | CTDB Status
1 | (2/2) Accurately ripped
2 | (2/2) Accurately ripped
3 | (2/2) Accurately ripped
4 | (2/2) Accurately ripped
5 | (2/2) Accurately ripped
6 | (2/2) Accurately ripped
7 | (2/2) Accurately ripped
8 | (2/2) Accurately ripped
9 | (2/2) Accurately ripped
10 | (2/2) Accurately ripped
11 | (2/2) Accurately ripped
12 | (2/2) Accurately ripped
13 | (2/2) Accurately ripped
14 | (2/2) Accurately ripped
15 | (2/2) Accurately ripped
16 | (2/2) Accurately ripped
17 | (2/2) Accurately ripped
18 | (2/2) Accurately ripped
19 | (2/2) Accurately ripped
20 | (2/2) Accurately ripped
21 | (2/2) Accurately ripped
22 | (2/2) Accurately ripped
23 | (2/2) Accurately ripped
24 | (2/2) Accurately ripped
25 | (1/2) Accurately ripped, or (1/2) differs in 3 samples @00:04:25
26 | (2/2) Accurately ripped
27 | (2/2) Accurately ripped
28 | (1/2) Accurately ripped, or (1/2) differs in 6 samples @00:24:58
29 | (2/2) Accurately ripped
30 | (2/2) Accurately ripped
31 | (2/2) Accurately ripped
[AccurateRip ID: 00427ae2-05b4b5ea-ca0f3a1f] found.
Track [ CRC | V2 ] Status
01 [bdc95050|96677e28] (0+2/2) Accurately ripped
02 [5990e93b|36e26939] (0+2/2) Accurately ripped
03 [e45f028c|3fa0e126] (0+2/2) Accurately ripped
04 [aa1d9b15|67920451] (0+2/2) Accurately ripped
05 [62fbdddb|3014dd28] (0+2/2) Accurately ripped
06 [d6677e3e|95e22f62] (0+2/2) Accurately ripped
07 [570bc6af|7624e832] (0+2/2) Accurately ripped
08 [8d0de9ed|4571d2ea] (0+2/2) Accurately ripped
09 [876024c4|b0eae4e1] (0+2/2) Accurately ripped
10 [2cc86117|c90bccf1] (0+2/2) Accurately ripped
11 [34f58c2b|aba92d43] (0+2/2) Accurately ripped
12 [bad9e285|57af00f3] (0+2/2) Accurately ripped
13 [aa78bea4|4653cd0d] (0+2/2) Accurately ripped
14 [552b65d4|5558e650] (0+2/2) Accurately ripped
15 [4ba6dd12|c0fde2f8] (0+2/2) Accurately ripped
16 [ef316f37|e8b61ddb] (0+2/2) Accurately ripped
17 [b818ad74|691c967b] (0+2/2) Accurately ripped
18 [26372214|8791703b] (0+2/2) Accurately ripped
19 [283692ab|dbac5546] (0+2/2) Accurately ripped
20 [a83b55e2|26abd555] (0+2/2) Accurately ripped
21 [4c4397a9|e2192857] (0+2/2) Accurately ripped
22 [9082b04d|e0793595] (0+2/2) Accurately ripped
23 [0cd0b4df|03ef3819] (0+2/2) Accurately ripped
24 [82bbcede|53a09b16] (0+2/2) Accurately ripped
25 [bf987ae0|0851f52a] (0+2/2) Accurately ripped
26 [71a25a2b|9a0910a9] (0+2/2) Accurately ripped
27 [c974a96d|adff2103] (0+2/2) Accurately ripped
28 [ee2eafeb|186bc1e7] (0+2/2) Accurately ripped
29 [a791d577|c8caad93] (0+2/2) Accurately ripped
30 [d12f2a75|c0ba3cc3] (0+2/2) Accurately ripped
31 [d6502a00|761ae7e2] (0+2/2) Accurately ripped

Track Peak [ CRC32 ] [W/O NULL] [ LOG ]
– 97,1 [F308791F] [A2168C99] CRC32
01 27,9 [6244EC1A] [FDD08A0F]
02 29,6 [838FF5A0] [5208CA7F]
03 28,8 [4CF8D9C8] [33DD06E2]
04 33,5 [8C9B4228] [E0CA6FC5]
05 56,1 [1CF91C0E] [EBC44ACA]
06 59,1 [580DA90A] [435A3CD0]
07 31,5 [5C249C33] [14A1E934]
08 53,0 [FA7F45ED] [0BDA8C84]
09 69,4 [0B5AAD4C] [78AD2A99]
10 94,7 [D8A00CF6] [5FDDB0D9]
11 76,3 [01F72B21] [5A28C7F0]
12 49,3 [C201C89F] [AB9685C0]
13 75,5 [82F0C074] [38EED00D]
14 50,2 [15763FB1] [72E5B5A4]
15 21,5 [F1D64087] [4303E8E9]
16 26,9 [E839DACE] [047EF7BF]
17 40,6 [69DC6076] [61618C0B]
18 51,5 [6876BF6C] [479C8881]
19 55,7 [DF957ECE] [61F5DA38]
20 79,9 [17A71176] [3E5970B9]
21 96,1 [00FA32E4] [BCB4D398]
22 44,1 [9EEDCBDC] [9EBBA9B6]
23 51,8 [4E4A6E0C] [7FBAD85C]
24 71,8 [80FCC486] [F51A74E1]
25 41,8 [09E1B840] [776B5319]
26 36,4 [4E5E73E3] [0D646203]
27 76,0 [F9CA9787] [6A92FD82]
28 55,8 [DBDB77A4] [203A4DA1]
29 60,9 [33F48A03] [AD0C9693]
30 69,6 [096E2C61] [1D58349D]
31 97,1 [0C5B4CA1] [C98A5D72]

Performers:
Riccardo Ristori - Rodrogo (basso)
Roberta Invernizzi - Eurinda (soprano)
Silvia Piccollo - Lucinda (soprano)
Marco Lazzara - Lindora (contralto)
Valeria Matacchini - Feraspe / Floridoro (contralto)
Maria Grazia Liguori - Fiorindo (soprano)
Marco Beasley - Felandro (tenore)

Alessandro Stradella Consort
Esteban Velardi, direttore

Thanks to the Original ripper (unknown)!

Download:
Nitroflare
CD1 | CD2 | CD3
HitFile
CD1 | CD2 | CD3