Subcategories

Alessi Brothers - All For A Reason (1977) [2011, Japanese Mini LP SHM-CD]

Posted By: BlondStyle
Alessi Brothers - All For A Reason (1977) [2011, Japanese Mini LP SHM-CD]

Alessi Brothers - All For A Reason (1977) [2011, Japanese Mini LP SHM-CD]
Pop/Rock | EAC Rip | FLAC, Tracks+CUE+LOG+Covers (front/back)-300dpi (JPEG) | 41:02 Min | 224,50 Mb
Label: Universal Music (Japan) | Released: 2011, July, 27

The Alessi Brothers is an American pop rock singer-songwriter duo, best known for their 1984 hit "Savin' the Day" and also their 1977 hit "Oh Lori". The duo are identical twin brothers, Bill (Billy) Alessi and Bob (Bobby) Alessi (born 12 July 1953, West Hempstead, New York). Their song "Oh Lori" reached no. 8 in the UK Singles Chart in 1977, and "Put Away Your Love" reached No. 71 in the U.S. Billboard Hot 100 in 1982. "Oh Lori" became a Top Ten hit in seventeen more countries. The Alessi Brothers recorded five albums on major record labels. They sold over eight million records worldwide, and toured with Andy Gibb on his Shadow Dancing tour. They also charted in Brazil with "Sad Songs" (from the album Alessi, 1977), "All for a Reason" (from the album All for a Reason, 1978) and "Forever" (recorded with Christopher Cross, from the album Long Time Friends, 1982). Billy and Bobby Alessi co-operated with Art Garfunkel on his 1979 album Fate for Breakfast, mainly providing the background vocals. As vocal arrangers the twins helped Deborah Gibson on her 2001 album, M.Y.O.B., including production work and writing the title track. In 1984, the brothers released a song, "Savin' the Day", for the soundtrack to the film, Ghostbusters. The song was used in the 1986 cartoon based on the movie. The Brothers have enjoyed success working on jingles and advertisements for David Lucas and many mainstream consumer products in the U.S. In the 2000s they resumed their touring and album recording career as a duo, with the release of two new albums as Alessi, and also as part of group Barnaby Bye. ~Wikipedia~

Release of the album: 1977 [LP A&M Records, Cat.# SP-4657, USA]
Release of this CD: 2011, July, 27 [CD Universal Music (Japan), Cat.# UICY-75083 / EAN: 4988005669551]
Note: Mini LP in a cardboard case, SHM-CD 24bit remaster
Ⓟ © 1977 A&M Records, Inc.
Mastered At A & M Recording Studios, Hollywood, California
Distributed By – Victor Entertainment, Inc.

Alessi Brothers - All For A Reason (1977) [2011, Japanese Mini LP SHM-CD]


Bass – Raphael Goldfield*, Will Lee
Drums – Andy Newmark, Steve Gadd
Guitar – Bob Riley, David Spinozza, John Tropea
Keyboards – Richard Tee
Producer – David Lucas
Saxophone – Charlie Brown (9), David Sanborn, Michael Brecker
Supervised By [監修] – 金澤寿和*
Trombone – Wayne Andre
Trumpet – Randy Brecker
Vocals, Guitar – Bobby Alessi
Vocals, Keyboards – Billy Alessi
Written-By – Billy Alessi, Bobby Alessi


Alessi Brothers - All For A Reason (1977) [2011, Japanese Mini LP SHM-CD]


Tracklist:

01. All For A Reason (03:57)
(Billy Alessi, Bobby Alessi)
02. Love To Have Your Love (03:29)
(Billy Alessi, Bobby Alessi)
03. Farewell (01:53)
(Billy Alessi, Bobby Alessi)
04. Avalon (03:22)
(Billy Alessi, Bobby Alessi)
05. Air Cushion (04:33)
(Billy Alessi, Bobby Alessi)
06. London (04:02)
(Billy Alessi, Bobby Alessi)
07. Hate To Be In Love (02:59)
(Billy Alessi, Bobby Alessi)
08. You Can Crowd Me (03:26)
(Billy Alessi, Bobby Alessi)
09. Make It Last (04:15)
(Billy Alessi, Bobby Alessi)
10. Here Again (09:07)
(Billy Alessi, Bobby Alessi)

Exact Audio Copy V1.0 beta 2 from 29. April 2011

EAC extraction logfile from 21. March 2012, 4:47

Alessi Brothers / All For A Reason

Used drive : HL-DT-STDVDRAM GSA-4163B Adapter: 1 ID: 0

Read mode : Secure
Utilize accurate stream : Yes
Defeat audio cache : No
Make use of C2 pointers : Yes

Read offset correction : 667
Overread into Lead-In and Lead-Out : No
Fill up missing offset samples with silence : Yes
Delete leading and trailing silent blocks : No
Null samples used in CRC calculations : No
Used interface : Native Win32 interface for Win NT & 2000
Gap handling : Not detected, thus appended to previous track

Used output format : User Defined Encoder
Selected bitrate : 768 kBit/s
Quality : High
Add ID3 tag : No
Command line compressor : C:\Program Files\Exact Audio Copy\FLAC\FLAC.EXE
Additional command line options : -6 -V -T "ARTIST=%artist%" -T "TITLE=%title%" -T "ALBUM=%albumtitle%" -T "DATE=%year%" -T "TRACKNUMBER=%tracknr%" -T "GENRE=%genre%" -T "COMMENT=%comment%" -T "BAND=%albuminterpret%" -T "COMPOSER=%composer%" %haslyrics%–ta


TOC of the extracted CD

Track | Start | Length | Start sector | End sector
––––––––––––––––––––––––––––-
1 | 0:00.00 | 3:56.42 | 0 | 17741
2 | 3:56.42 | 3:29.33 | 17742 | 33449
3 | 7:26.00 | 1:52.67 | 33450 | 41916
4 | 9:18.67 | 3:22.20 | 41917 | 57086
5 | 12:41.12 | 4:33.03 | 57087 | 77564
6 | 17:14.15 | 4:01.42 | 77565 | 95681
7 | 21:15.57 | 2:58.55 | 95682 | 109086
8 | 24:14.37 | 3:26.18 | 109087 | 124554
9 | 27:40.55 | 4:14.57 | 124555 | 143661
10 | 31:55.37 | 9:06.50 | 143662 | 184661


Track 1

Filename C:\Exact Audio Copy\Alessi Brothers\All For A Reason\01. All For A Reason.wav

Peak level 89.7 %
Extraction speed 18.6 X
Track quality 100.0 %
Copy CRC 2E21F774
Cannot be verified as accurate (confidence 1) [8FF52BAB], AccurateRip returned [474DF3B3] (AR v2)
Copy OK

Track 2

Filename C:\Exact Audio Copy\Alessi Brothers\All For A Reason\02. Love To Have Your Love.wav

Peak level 90.4 %
Extraction speed 20.7 X
Track quality 100.0 %
Copy CRC EF18473F
Cannot be verified as accurate (confidence 1) [F4BE5CF3], AccurateRip returned [DA6A18DF] (AR v2)
Copy OK

Track 3

Filename C:\Exact Audio Copy\Alessi Brothers\All For A Reason\03. Farewell.wav

Peak level 99.9 %
Extraction speed 16.9 X
Track quality 100.0 %
Copy CRC 94D1DA31
Cannot be verified as accurate (confidence 1) [52041826], AccurateRip returned [5B272696] (AR v2)
Copy OK

Track 4

Filename C:\Exact Audio Copy\Alessi Brothers\All For A Reason\04. Avalon.wav

Peak level 100.0 %
Extraction speed 21.1 X
Track quality 100.0 %
Copy CRC E54A3C1F
Cannot be verified as accurate (confidence 1) [D223C3B9], AccurateRip returned [3E9F7FCC] (AR v2)
Copy OK

Track 5

Filename C:\Exact Audio Copy\Alessi Brothers\All For A Reason\05. Air Cushion.wav

Peak level 90.2 %
Extraction speed 23.1 X
Track quality 100.0 %
Copy CRC 5F2D553E
Cannot be verified as accurate (confidence 1) [B70332E2], AccurateRip returned [DD0F3220] (AR v2)
Copy OK

Track 6

Filename C:\Exact Audio Copy\Alessi Brothers\All For A Reason\06. London.wav

Peak level 89.6 %
Extraction speed 24.4 X
Track quality 99.9 %
Copy CRC C1FDA5E3
Cannot be verified as accurate (confidence 1) [E3A5B0C5], AccurateRip returned [93129B44] (AR v2)
Copy OK

Track 7

Filename C:\Exact Audio Copy\Alessi Brothers\All For A Reason\07. Hate To Be In Love.wav

Peak level 90.8 %
Extraction speed 25.1 X
Track quality 100.0 %
Copy CRC C0089B9F
Cannot be verified as accurate (confidence 1) [6C91E1B3], AccurateRip returned [2BB8493C] (AR v2)
Copy OK

Track 8

Filename C:\Exact Audio Copy\Alessi Brothers\All For A Reason\08. You Can Crowd Me.wav

Peak level 89.8 %
Extraction speed 29.1 X
Track quality 100.0 %
Copy CRC 85084D2E
Cannot be verified as accurate (confidence 1) [56D8AB6E], AccurateRip returned [F8D1A256] (AR v2)
Copy OK

Track 9

Filename C:\Exact Audio Copy\Alessi Brothers\All For A Reason\09. Make It Last.wav

Peak level 89.8 %
Extraction speed 30.6 X
Track quality 100.0 %
Copy CRC 525680AB
Cannot be verified as accurate (confidence 1) [24E0553C], AccurateRip returned [B36F4917] (AR v2)
Copy OK

Track 10

Filename C:\Exact Audio Copy\Alessi Brothers\All For A Reason\10. Here Again.wav

Peak level 89.6 %
Extraction speed 33.1 X
Track quality 100.0 %
Copy CRC C1AB85FA
Cannot be verified as accurate (confidence 1) [B82224A4], AccurateRip returned [A1BDFAD7] (AR v2)
Copy OK


No tracks could be verified as accurate
You may have a different pressing from the one(s) in the database

No errors occurred

End of status report

foobar2000 1.3.9 / Dynamic Range Meter 1.1.1
log date: 2016-04-29 00:31:19

––––––––––––––––––––––––––––––––––––––––
Analyzed: Alessi Brothers / All For A Reason
––––––––––––––––––––––––––––––––––––––––

DR Peak RMS Duration Track
––––––––––––––––––––––––––––––––––––––––
DR9 -0.94 dB -13.37 dB 3:57 01-All For A Reason
DR8 -0.88 dB -11.94 dB 3:29 02-Love To Have Your Love
DR12 0.00 dB -14.02 dB 1:53 03-Farewell
DR11 0.00 dB -16.35 dB 3:22 04-Avalon
DR10 -0.90 dB -14.62 dB 4:33 05-Air Cushion
DR9 -0.95 dB -12.38 dB 4:02 06-London
DR8 -0.83 dB -11.99 dB 2:59 07-Hate To Be In Love
DR10 -0.93 dB -12.93 dB 3:26 08-You Can Crowd Me
DR9 -0.93 dB -13.08 dB 4:15 09-Make It Last
DR9 -0.95 dB -14.57 dB 9:07 10-Here Again
––––––––––––––––––––––––––––––––––––––––

Number of tracks: 10
Official DR value: DR10

Samplerate: 44100 Hz
Channels: 2
Bits per sample: 16
Bitrate: 805 kbps
Codec: FLAC
================================================================================

All thanks to - saintsmon


See also:
Nitroflare
password: BlondStyle