Subcategories

Alessi Brothers - Driftin' (1978) [2011, Japanese Mini LP SHM-CD]

Posted By: BlondStyle
Alessi Brothers - Driftin' (1978) [2011, Japanese Mini LP SHM-CD]

Alessi Brothers - Driftin' (1978) [2011, Japanese Mini LP SHM-CD]
Pop/Rock | EAC Rip | FLAC, Tracks+CUE+LOG+Covers (front/back)-300dpi (JPEG) | 34:55 Min | 235,56 Mb
Label: Universal Music (Japan) | Released: 2011, July, 27

The Alessi Brothers is an American pop rock singer-songwriter duo, best known for their 1984 hit "Savin' the Day" and also their 1977 hit "Oh Lori". The duo are identical twin brothers, Bill (Billy) Alessi and Bob (Bobby) Alessi (born 12 July 1953, West Hempstead, New York). Their song "Oh Lori" reached no. 8 in the UK Singles Chart in 1977, and "Put Away Your Love" reached No. 71 in the U.S. Billboard Hot 100 in 1982. "Oh Lori" became a Top Ten hit in seventeen more countries. The Alessi Brothers recorded five albums on major record labels. They sold over eight million records worldwide, and toured with Andy Gibb on his Shadow Dancing tour. They also charted in Brazil with "Sad Songs" (from the album Alessi, 1977), "All for a Reason" (from the album All for a Reason, 1978) and "Forever" (recorded with Christopher Cross, from the album Long Time Friends, 1982). Billy and Bobby Alessi co-operated with Art Garfunkel on his 1979 album Fate for Breakfast, mainly providing the background vocals. As vocal arrangers the twins helped Deborah Gibson on her 2001 album, M.Y.O.B., including production work and writing the title track. In 1984, the brothers released a song, "Savin' the Day", for the soundtrack to the film, Ghostbusters. The song was used in the 1986 cartoon based on the movie. The Brothers have enjoyed success working on jingles and advertisements for David Lucas and many mainstream consumer products in the U.S. In the 2000s they resumed their touring and album recording career as a duo, with the release of two new albums as Alessi, and also as part of group Barnaby Bye. ~Wikipedia~

Release of the album: 1978 [LP A&M Records, Cat.# SP-4713, USA]
Release of this CD: 2011, July, 27 [CD Universal Music (Japan), Cat.# UICY-75084 / EAN: 4988005669568]
Note: Mini LP in a cardboard case, SHM-CD 24bit remaster
Ⓟ © 1978 A&M Records, Inc.
Mastered At A & M Recording Studios, Hollywood, California
Distributed By – Victor Entertainment, Inc.

Alessi Brothers - Driftin' (1978) [2011, Japanese Mini LP SHM-CD]


Arranged By [Strings] – Gene Page
Backing Vocals – Dash Crofts
Bass – Abe Laboriel, David Hungate, Dennis Belfield
Drums – Ed Greene, James Divisek, Michael Baird
Engineer – Joseph Bogan
Guitar – Lee Ritenour, Melvin "Wah Wah" Watson, Paul Stanley
Keyboards – Brian Whitcomb, Greg Mathieson, Greg Phillinganes
Percussion – Vince Charles
Percussion, Congas – Alan Estes
Piano [Yamaha Electric Grand] – Billy Alessi
Producer, Guitar – Louie Shelton
Saxophone – Don Menza, Jim Seals
Synthesizer – Steve Porcaro
Vocals – Richie Havens


Alessi Brothers - Driftin' (1978) [2011, Japanese Mini LP SHM-CD]


Tracklist:

01. Dancing In The Halls Of Love (03:43)
(Billy Alessi, Bobby Alessi)
02. Driftin' (03:14)
(Billy Alessi, Bobby Alessi)
03. Believer (03:29)
(Billy Alessi, Bobby Alessi)
04. Rainbows Go On Forever (03:28)
(Billy Alessi, Bobby Alessi)
05. Space (04:45)
(Billy Alessi, Bobby Alessi)
06. You're Out Of Love (03:41)
(Billy Alessi, Bobby Alessi)
07. That's When She Touched Me (03:29)
(Billy Alessi, Bobby Alessi)
08. I Don't Wanna Lose You (03:11)
(Billy Alessi, Bobby Alessi)
09. Not Tonight (03:06)
(Billy Alessi, Bobby Alessi)
10. Just Can't Stop It (02:50)
(Billy Alessi, Bobby Alessi)

Exact Audio Copy V1.0 beta 2 from 29. April 2011

EAC extraction logfile from 27. March 2012, 10:48

Alessi Brothers / Driftin'

Used drive : HL-DT-STDVDRAM GSA-4163B Adapter: 1 ID: 0

Read mode : Secure
Utilize accurate stream : Yes
Defeat audio cache : No
Make use of C2 pointers : Yes

Read offset correction : 667
Overread into Lead-In and Lead-Out : No
Fill up missing offset samples with silence : Yes
Delete leading and trailing silent blocks : No
Null samples used in CRC calculations : No
Used interface : Native Win32 interface for Win NT & 2000
Gap handling : Not detected, thus appended to previous track

Used output format : User Defined Encoder
Selected bitrate : 768 kBit/s
Quality : High
Add ID3 tag : No
Command line compressor : C:\Program Files\Exact Audio Copy\FLAC\FLAC.EXE
Additional command line options : -6 -V -T "ARTIST=%artist%" -T "TITLE=%title%" -T "ALBUM=%albumtitle%" -T "DATE=%year%" -T "TRACKNUMBER=%tracknr%" -T "GENRE=%genre%" -T "COMMENT=%comment%" -T "BAND=%albuminterpret%" -T "COMPOSER=%composer%" %haslyrics%–ta


TOC of the extracted CD

Track | Start | Length | Start sector | End sector
––––––––––––––––––––––––––––-
1 | 0:00.00 | 3:43.20 | 0 | 16744
2 | 3:43.20 | 3:14.00 | 16745 | 31294
3 | 6:57.20 | 3:29.12 | 31295 | 46981
4 | 10:26.32 | 3:28.25 | 46982 | 62606
5 | 13:54.57 | 4:45.10 | 62607 | 83991
6 | 18:39.67 | 3:40.65 | 83992 | 100556
7 | 22:20.57 | 3:28.40 | 100557 | 116196
8 | 25:49.22 | 3:10.58 | 116197 | 130504
9 | 29:00.05 | 3:05.62 | 130505 | 144441
10 | 32:05.67 | 2:49.40 | 144442 | 157156


Track 1

Filename C:\Exact Audio Copy\Alessi Brothers\Driftin'\01. Dancing In the Halls Of Love.wav

Peak level 94.3 %
Extraction speed 16.8 X
Track quality 100.0 %
Copy CRC 05853C46
Cannot be verified as accurate (confidence 3) [56D751BA], AccurateRip returned [71BE711A] (AR v2)
Copy OK

Track 2

Filename C:\Exact Audio Copy\Alessi Brothers\Driftin'\02. Driftin'.wav

Peak level 99.8 %
Extraction speed 17.3 X
Track quality 100.0 %
Copy CRC 4B800890
Cannot be verified as accurate (confidence 3) [9A7EEC33], AccurateRip returned [6F8D7FC9] (AR v2)
Copy OK

Track 3

Filename C:\Exact Audio Copy\Alessi Brothers\Driftin'\03. Believer.wav

Peak level 96.5 %
Extraction speed 22.2 X
Track quality 100.0 %
Copy CRC 41AA805B
Cannot be verified as accurate (confidence 3) [4F1D5111], AccurateRip returned [87F4C974] (AR v2)
Copy OK

Track 4

Filename C:\Exact Audio Copy\Alessi Brothers\Driftin'\04. Rainbows Go On Forever.wav

Peak level 96.5 %
Extraction speed 21.6 X
Track quality 100.0 %
Copy CRC 7E748C21
Cannot be verified as accurate (confidence 3) [ADF9D526], AccurateRip returned [6A276D58] (AR v2)
Copy OK

Track 5

Filename C:\Exact Audio Copy\Alessi Brothers\Driftin'\05. Space.wav

Peak level 99.9 %
Extraction speed 23.8 X
Track quality 100.0 %
Copy CRC 71374955
Cannot be verified as accurate (confidence 3) [637C8A5D], AccurateRip returned [9C576A52] (AR v2)
Copy OK

Track 6

Filename C:\Exact Audio Copy\Alessi Brothers\Driftin'\06. You're Out Of Love.wav

Peak level 90.2 %
Extraction speed 27.0 X
Track quality 100.0 %
Copy CRC 791DC48E
Cannot be verified as accurate (confidence 3) [FCC70CD7], AccurateRip returned [EC060E89] (AR v2)
Copy OK

Track 7

Filename C:\Exact Audio Copy\Alessi Brothers\Driftin'\07. That's When She Touched Me.wav

Peak level 99.9 %
Extraction speed 28.6 X
Track quality 100.0 %
Copy CRC BFD66CDA
Cannot be verified as accurate (confidence 3) [DF941FA0], AccurateRip returned [D3B07E6B] (AR v2)
Copy OK

Track 8

Filename C:\Exact Audio Copy\Alessi Brothers\Driftin'\08. I Don't Wanna Lose You.wav

Peak level 90.0 %
Extraction speed 26.5 X
Track quality 100.0 %
Copy CRC 07081ABA
Cannot be verified as accurate (confidence 3) [454E6159], AccurateRip returned [29A8B14F] (AR v2)
Copy OK

Track 9

Filename C:\Exact Audio Copy\Alessi Brothers\Driftin'\09. Not Tonight.wav

Peak level 90.6 %
Extraction speed 30.5 X
Track quality 100.0 %
Copy CRC B626B5DF
Cannot be verified as accurate (confidence 3) [F08C38A9], AccurateRip returned [69AA7CB2] (AR v2)
Copy OK

Track 10

Filename C:\Exact Audio Copy\Alessi Brothers\Driftin'\10. Just Can't Stop It.wav

Peak level 99.9 %
Extraction speed 31.4 X
Track quality 99.8 %
Copy CRC C457B84F
Cannot be verified as accurate (confidence 3) [E7C6685C], AccurateRip returned [7DADC45B] (AR v2)
Copy OK


No tracks could be verified as accurate
You may have a different pressing from the one(s) in the database

No errors occurred

End of status report

foobar2000 1.3.9 / Dynamic Range Meter 1.1.1
log date: 2016-04-30 19:09:55

––––––––––––––––––––––––––––––––––––––––
Analyzed: Alessi Brothers / Driftin'
––––––––––––––––––––––––––––––––––––––––

DR Peak RMS Duration Track
––––––––––––––––––––––––––––––––––––––––
DR11 -0.51 dB -13.44 dB 3:43 01-Dancing In the Halls Of Love
DR9 -0.01 dB -10.87 dB 3:14 02-Driftin'
DR11 -0.30 dB -14.74 dB 3:29 03-Believer
DR12 -0.31 dB -14.54 dB 3:28 04-Rainbows Go On Forever
DR12 0.00 dB -15.87 dB 4:45 05-Space
DR10 -0.89 dB -13.89 dB 3:41 06-You're Out Of Love
DR12 0.00 dB -14.64 dB 3:29 07-That's When She Touched Me
DR12 -0.91 dB -15.22 dB 3:11 08-I Don't Wanna Lose You
DR12 -0.85 dB -15.35 dB 3:06 09-Not Tonight
DR11 0.00 dB -13.60 dB 2:50 10-Just Can't Stop It
––––––––––––––––––––––––––––––––––––––––

Number of tracks: 10
Official DR value: DR11

Samplerate: 44100 Hz
Channels: 2
Bits per sample: 16
Bitrate: 805 kbps
Codec: FLAC
================================================================================

All thanks to - saintsmon


See also:
Nitroflare
password: BlondStyle