Subcategories

Alessi Brothers - Words And Music (1979) [2011, Japanese Mini LP SHM-CD]

Posted By: BlondStyle
Alessi Brothers - Words And Music (1979) [2011, Japanese Mini LP SHM-CD]

Alessi Brothers - Words And Music (1979) [2011, Japanese Mini LP SHM-CD]
Pop/Rock | EAC Rip | FLAC, Tracks+CUE+LOG+Covers (front/back)-300dpi (JPEG) | 38:31 Min | 277,33 Mb
Label: Universal Music (Japan) | Released: 2011, July, 27

The Alessi Brothers is an American pop rock singer-songwriter duo, best known for their 1984 hit "Savin' the Day" and also their 1977 hit "Oh Lori". The duo are identical twin brothers, Bill (Billy) Alessi and Bob (Bobby) Alessi (born 12 July 1953, West Hempstead, New York). Their song "Oh Lori" reached no. 8 in the UK Singles Chart in 1977, and "Put Away Your Love" reached No. 71 in the U.S. Billboard Hot 100 in 1982. "Oh Lori" became a Top Ten hit in seventeen more countries. The Alessi Brothers recorded five albums on major record labels. They sold over eight million records worldwide, and toured with Andy Gibb on his Shadow Dancing tour. They also charted in Brazil with "Sad Songs" (from the album Alessi, 1977), "All for a Reason" (from the album All for a Reason, 1978) and "Forever" (recorded with Christopher Cross, from the album Long Time Friends, 1982). Billy and Bobby Alessi co-operated with Art Garfunkel on his 1979 album Fate for Breakfast, mainly providing the background vocals. As vocal arrangers the twins helped Deborah Gibson on her 2001 album, M.Y.O.B., including production work and writing the title track. In 1984, the brothers released a song, "Savin' the Day", for the soundtrack to the film, Ghostbusters. The song was used in the 1986 cartoon based on the movie. The Brothers have enjoyed success working on jingles and advertisements for David Lucas and many mainstream consumer products in the U.S. In the 2000s they resumed their touring and album recording career as a duo, with the release of two new albums as Alessi, and also as part of group Barnaby Bye. ~Wikipedia~

Release of the album: 1979 [LP A&M Records, Cat.# SP-4776, USA]
Release of this CD: 2011, July, 27 [CD Universal Music (Japan), Cat.# UICY-75085 / EAN: 4988005669575]
Note: Mini LP in a cardboard case, SHM-CD 24bit remaster
Ⓟ © 1979 A&M Records, Inc.
Mastered At A & M Recording Studios, Hollywood, California
Distributed By – Victor Entertainment, Inc.

Alessi Brothers - Words And Music (1979) [2011, Japanese Mini LP SHM-CD]


Bass – Chuck Rainey, Mike Porcaro, Neil Stubenhaus
Drums – Ed Greene
Executive-Producer – Gary Klein
Guitar – Carlos Rios, David T. Walker, Jimmy Rippetoe, Lee Ritenour, Paul Jackson,Jr.
Keyboards – Jai Winding
Percussion – Paulinho Da Costa
Producer – Bob Gaudio (tracks: 3, 5, 6), Nick DeCaro (tracks: 1, 2, 4, 7, 8, 9)
Reissue Producer [監修] – 金澤寿和*
Trombone – Dick Hyde
Trumpet – Ollie Mitchell, Steve Madaio
Vocals, Guitar – Bobby Alessi
Vocals, Keyboards – Billy Alessi


Alessi Brothers - Words And Music (1979) [2011, Japanese Mini LP SHM-CD]


Tracklist:

01. Gimme Some Lovin' (03:32)
(Muff Winwood, Spencer Davis, Steve Winwood)
02. Lover Boy (03:21)
(Billy Alessi, Bobby Alessi)
03. Words And Music (04:16)
(Billy Alessi, Bobby Alessi)
04. As Long As I Still Have You (03:51)
(Billy Alessi, Bobby Alessi)
05. Midnight Low (04:21)
(Billy Alessi, Bobby Alessi)
06. Evilman (05:25)
(Billy Alessi, Bobby Alessi)
07. Wait For Me (04:20)
(Billy Alessi, Bobby Alessi)
08. I Wish That I Was Making Love (To You Tonight) (03:34)
(Jerry Corbetta, Molly Ann Leikin)
09. Hot Fun In The Summertime (05:51)
(Sylvester Stewart)

Exact Audio Copy V1.0 beta 2 from 29. April 2011

EAC extraction logfile from 5. April 2012, 10:23

Alessi Brothers / Words And Music

Used drive : HL-DT-STDVDRAM GSA-4163B Adapter: 1 ID: 0

Read mode : Secure
Utilize accurate stream : Yes
Defeat audio cache : No
Make use of C2 pointers : Yes

Read offset correction : 667
Overread into Lead-In and Lead-Out : No
Fill up missing offset samples with silence : Yes
Delete leading and trailing silent blocks : No
Null samples used in CRC calculations : No
Used interface : Native Win32 interface for Win NT & 2000
Gap handling : Not detected, thus appended to previous track

Used output format : User Defined Encoder
Selected bitrate : 768 kBit/s
Quality : High
Add ID3 tag : No
Command line compressor : C:\Program Files\Exact Audio Copy\FLAC\FLAC.EXE
Additional command line options : -6 -V -T "ARTIST=%artist%" -T "TITLE=%title%" -T "ALBUM=%albumtitle%" -T "DATE=%year%" -T "TRACKNUMBER=%tracknr%" -T "GENRE=%genre%" -T "COMMENT=%comment%" -T "BAND=%albuminterpret%" -T "COMPOSER=%composer%" %haslyrics%–ta


TOC of the extracted CD

Track | Start | Length | Start sector | End sector
––––––––––––––––––––––––––––-
1 | 0:00.00 | 3:32.17 | 0 | 15916
2 | 3:32.17 | 3:21.03 | 15917 | 30994
3 | 6:53.20 | 4:15.67 | 30995 | 50186
4 | 11:09.12 | 3:51.20 | 50187 | 67531
5 | 15:00.32 | 4:21.10 | 67532 | 87116
6 | 19:21.42 | 5:24.68 | 87117 | 111484
7 | 24:46.35 | 4:20.17 | 111485 | 131001
8 | 29:06.52 | 3:33.48 | 131002 | 147024
9 | 32:40.25 | 5:51.32 | 147025 | 173381


Track 1

Filename C:\Exact Audio Copy\Alessi Brothers\Words And Music\01. Gimme Some Lovin'.wav

Peak level 85.6 %
Extraction speed 16.7 X
Track quality 99.8 %
Copy CRC 7186850D
Track not present in AccurateRip database
Copy OK

Track 2

Filename C:\Exact Audio Copy\Alessi Brothers\Words And Music\02. Lover Boy.wav

Peak level 91.5 %
Extraction speed 17.5 X
Track quality 100.0 %
Copy CRC D4FC149C
Track not present in AccurateRip database
Copy OK

Track 3

Filename C:\Exact Audio Copy\Alessi Brothers\Words And Music\03. Words And Music.wav

Peak level 82.7 %
Extraction speed 20.1 X
Track quality 99.9 %
Copy CRC 41B9B446
Track not present in AccurateRip database
Copy OK

Track 4

Filename C:\Exact Audio Copy\Alessi Brothers\Words And Music\04. As Long As I Still Have You.wav

Peak level 83.8 %
Extraction speed 22.1 X
Track quality 100.0 %
Copy CRC D50C4F62
Track not present in AccurateRip database
Copy OK

Track 5

Filename C:\Exact Audio Copy\Alessi Brothers\Words And Music\05. Midnight Low.wav

Peak level 84.5 %
Extraction speed 25.7 X
Track quality 100.0 %
Copy CRC 1622002D
Track not present in AccurateRip database
Copy OK

Track 6

Filename C:\Exact Audio Copy\Alessi Brothers\Words And Music\06. Evilman.wav

Peak level 93.5 %
Extraction speed 26.2 X
Track quality 100.0 %
Copy CRC A0A87B62
Track not present in AccurateRip database
Copy OK

Track 7

Filename C:\Exact Audio Copy\Alessi Brothers\Words And Music\07. Wait For Me.wav

Peak level 91.0 %
Extraction speed 26.8 X
Track quality 100.0 %
Copy CRC C646A226
Track not present in AccurateRip database
Copy OK

Track 8

Filename C:\Exact Audio Copy\Alessi Brothers\Words And Music\08. I Wish That I Was Making Love (To You Tonight).wav

Peak level 89.4 %
Extraction speed 30.7 X
Track quality 100.0 %
Copy CRC 129411AD
Track not present in AccurateRip database
Copy OK

Track 9

Filename C:\Exact Audio Copy\Alessi Brothers\Words And Music\09. Hot Fun In The Summertime.wav

Peak level 91.6 %
Extraction speed 30.9 X
Track quality 100.0 %
Copy CRC D0389FA8
Track not present in AccurateRip database
Copy OK


None of the tracks are present in the AccurateRip database

No errors occurred

End of status report

foobar2000 1.3.9 / Dynamic Range Meter 1.1.1
log date: 2016-05-02 15:12:10

––––––––––––––––––––––––––––––––––––––––
Analyzed: Alessi Brothers / Words And Music
––––––––––––––––––––––––––––––––––––––––

DR Peak RMS Duration Track
––––––––––––––––––––––––––––––––––––––––
DR9 -1.34 dB -12.63 dB 3:32 01-Gimme Some Lovin'
DR10 -0.76 dB -13.16 dB 3:21 02-Lover Boy
DR9 -1.64 dB -12.78 dB 4:16 03-Words And Music
DR9 -1.53 dB -15.26 dB 3:51 04-As Long As I Still Have You
DR10 -1.46 dB -13.76 dB 4:21 05-Midnight Low
DR11 -0.58 dB -13.48 dB 5:25 06-Evilman
DR9 -0.82 dB -13.94 dB 4:20 07-Wait For Me
DR12 -0.97 dB -15.99 dB 3:34 08-I Wish That I Was Making Love (To You Tonight)
DR9 -0.75 dB -11.79 dB 5:51 09-Hot Fun In The Summertime
––––––––––––––––––––––––––––––––––––––––

Number of tracks: 9
Official DR value: DR10

Samplerate: 44100 Hz
Channels: 2
Bits per sample: 16
Bitrate: 1046 kbps
Codec: FLAC
================================================================================

All thanks to - saintsmon


See also:
Nitroflare
password: BlondStyle