Tags
Language
Tags

Alex Harvey - Shout: The Essential Alex Harvey (2018) {3CD Box Set}

Posted By: popsakov
Alex Harvey - Shout: The Essential Alex Harvey (2018) {3CD Box Set}

Alex Harvey - Shout: The Essential Alex Harvey (2018) {3CD Box Set}
EAC Rip | FLAC (Img) + Cue + Log ~ 1,43 Gb | MP3 CBR320 ~ 553 Mb
Scans (JPG, 600 dpi) ~ 13 Mb | RAR 5% Recovery
Glam Rock, Art Rock, Blues Rock | Vertigo / Universal Music / Spectrum Music #SPECESS017

Alexander James Harvey was a Scottish rock and blues musician. Although his career spanned almost three decades, he is best remembered as the frontman of The Sensational Alex Harvey Band, with whom he built a reputation as an exciting live performer during the era of glam rock in the 1970s.

Growing up in Scotland, he turned to music in his late teens and was in a skiffle band by 1955. By 1959, it had evolved into the Alex Harvey Big Soul Band. Harvey took the group to Hamburg, West Germany in the early '60s, there recording his first LP, Alex Harvey and His Soul Band, in the fall of 1963, which did not feature the band. He and his group made their London debut in February 1964, and the same year he recorded The Blues, which essentially was a solo record. In 1965, Harvey dissolved the Big Soul Band and later returned to Glasgow. But he was back in London in 1967, assembling Giant Moth, a psychedelic group that existed only for a short time. He then accepted a job working in the pit band of the musical Hair and while doing so recorded Having a Hair Rave up Live from the Shaftsbury Theatre. In 1969, he released Roman Wall Blues, his first solo effort in five years. Up to this point, none of his musical efforts had attracted much attention. But in the early '70s, he recruited the Scottish band Tear Gas – consisting of Zal Cleminson, Chris Glen, Hugh McKenna, and Ted McKenna – christening the resulting quintet the Sensational Alex Harvey Band.

Their first two albums, Framed (1972) and Next (1973), didn't sell, but in the fall of 1974 The Impossible Dream became Harvey's first chart record in the U.K. (It briefly made the American charts in March 1975.) Tomorrow Belongs to Me followed in the spring of 1975, hitting the Top Ten along with the Top Ten singles placing of Harvey's flamboyant cover of the Tom Jones hit "Delilah." With that, Next belatedly made the charts, and in September Sensational Alex Harvey Band Live came out and reached the Top 20 (also making the Top 100 in the U.S), as "Gamblin' Bar Room Blues" became a Top 40 single. This commercial success continued into 1976, with Penthouse Tapes entering the LP charts in April and becoming a Top 20 hit, "Boston Tea Party" making the singles charts in June and making a Top 20 showing, and SAHB Stories following in July and just missing the Top Ten.

In 1977, Harvey and the band recorded separately, SAHB without Alex (as it was billed) issuing Fourplay, while the leader made Alex Harvey Presents the Loch Ness Monster. A final album together, Rock Drill, was followed by the group's breakup. Harvey was back with his New Band in 1979 and an album called The Mafia Stole My Guitar, but his moment, so long in coming, had passed. Nevertheless, he kept on rocking and was on tour in Belgium when he succumbed to a heart attack in 1982 just before his 47th birthday.
Alex Harvey - Shout: The Essential Alex Harvey (2018) {3CD Box Set}


***************

Alex Harvey - Shout: The Essential Alex Harvey (2018) {3CD Box Set}

Track List CD1:

01. Shout [4:45]
02. Framed [3:18]
03. Take Out Some Insurance On Me Baby [4:14]
04. Got My Mojo Working But It Just Won't Work [3:51]
05. Bo Diddley Is a Gunslinger [2:27]
06. You've Put a Spell On Me [2:53]
07. Reeling and Rocking [3:28]
08. Parchman Farm [3:04]
09. Tutti Frutti [2:16]
10. Agent 00 Soul [2:41]
11. Jumpin' Jack Flash [3:12]
12. I Just Want to Make Love to You [3:19]
13. Roman Wall Blues [2:46]
14. Framed [4:56]
15. Hammer Song [4:07]
16. Midnight Moses [4:26]
17. The Harp [4:10]
18. Hole in Her Stocking [4:40]
19. Buff's Bar Blues [3:05]
20. There's No Lights On the Christmas Tree Mother, They're Burning Big Louie Ton… [3:46]

Exact Audio Copy V1.3 from 2. September 2016

EAC extraction logfile from 22. April 2018, 7:37

Alex Harvey / Shout - The Essential [Disc 1]

Used drive : ATAPI iHAS122 C Adapter: 1 ID: 0

Read mode : Secure
Utilize accurate stream : Yes
Defeat audio cache : Yes
Make use of C2 pointers : No

Read offset correction : 6
Overread into Lead-In and Lead-Out : No
Fill up missing offset samples with silence : Yes
Delete leading and trailing silent blocks : No
Null samples used in CRC calculations : Yes
Used interface : Native Win32 interface for Win NT & 2000

Used output format : Internal WAV Routines
Sample format : 44.100 Hz; 16 Bit; Stereo


TOC of the extracted CD

Track | Start | Length | Start sector | End sector
––––––––––––––––––––––––––––-
1 | 0:00.00 | 4:45.32 | 0 | 21406
2 | 4:45.32 | 3:18.32 | 21407 | 36288
3 | 8:03.64 | 4:13.42 | 36289 | 55305
4 | 12:17.31 | 3:50.40 | 55306 | 72595
5 | 16:07.71 | 2:26.66 | 72596 | 83611
6 | 18:34.62 | 2:52.64 | 83612 | 96575
7 | 21:27.51 | 3:27.66 | 96576 | 112166
8 | 24:55.42 | 3:04.02 | 112167 | 125968
9 | 27:59.44 | 2:15.74 | 125969 | 136167
10 | 30:15.43 | 2:40.64 | 136168 | 148231
11 | 32:56.32 | 3:12.03 | 148232 | 162634
12 | 36:08.35 | 3:19.30 | 162635 | 177589
13 | 39:27.65 | 2:46.04 | 177590 | 190043
14 | 42:13.69 | 4:55.56 | 190044 | 212224
15 | 47:09.50 | 4:06.51 | 212225 | 230725
16 | 51:16.26 | 4:25.42 | 230726 | 250642
17 | 55:41.68 | 4:09.41 | 250643 | 269358
18 | 59:51.34 | 4:40.12 | 269359 | 290370
19 | 64:31.46 | 3:04.50 | 290371 | 304220
20 | 67:36.21 | 3:45.67 | 304221 | 321162


Range status and errors

Selected range

Filename C:\Users\Arthur\Desktop\Alex Harvey - Shout - The Essential [Disc 1].wav

Peak level 100.0 %
Extraction speed 9.5 X
Range quality 99.9 %
Test CRC A36BACB7
Copy CRC A36BACB7
Copy OK

No errors occurred


AccurateRip summary

Track 1 not present in database
Track 2 not present in database
Track 3 not present in database
Track 4 not present in database
Track 5 not present in database
Track 6 not present in database
Track 7 not present in database
Track 8 not present in database
Track 9 not present in database
Track 10 not present in database
Track 11 not present in database
Track 12 not present in database
Track 13 not present in database
Track 14 not present in database
Track 15 not present in database
Track 16 not present in database
Track 17 not present in database
Track 18 not present in database
Track 19 not present in database
Track 20 not present in database

None of the tracks are present in the AccurateRip database

End of status report

–– CUETools DB Plugin V2.1.6

[CTDB TOCID: Z63cVLAjNS_KgTa1S8gHaeyEGvg-] found
Submit result: Z63cVLAjNS_KgTa1S8gHaeyEGvg- has been confirmed
Track | CTDB Status
1 | (2/2) Accurately ripped
2 | (2/2) Accurately ripped
3 | (2/2) Accurately ripped
4 | (2/2) Accurately ripped
5 | (2/2) Accurately ripped
6 | (2/2) Accurately ripped
7 | (2/2) Accurately ripped
8 | (2/2) Accurately ripped
9 | (2/2) Accurately ripped
10 | (2/2) Accurately ripped
11 | (2/2) Accurately ripped
12 | (2/2) Accurately ripped
13 | (2/2) Accurately ripped
14 | (2/2) Accurately ripped
15 | (2/2) Accurately ripped
16 | (2/2) Accurately ripped
17 | (2/2) Accurately ripped
18 | (2/2) Accurately ripped
19 | (2/2) Accurately ripped
20 | (2/2) Accurately ripped


==== Log checksum 5D8D861EAE9E1DB4F9364769B556A0B1B2A73577D78F6109C038149C5D824CCB ====

foobar2000 1.3.16 / Dynamic Range Meter 1.1.1
log date: 2018-04-22 14:34:17

––––––––––––––––––––––––––––––––––––––––
Analyzed: Alex Harvey and His Soul Band / Shout - The Essential [Disc 1] (1-9)
Alex Harvey / Shout - The Essential [Disc 1] (10-13)
The Sensational Alex Harvey Band / Shout - The Essential [Disc 1] (14-20)
––––––––––––––––––––––––––––––––––––––––

DR Peak RMS Duration Track
––––––––––––––––––––––––––––––––––––––––
DR9 0.00 dB -9.77 dB 4:45 01-Shout
DR10 -0.15 dB -12.83 dB 3:18 02-Framed
DR9 0.00 dB -10.10 dB 4:14 03-Take Out Some Insurance On Me Baby
DR8 -0.15 dB -10.46 dB 3:51 04-Got My Mojo Working But It Just Won't Work
DR8 -0.15 dB -9.13 dB 2:27 05-Bo Diddley Is a Gunslinger
DR9 -0.04 dB -9.24 dB 2:53 06-You've Put a Spell On Me
DR9 0.00 dB -9.87 dB 3:28 07-Reeling and Rocking
DR9 0.00 dB -10.10 dB 3:04 08-Parchman Farm
DR9 0.00 dB -10.31 dB 2:16 09-Tutti Frutti
DR9 0.00 dB -10.03 dB 2:41 10-Agent 00 Soul
DR9 -0.59 dB -11.04 dB 3:12 11-Jumpin' Jack Flash
DR11 -0.06 dB -12.48 dB 3:19 12-I Just Want to Make Love to You
DR8 -0.15 dB -11.45 dB 2:46 13-Roman Wall Blues
DR9 -1.02 dB -12.23 dB 4:56 14-Framed
DR9 -1.10 dB -14.45 dB 4:07 15-Hammer Song
DR9 -0.48 dB -10.71 dB 4:26 16-Midnight Moses
DR11 0.00 dB -14.08 dB 4:10 17-The Harp
DR8 -1.43 dB -11.67 dB 4:40 18-Hole in Her Stocking
DR8 -0.15 dB -10.04 dB 3:05 19-Buff's Bar Blues
DR10 -0.32 dB -12.08 dB 3:46 20-There's No Lights On the Christmas Tree Mother, They're Burning Big Louie Ton…
––––––––––––––––––––––––––––––––––––––––

Number of tracks: 20
Official DR value: DR9

Samplerate: 44100 Hz
Channels: 2
Bits per sample: 16
Bitrate: 767 kbps
Codec: FLAC
================================================================================

Track List CD2:

01. The Faith Healer [7:12]
02. Next [4:02]
03. Giddy Up a Ding Dong [3:15]
04. Vambo Marble Eye [4:23]
05. The Hot City Symphony Part 1: Vambo [5:03]
06. The Hot City Symphony Part 2: The Man in the Jar [8:13]
07. Sergeant Fury [3:28]
08. Tomahawk Kid [4:34]
09. Money Honey/Impossible Dream [2:10]
10. Action Strasse [3:16]
11. The Tale of the Giant Stone Eater [7:21]
12. Give My Compliments to the Chef [5:33]
13. Tomorrow Belongs to Me [3:46]
14. Fanfare (Justly, Skillfully, Magnanimously) [1:24]
15. The Faith Healer [6:51]
16. Delilah [5:17]
17. Cheek to Cheek [3:27]

Exact Audio Copy V1.3 from 2. September 2016

EAC extraction logfile from 22. April 2018, 8:01

Alex Harvey / Shout - The Essential [Disc 2]

Used drive : ATAPI iHAS122 C Adapter: 1 ID: 0

Read mode : Secure
Utilize accurate stream : Yes
Defeat audio cache : Yes
Make use of C2 pointers : No

Read offset correction : 6
Overread into Lead-In and Lead-Out : No
Fill up missing offset samples with silence : Yes
Delete leading and trailing silent blocks : No
Null samples used in CRC calculations : Yes
Used interface : Native Win32 interface for Win NT & 2000

Used output format : Internal WAV Routines
Sample format : 44.100 Hz; 16 Bit; Stereo


TOC of the extracted CD

Track | Start | Length | Start sector | End sector
––––––––––––––––––––––––––––-
1 | 0:00.00 | 7:11.65 | 0 | 32389
2 | 7:11.65 | 4:02.13 | 32390 | 50552
3 | 11:14.03 | 3:15.37 | 50553 | 65214
4 | 14:29.40 | 4:23.28 | 65215 | 84967
5 | 18:52.68 | 5:03.02 | 84968 | 107694
6 | 23:55.70 | 8:13.31 | 107695 | 144700
7 | 32:09.26 | 3:28.08 | 144701 | 160308
8 | 35:37.34 | 4:33.65 | 160309 | 180848
9 | 40:11.24 | 2:09.44 | 180849 | 190567
10 | 42:20.68 | 3:15.50 | 190568 | 205242
11 | 45:36.43 | 7:21.28 | 205243 | 238345
12 | 52:57.71 | 5:33.00 | 238346 | 263320
13 | 58:30.71 | 3:46.17 | 263321 | 280287
14 | 62:17.13 | 1:24.20 | 280288 | 286607
15 | 63:41.33 | 6:50.51 | 286608 | 317408
16 | 70:32.09 | 5:16.63 | 317409 | 341171
17 | 75:48.72 | 3:27.36 | 341172 | 356732


Range status and errors

Selected range

Filename C:\Users\Arthur\Desktop\Alex Harvey - Shout - The Essential [Disc 2].wav

Peak level 100.0 %
Extraction speed 9.7 X
Range quality 100.0 %
Test CRC C14610B5
Copy CRC C14610B5
Copy OK

No errors occurred


AccurateRip summary

Track 1 not present in database
Track 2 not present in database
Track 3 not present in database
Track 4 not present in database
Track 5 not present in database
Track 6 not present in database
Track 7 not present in database
Track 8 not present in database
Track 9 not present in database
Track 10 not present in database
Track 11 not present in database
Track 12 not present in database
Track 13 not present in database
Track 14 not present in database
Track 15 not present in database
Track 16 not present in database
Track 17 not present in database

None of the tracks are present in the AccurateRip database

End of status report

–– CUETools DB Plugin V2.1.6

[CTDB TOCID: AsVa1Kss7LnJqFZuLCLN0z.EjpA-] found
Submit result: AsVa1Kss7LnJqFZuLCLN0z.EjpA- has been confirmed
Track | CTDB Status
1 | (2/2) Accurately ripped
2 | (2/2) Accurately ripped
3 | (2/2) Accurately ripped
4 | (2/2) Accurately ripped
5 | (2/2) Accurately ripped
6 | (2/2) Accurately ripped
7 | (2/2) Accurately ripped
8 | (2/2) Accurately ripped
9 | (2/2) Accurately ripped
10 | (2/2) Accurately ripped
11 | (2/2) Accurately ripped
12 | (2/2) Accurately ripped
13 | (2/2) Accurately ripped
14 | (2/2) Accurately ripped
15 | (2/2) Accurately ripped
16 | (2/2) Accurately ripped
17 | (2/2) Accurately ripped


==== Log checksum EC0F0797A755D234F3C6C77ECFCE8FF8C0D37B5AC2A1FC1B9D1600E451C7037F ====

foobar2000 1.3.16 / Dynamic Range Meter 1.1.1
log date: 2018-04-22 14:36:13

––––––––––––––––––––––––––––––––––––––––
Analyzed: The Sensational Alex Harvey Band / Shout - The Essential [Disc 2]
––––––––––––––––––––––––––––––––––––––––

DR Peak RMS Duration Track
––––––––––––––––––––––––––––––––––––––––
DR9 -2.14 dB -12.59 dB 7:12 01-The Faith Healer
DR10 -1.35 dB -13.80 dB 4:02 02-Next
DR9 -1.48 dB -11.34 dB 3:15 03-Giddy Up a Ding Dong
DR8 -0.93 dB -10.56 dB 4:23 04-Vambo Marble Eye
DR8 -0.15 dB -9.95 dB 5:03 05-The Hot City Symphony Part 1: Vambo
DR11 -0.90 dB -15.12 dB 8:13 06-The Hot City Symphony Part 2: The Man in the Jar
DR10 -0.62 dB -12.72 dB 3:28 07-Sergeant Fury
DR11 -0.15 dB -13.07 dB 4:34 08-Tomahawk Kid
DR10 -0.77 dB -13.30 dB 2:10 09-Money Honey/Impossible Dream
DR8 -0.92 dB -11.95 dB 3:16 10-Action Strasse
DR9 -1.13 dB -13.19 dB 7:21 11-The Tale of the Giant Stone Eater
DR9 -0.57 dB -11.74 dB 5:33 12-Give My Compliments to the Chef
DR10 -0.55 dB -14.02 dB 3:46 13-Tomorrow Belongs to Me
DR9 -0.15 dB -12.45 dB 1:24 14-Fanfare (Justly, Skillfully, Magnanimously)
DR10 0.00 dB -11.44 dB 6:51 15-The Faith Healer
DR11 0.00 dB -13.33 dB 5:17 16-Delilah
DR12 -0.09 dB -13.84 dB 3:27 17-Cheek to Cheek
––––––––––––––––––––––––––––––––––––––––

Number of tracks: 17
Official DR value: DR10

Samplerate: 44100 Hz
Channels: 2
Bits per sample: 16
Bitrate: 896 kbps
Codec: FLAC
================================================================================

Track List CD3:

01. Boston Tea Party [4:38]
02. Crazy Horses [2:51]
03. School's Out [4:52]
04. Runaway [2:45]
05. Gamblin' Bar Room Blues [4:05]
06. Goodnight Irene [4:33]
07. Sultan's Choice [4:05]
08. Amos Moses [5:16]
09. Sirocco [6:50]
10. $25 for a Massage [3:16]
11. Dogs of War [6:10]
12. Rock Drill [6:22]
13. Rock 'N' Roll [3:38]
14. King Kong [3:15]
15. Who Murdered Sex? [5:16]
16. Water Beastie [4:50]
17. Engine Room Boogie [6:54]

Exact Audio Copy V1.3 from 2. September 2016

EAC extraction logfile from 22. April 2018, 8:24

Alex Harvey / Shout - The Essential [Disc 3]

Used drive : ATAPI iHAS122 C Adapter: 1 ID: 0

Read mode : Secure
Utilize accurate stream : Yes
Defeat audio cache : Yes
Make use of C2 pointers : No

Read offset correction : 6
Overread into Lead-In and Lead-Out : No
Fill up missing offset samples with silence : Yes
Delete leading and trailing silent blocks : No
Null samples used in CRC calculations : Yes
Used interface : Native Win32 interface for Win NT & 2000

Used output format : Internal WAV Routines
Sample format : 44.100 Hz; 16 Bit; Stereo


TOC of the extracted CD

Track | Start | Length | Start sector | End sector
––––––––––––––––––––––––––––-
1 | 0:00.00 | 4:37.39 | 0 | 20813
2 | 4:37.39 | 2:50.52 | 20814 | 33615
3 | 7:28.16 | 4:51.72 | 33616 | 55512
4 | 12:20.13 | 2:44.69 | 55513 | 67881
5 | 15:05.07 | 4:04.39 | 67882 | 86220
6 | 19:09.46 | 4:32.50 | 86221 | 106670
7 | 23:42.21 | 4:04.48 | 106671 | 125018
8 | 27:46.69 | 5:15.44 | 125019 | 148687
9 | 33:02.38 | 6:49.47 | 148688 | 179409
10 | 39:52.10 | 3:16.19 | 179410 | 194128
11 | 43:08.29 | 6:10.27 | 194129 | 221905
12 | 49:18.56 | 6:22.35 | 221906 | 250590
13 | 55:41.16 | 3:38.29 | 250591 | 266969
14 | 59:19.45 | 3:15.11 | 266970 | 281605
15 | 62:34.56 | 5:15.63 | 281606 | 305293
16 | 67:50.44 | 4:49.46 | 305294 | 327014
17 | 72:40.15 | 6:54.18 | 327015 | 358082


Range status and errors

Selected range

Filename C:\Users\Arthur\Desktop\Alex Harvey - Shout - The Essential [Disc 3].wav

Peak level 100.0 %
Extraction speed 9.7 X
Range quality 100.0 %
Test CRC 8C564400
Copy CRC 8C564400
Copy OK

No errors occurred


AccurateRip summary

Track 1 not present in database
Track 2 not present in database
Track 3 not present in database
Track 4 not present in database
Track 5 not present in database
Track 6 not present in database
Track 7 not present in database
Track 8 not present in database
Track 9 not present in database
Track 10 not present in database
Track 11 not present in database
Track 12 not present in database
Track 13 not present in database
Track 14 not present in database
Track 15 not present in database
Track 16 not present in database
Track 17 not present in database

None of the tracks are present in the AccurateRip database

End of status report

–– CUETools DB Plugin V2.1.6

[CTDB TOCID: t4WzGLHdp89GqNCrPrd4fj25iGY-] found
Submit result: t4WzGLHdp89GqNCrPrd4fj25iGY- has been confirmed
Track | CTDB Status
1 | (1/1) Accurately ripped
2 | (1/1) Accurately ripped
3 | (1/1) Accurately ripped
4 | (1/1) Accurately ripped
5 | (1/1) Accurately ripped
6 | (1/1) Accurately ripped
7 | (1/1) Accurately ripped
8 | (1/1) Accurately ripped
9 | (1/1) Accurately ripped
10 | (1/1) Accurately ripped
11 | (1/1) Accurately ripped
12 | (1/1) Accurately ripped
13 | (1/1) Accurately ripped
14 | (1/1) Accurately ripped
15 | (1/1) Accurately ripped
16 | (1/1) Accurately ripped
17 | (1/1) Accurately ripped


==== Log checksum D664CD5A0CF1F33AA12F6D38CA9B34EE83DD3C1810421E213E292788D8611EF9 ====

foobar2000 1.3.16 / Dynamic Range Meter 1.1.1
log date: 2018-04-22 14:37:58

––––––––––––––––––––––––––––––––––––––––
Analyzed: The Sensational Alex Harvey Band / Shout - The Essential [Disc 3]
––––––––––––––––––––––––––––––––––––––––

DR Peak RMS Duration Track
––––––––––––––––––––––––––––––––––––––––
DR10 0.00 dB -12.00 dB 4:38 01-Boston Tea Party
DR8 0.00 dB -9.80 dB 2:51 02-Crazy Horses
DR9 0.00 dB -11.20 dB 4:52 03-School's Out
DR9 0.00 dB -11.70 dB 2:45 04-Runaway
DR9 -0.15 dB -11.32 dB 4:05 05-Gamblin' Bar Room Blues
DR9 0.00 dB -11.83 dB 4:33 06-Goodnight Irene
DR9 0.00 dB -10.91 dB 4:05 07-Sultan's Choice
DR10 0.00 dB -11.78 dB 5:16 08-Amos Moses
DR11 -0.15 dB -12.99 dB 6:50 09-Sirocco
DR11 0.00 dB -12.19 dB 3:16 10-$25 for a Massage
DR8 0.00 dB -10.49 dB 6:10 11-Dogs of War
DR9 0.00 dB -10.84 dB 6:22 12-Rock Drill
DR7 -0.15 dB -9.73 dB 3:38 13-Rock 'N' Roll
DR7 -0.15 dB -9.58 dB 3:15 14-King Kong
DR10 -0.09 dB -11.92 dB 5:16 15-Who Murdered Sex?
DR11 0.00 dB -15.27 dB 4:50 16-Water Beastie
DR10 0.00 dB -11.18 dB 6:54 17-Engine Room Boogie
––––––––––––––––––––––––––––––––––––––––

Number of tracks: 17
Official DR value: DR9

Samplerate: 44100 Hz
Channels: 2
Bits per sample: 16
Bitrate: 886 kbps
Codec: FLAC
================================================================================

Alex Harvey - Shout: The Essential Alex Harvey (2018) {3CD Box Set}

All thanks go to London

>>> My Blog <<<

Download from icerbox.com: