Subcategories
Please register here if you want to download anything!

If domain in your address bar is different from the list below
PLEASE LEAVE THAT SITE IMMEDIATELY
❗IT'S A DANGEROUS FAKE❗



Spicy Magazines for Men! ;-)

Alexander Knaifel - Svete Tikhiy (2002) {ECM 1763}

Posted By: tiburon
Alexander Knaifel - Svete Tikhiy (2002) {ECM 1763}

Alexander Knaifel - Svete Tikhiy (2002) {ECM 1763}
EAC 0.99pb4 | FLAC tracks level 8 | Cue+Log+M3U | Full Scans 300dpi | 166MB + 5% Recovery
MP3 CBR 320 Kbps | 131MB + 5% Recovery
Genre: Classical, Avant-Garde, Minimalism

A recent entry in ECM's consistently interesting series presenting music from the former Soviet Union, this release offers two 1990s compositions from the Uzbek-born Alexander Knaifel. Svete Tikhiy (O Gladsome Light), written in 1991 and dedicated to Giya Kancheli, is a three-movement work for soprano and sampler, with texts drawn from Russian Orthodox liturgy. The manipulation of soprano Tatiana Melentieva's voice with the sampler comes mostly in the 20-minute second movement, where human vocal timbres are fragmented into beats and harmonies. Structurally the movement offers a procession of fields of sound (the rather mystical liner notes refer to color associated with Orthodox iconography) not so different from other minimalist works, but the sampler adds a new twist that in 1991 was fairly innovative, especially in Russia.
Track List

In Air Clean And Unseen
01. In Some Exhausted Reverie 9:45
02. An Autumn Evening 7:11
03. In Air Clean And Unseen 6:32

musicians
Oleg Malov - piano
Keller Quartett
Andras Keller - violin
Janos Pilz - violin
Zoltan Gal - viola
Judit Szabo - violoncello

Svete Tikhiy
04. Ringing Of The Chruch Bells 0:47
05. The Song Of The Most Holy Theotokos 20:28
06. Svete Tikhiy 6:57

musicians
Tatiana Malentieva - soprano
Andrei Siegle - sampler

Produced by Manfred Eicher


Exact Audio Copy V0.99 prebeta 4 from 23. January 2008

EAC extraction logfile from 9. June 2008, 22:01

Alexander Knaifel / Svete Tikhiy

Used drive : PLEXTOR CD-R PREMIUM2 Adapter: 1 ID: 1

Read mode : Secure
Utilize accurate stream : Yes
Defeat audio cache : Yes
Make use of C2 pointers : No

Read offset correction : 30
Overread into Lead-In and Lead-Out : No
Fill up missing offset samples with silence : Yes
Delete leading and trailing silent blocks : No
Null samples used in CRC calculations : Yes
Used interface : Installed external ASPI interface
Gap handling : Appended to previous track

Used output format : User Defined Encoder
Selected bitrate : 32 kBit/s
Quality : High
Add ID3 tag : No
Command line compressor : C:\Programmi\FLAC\flac.exe
Additional command line options : -8 -V -T "ARTIST=%a" -T "TITLE=%t" -T "ALBUM=%g" -T "DATE=%y" -T "TRACKNUMBER=%n" -T "GENRE=%m" -T "COMMENT=EAC FLAC -8" %s


TOC of the extracted CD

Track | Start | Length | Start sector | End sector
––––––––––––––––––––––––––––-
1 | 0:00.00 | 9:43.35 | 0 | 43759
2 | 9:43.35 | 7:11.00 | 43760 | 76084
3 | 16:54.35 | 6:32.50 | 76085 | 105534
4 | 23:27.10 | 0:47.00 | 105535 | 109059
5 | 24:14.10 | 20:28.32 | 109060 | 201191
6 | 44:42.42 | 6:57.45 | 201192 | 232511


Track 1

Filename C:\My Rip\01 - In Air Clean And Unseen-In Some Exhausted Reverie.wav

Pre-gap length 0:00:02.00

Peak level 10.8 %
Track quality 100.0 %
Test CRC 033E1C44
Copy CRC 033E1C44
Track not present in AccurateRip database
Copy OK

Track 2

Filename C:\My Rip\02 - In Air Clean And Unseen-An Autumn Evening.wav

Peak level 27.5 %
Track quality 99.9 %
Test CRC EB156234
Copy CRC EB156234
Track not present in AccurateRip database
Copy OK

Track 3

Filename C:\My Rip\03 - In Air Clean And Unseen-In Air Clean And Unseen.wav

Peak level 14.4 %
Track quality 100.0 %
Test CRC B33B0F78
Copy CRC B33B0F78
Track not present in AccurateRip database
Copy OK

Track 4

Filename C:\My Rip\04 - Svete Tikhiy-Ringing Of The Chruch Bells.wav

Peak level 27.3 %
Track quality 100.0 %
Test CRC 9DDADE45
Copy CRC 9DDADE45
Track not present in AccurateRip database
Copy OK

Track 5

Filename C:\My Rip\05 - Svete Tikhiy-The Song Of The Most Holy Theotokos.wav

Peak level 48.0 %
Track quality 100.0 %
Test CRC D82C4CD9
Copy CRC D82C4CD9
Track not present in AccurateRip database
Copy OK

Track 6

Filename C:\My Rip\06 - Svete Tikhiy-Svete Tikhiy.wav

Peak level 25.9 %
Track quality 100.0 %
Test CRC 2C8C9921
Copy CRC 2C8C9921
Track not present in AccurateRip database
Copy OK


None of the tracks are present in the AccurateRip database

No errors occurred

End of status report


––––––––––––––––––––––––––––––––––––––––
Analyzed: Alexander Knaifel / Svete Tikhiy
––––––––––––––––––––––––––––––––––––––––

DR Peak RMS Duration Track
––––––––––––––––––––––––––––––––––––––––
DR15 -19.32 dB -40.40 dB 9:43 01-In Air Clean And Unseen-In Some Exhausted Reverie
DR14 -11.19 dB -34.00 dB 7:11 02-In Air Clean And Unseen-An Autumn Evening
DR16 -16.77 dB -41.07 dB 6:33 03-In Air Clean And Unseen-In Air Clean And Unseen
DR8 -11.27 dB -25.82 dB 0:47 04-Svete Tikhiy-Ringing Of The Chruch Bells
DR13 -6.36 dB -26.52 dB 20:28 05-Svete Tikhiy-The Song Of The Most Holy Theotokos
DR13 -11.73 dB -31.67 dB 6:58 06-Svete Tikhiy-Svete Tikhiy
––––––––––––––––––––––––––––––––––––––––

Number of tracks: 6
Official DR value: DR13

Samplerate: 44100 Hz
Channels: 2
Bits per sample: 16
Bitrate: 287 kbps
Codec: FLAC
================================================================================

Alexander Knaifel - Svete Tikhiy (2002) {ECM 1763}
Alexander Knaifel - Svete Tikhiy (2002) {ECM 1763}
Alexander Knaifel - Svete Tikhiy (2002) {ECM 1763}


Thanks to the original ripper