Subcategories

Alexander Sitkovetsky - ZELLO (1990)

Posted By: technick
Alexander Sitkovetsky - ZELLO (1990)

Александр Ситковецкий - ЗЕЛЛО (1990)
EAC: ape (image)+cue+log | RAR, 3%, 278,62MB | mp3, 320kbps | RAR, 3%, 110,36MB | Scans | RAR, 3%, 8,31MB
Label: Мелодия | Cat №: SUCD 60-00284 | (FilePost+DepositFiles)

Александр Ситковецкий - гитарист, композитор, основатель группы "Автограф". Записал сольные альбомы "Zello" и "Empty Arena". Как сессионный гитарист, участвовал в бесчисленном количестве записей – в частности, по просьбе Матецкого прописал партию соло-гитары в боевике Софии Ротару "Караван Любви".
Совместно с Леонидом Гуткиным организовал в Лос-Анджелесе 24-канальную студию звукозаписи Red Sunset. Создал совместно с бизнесменом Алексеем Курочкиным компанию A&T Trade, которая сумела стать лидером российского рынка музыкального оборудования с оборотом в $30 млн.
Exact Audio Copy V0.99 prebeta 5 from 4. May 2009

EAC extraction logfile from 15. August 2009, 22:47

Alexander Sitkovetsky / ZELLO

Used drive : TEAC CD-W552GB Adapter: 1 ID: 0

Read mode : Secure
Utilize accurate stream : Yes
Defeat audio cache : Yes
Make use of C2 pointers : No

Read offset correction : 6
Overread into Lead-In and Lead-Out : No
Fill up missing offset samples with silence : Yes
Delete leading and trailing silent blocks : No
Null samples used in CRC calculations : Yes
Used interface : Installed external ASPI interface

Used output format : Internal WAV Routines
Sample format : 44.100 Hz; 16 Bit; Stereo


TOC of the extracted CD

Track | Start | Length | Start sector | End sector
––––––––––––––––––––––––––––-
1 | 0:00.00 | 3:50.25 | 0 | 17274
2 | 3:50.25 | 5:44.63 | 17275 | 43137
3 | 9:35.13 | 4:16.12 | 43138 | 62349
4 | 13:51.25 | 5:01.63 | 62350 | 84987
5 | 18:53.13 | 1:38.37 | 84988 | 92374
6 | 20:31.50 | 2:08.00 | 92375 | 101974
7 | 22:39.50 | 3:22.25 | 101975 | 117149
8 | 26:02.00 | 1:36.13 | 117150 | 124362
9 | 27:38.13 | 3:26.25 | 124363 | 139837
10 | 31:04.38 | 4:12.25 | 139838 | 158762
11 | 35:16.63 | 3:37.50 | 158763 | 175087
12 | 38:54.38 | 3:01.25 | 175088 | 188687
13 | 41:55.63 | 3:18.50 | 188688 | 203587
14 | 45:14.38 | 3:06.00 | 203588 | 217537
15 | 48:20.38 | 0:32.62 | 217538 | 219999


Range status and errors

Selected range

Filename G:\Upload\Sitkovetsky - Zello - 1990\Sitkovetsky - Zello - 1990 (ape)\Alexander Sitkovetsky - ZELLO.wav

Peak level 80.0 %
Range quality 100.0 %
Test CRC 3679BB87
Copy CRC 3679BB87
Copy OK

No errors occurred


AccurateRip summary

Track 1 accurately ripped (confidence 1) [616E6E0D]
Track 2 accurately ripped (confidence 1) [1A1C87E9]
Track 3 accurately ripped (confidence 1) [15088A02]
Track 4 accurately ripped (confidence 1) [66D0ECF1]
Track 5 accurately ripped (confidence 1) [2E1C8695]
Track 6 accurately ripped (confidence 1) [663BC44E]
Track 7 accurately ripped (confidence 1) [7A46D35B]
Track 8 accurately ripped (confidence 1) [5DA0249E]
Track 9 accurately ripped (confidence 1) [177C611D]
Track 10 accurately ripped (confidence 1) [813DB53F]
Track 11 accurately ripped (confidence 1) [DEAD8DD2]
Track 12 accurately ripped (confidence 1) [241FC665]
Track 13 accurately ripped (confidence 1) [E1848B91]
Track 14 accurately ripped (confidence 1) [4A959099]
Track 15 accurately ripped (confidence 1) [6F864974]

All tracks accurately ripped

End of status report

Tracklist:
01. Двойное видение [3:46]
02. Лилия небес [5:58]
03. Верблюды [4:25]
04. Резиновый след [5:05]
05. Мост вздохов (Прелюд) [1:22]
06. Мост вздохов (Фуга) [2:08]
07. Радиомания [3:19]
08. Бамбалео [1:44]
09. Бамбасита [3:22]
10. Пять четвертей [4:34]
11. Биг Бит [3:19]
12. Зелло [2:59]
13. Фантазм [3:16]
14. Мир в себе (версия 2) [3:30]
15. Мост вздохов (Реприза) [0:33]
–––––––––––––
Total time [48:23]
No mirrors, please!

Welcome to My Blog!
FilePost: Part1, Part2, mp3, scans.
DepositFiles: ape, mp3, scans.
pass: kermith