Subcategories

Alexander Weimann - Alessandro Scarlatti: Complete Keyboard Works, Vol.2 (2010)

Posted By: ArlegZ
Alexander Weimann - Alessandro Scarlatti: Complete Keyboard Works, Vol.2 (2010)

Alexander Weimann - Alessandro Scarlatti: Complete Keyboard Works, Vol.2 (2010)
EAC | FLAC | Image (Cue & Log) ~ 421 Mb | Total time: 49:52+49:33 | Covers included
Classical | Label: ATMA Classique | # ACD2 2528 | Recorded: 2010

To celebrate the 350 anniversary of the birth of Alessandro Scarlatti, Alexander Weimann continues his project of recording the complete keyboard works of this great Italian baroque composer. This oeuvre comprises some 30 toccatas and variations, the scores of which are conserved in the collections of European and American libraries. Some of these works have never been recorded before.
Recently appointed Artistic Director of the Pacific Baroque Orchestra, Alexander Weimann is one of the most sought-after ensemble directors, soloists, and chamber music partners of his generation. He has travelled the world as a member of Tragicomedia, as a guest of Freiburger Barockorchester, Gesualdo Consort, Tafelmusik, and as music director of Les Voix Baroques and Le Nouvel Opéra.

Performer:
Alexander Weimann, organ

Track List:
CD1:
01. Toccata, Un poco Largo, Allegro in D major
02. Toccata aperta d'Organo, Balletto, Vivace in A minor
03. Varie Partite obligate al basso in C major
04. Toccata, Grave, Allegro, Presto, Minuetto in A minor
05. Toccata, Allegro, Andante, Adagio assai, Andante, Adagio, Fuga Allegro assai in C major
06. Toccata, Arpeggio, Fuga in C major
07. Toccata, Giga in la maggiore in A major
08. Partite varie in do maggiore in C major
CD2:
01. Toccata, Arpeggio, Allegro, Arpeggio, Follia in D minor
02. Toccata, Fuga, Allegro in D major
03. Toccata, Arpeggio, Fuga in G major
04. Toccata, Largo, Allegro, Fuga in A minor
05. Toccata, Fuga primo Tono in D minor
06. Toccata, Minuetto in A major
07. Toccata, Arpeggio in G major


Exact Audio Copy V1.3 from 2. September 2016

EAC extraction logfile from 11. November 2019, 12:48

Alexander Weimann / Alessandro Scarlatti - Complete Keyboard Works Vol.2 CD1

Used drive : HL-DT-STBD-RE WH16NS40 Adapter: 1 ID: 0

Read mode : Secure
Utilize accurate stream : Yes
Defeat audio cache : Yes
Make use of C2 pointers : No

Read offset correction : 6
Overread into Lead-In and Lead-Out : No
Fill up missing offset samples with silence : Yes
Delete leading and trailing silent blocks : No
Null samples used in CRC calculations : Yes
Used interface : Native Win32 interface for Win NT & 2000

Used output format : User Defined Encoder
Selected bitrate : 1024 kBit/s
Quality : High
Add ID3 tag : No
Command line compressor : C:\Program Files (x86)\Exact Audio Copy\FLAC\FLAC.EXE
Additional command line options : -6 -V -T "ARTIST=%artist%" -T "TITLE=%title%" -T "ALBUM=%albumtitle%" -T "DATE=%year%" -T "TRACKNUMBER=%tracknr%" -T "GENRE=%genre%" -T "COMMENT=%comment%" -T "BAND=%albuminterpret%" -T "ALBUMARTIST=%albuminterpret%" -T "COMPOSER=%composer%" %haslyrics%–tag-from-file=LYRICS="%lyricsfile%"%haslyrics% -T "DISCNUMBER=%cdnumber%" -T "TOTALDISCS=%totalcds%" -T "TOTALTRACKS=%numtracks%" %hascover%–picture="%coverfile%"%hascover% %source% -o %dest%


TOC of the extracted CD

Track | Start | Length | Start sector | End sector
––––––––––––––––––––––––––––-
1 | 0:00.00 | 5:14.60 | 0 | 23609
2 | 5:14.60 | 4:23.09 | 23610 | 43343
3 | 9:37.69 | 3:33.66 | 43344 | 59384
4 | 13:11.60 | 5:03.47 | 59385 | 82156
5 | 18:15.32 | 11:16.37 | 82157 | 132893
6 | 29:31.69 | 5:17.54 | 132894 | 156722
7 | 34:49.48 | 4:34.60 | 156723 | 177332
8 | 39:24.33 | 10:27.18 | 177333 | 224375


Range status and errors

Selected range

Filename C:\Users\Grant\Desktop\Alexander Weimann - Alessandro Scarlatti - Complete Keyboard Works Vol.2 CD1.wav

Peak level 86.3 %
Extraction speed 7.1 X
Range quality 99.9 %
Test CRC 63FDB9D2
Copy CRC 63FDB9D2
Copy OK

No errors occurred


AccurateRip summary

Track 1 accurately ripped (confidence 2) [0AC441FF] (AR v2)
Track 2 accurately ripped (confidence 2) [FA849A10] (AR v2)
Track 3 accurately ripped (confidence 2) [E1E6E067] (AR v2)
Track 4 accurately ripped (confidence 2) [DFEFF6FD] (AR v2)
Track 5 accurately ripped (confidence 2) [70064788] (AR v2)
Track 6 accurately ripped (confidence 2) [E38B7969] (AR v2)
Track 7 accurately ripped (confidence 2) [02094F2A] (AR v2)
Track 8 accurately ripped (confidence 2) [40884F42] (AR v2)

All tracks accurately ripped

End of status report

–– CUETools DB Plugin V2.1.6

[CTDB TOCID: RofIN6TZjw5Cbgbvz0dbRJU5qmE-] found
Submit result: RofIN6TZjw5Cbgbvz0dbRJU5qmE- has been confirmed
Track | CTDB Status
1 | (2/2) Accurately ripped
2 | (2/2) Accurately ripped
3 | (2/2) Accurately ripped
4 | (2/2) Accurately ripped
5 | (2/2) Accurately ripped
6 | (2/2) Accurately ripped
7 | (2/2) Accurately ripped
8 | (2/2) Accurately ripped


==== Log checksum 5B839E3DFF856A7860FA9BEB6E567BB855CB6AECA0B36DE31ABABA8D7D948084 ====


Exact Audio Copy V1.3 from 2. September 2016

EAC extraction logfile from 11. November 2019, 12:26

Alexander Weimann / Alessandro Scarlatti - Complete Keyboard Works Vol.2 CD2

Used drive : HL-DT-STBD-RE WH16NS40 Adapter: 1 ID: 0

Read mode : Secure
Utilize accurate stream : Yes
Defeat audio cache : Yes
Make use of C2 pointers : No

Read offset correction : 6
Overread into Lead-In and Lead-Out : No
Fill up missing offset samples with silence : Yes
Delete leading and trailing silent blocks : No
Null samples used in CRC calculations : Yes
Used interface : Native Win32 interface for Win NT & 2000

Used output format : User Defined Encoder
Selected bitrate : 1024 kBit/s
Quality : High
Add ID3 tag : No
Command line compressor : C:\Program Files (x86)\Exact Audio Copy\FLAC\FLAC.EXE
Additional command line options : -6 -V -T "ARTIST=%artist%" -T "TITLE=%title%" -T "ALBUM=%albumtitle%" -T "DATE=%year%" -T "TRACKNUMBER=%tracknr%" -T "GENRE=%genre%" -T "COMMENT=%comment%" -T "BAND=%albuminterpret%" -T "ALBUMARTIST=%albuminterpret%" -T "COMPOSER=%composer%" %haslyrics%–tag-from-file=LYRICS="%lyricsfile%"%haslyrics% -T "DISCNUMBER=%cdnumber%" -T "TOTALDISCS=%totalcds%" -T "TOTALTRACKS=%numtracks%" %hascover%–picture="%coverfile%"%hascover% %source% -o %dest%


TOC of the extracted CD

Track | Start | Length | Start sector | End sector
––––––––––––––––––––––––––––-
1 | 0:00.00 | 12:45.32 | 0 | 57406
2 | 12:45.32 | 4:51.49 | 57407 | 79280
3 | 17:37.06 | 6:53.18 | 79281 | 110273
4 | 24:30.24 | 4:18.24 | 110274 | 129647
5 | 28:48.48 | 7:09.31 | 129648 | 161853
6 | 35:58.04 | 3:06.31 | 161854 | 175834
7 | 39:04.35 | 10:28.70 | 175835 | 223004


Range status and errors

Selected range

Filename C:\Users\Grant\Desktop\Alexander Weimann - Alessandro Scarlatti - Complete Keyboard Works Vol.2 CD2.wav

Peak level 96.9 %
Extraction speed 7.1 X
Range quality 99.9 %
Test CRC 0E962F08
Copy CRC 0E962F08
Copy OK

No errors occurred


AccurateRip summary

Track 1 accurately ripped (confidence 1) [68741376] (AR v2)
Track 2 accurately ripped (confidence 1) [1FCFE7CF] (AR v2)
Track 3 accurately ripped (confidence 1) [3750E6EF] (AR v2)
Track 4 accurately ripped (confidence 1) [E0F4B645] (AR v2)
Track 5 accurately ripped (confidence 1) [F8AFC932] (AR v2)
Track 6 accurately ripped (confidence 1) [35FBE7C4] (AR v2)
Track 7 accurately ripped (confidence 1) [974C2459] (AR v2)

All tracks accurately ripped

End of status report

–– CUETools DB Plugin V2.1.6

[CTDB TOCID: AseVHKfPp8oZkd7iDk_5UQXAWtU-] found
Submit result: AseVHKfPp8oZkd7iDk_5UQXAWtU- has been confirmed
Track | CTDB Status
1 | (2/2) Accurately ripped
2 | (2/2) Accurately ripped
3 | (2/2) Accurately ripped
4 | (2/2) Accurately ripped
5 | (2/2) Accurately ripped
6 | (2/2) Accurately ripped
7 | (2/2) Accurately ripped


==== Log checksum 73FA5927C2702FBF936E6D36549A873E8C6E902EFA0FE3B6C2FEE520A16DC575 ====

Alexander Weimann - Alessandro Scarlatti: Complete Keyboard Works, Vol.2 (2010)

Thanks to the original releaser