Subcategories

Alexandra Stan - Alesta (2016) {Japanese Deluxe Edition}

Posted By: popsakov
Alexandra Stan - Alesta (2016) {Japanese Deluxe Edition}

Alexandra Stan - Alesta (2016)
EAC Rip | FLAC (Img) + Cue + Log ~ 305 Mb
Scans (JPG, 600 dpi) ~ 84 Mb | RAR 5% Recovery
Dance, Pop, Euro House | Viktor Entertainment #VIZP-144

Alesta is the third studio album recorded by Romanian recording artist Alexandra Stan, released to Japanese retrailers on 9 March 2016 via Global Records. Stan toured Japan in order to promote the record. The album debuted at number thirty-four on the Japanese Albums Chart, and featured a collabortion with Swedish-Congolese singer Mohombi on "Balans".

Alexandra Stan is a Euro-dance vocalist from Romania who scored an international smash hit in 2011 with her second single, "Mr. Saxobeat." Born on June 10, 1989 in Constanta, Romania, she made her recording debut in 2009 with the single "Lollipop (Param Pam Pam)," written and produced by Andrei Nemirschi and Marcel Prodan. Though the song wasn't a big hit, it set the stage in Romania for Stan's breakout success with her follow-up single, "Mr. Saxobeat." Originally released domestically in 2010, "Mr. Saxobeat" was likewise written and produced by Nemirschi and Prodan. The song proceeded to top the Romanian singles chart for eight weeks straight. Like recent worldwide Euro-dance hits to emerge from Romania, namely Inna's "Hot" and Edward Maya's "Stereo Love," it wasn't long before "Mr. Saxobeat" was licensed for release internationally. In 2011, the song was a Top Ten hit all across Europe, hitting number one in several countries, and it even found success in the United States, where it topped the Billboard Hot Dance Airplay chart. In the meantime, "Get Back (ASAP)" was released as Stan's third single, and arrangements were made to release a full-length album.
~ Wiki/All Music

Alexandra Stan - Alesta (2016) {Japanese Deluxe Edition}


***************

Alexandra Stan - Alesta (2016) {Japanese Deluxe Edition}

Track List:

01. Step It Up [02:57]
02. Get What You Give [03:03]
03. We Wanna [03:53]
04. Alone [03:58]
05. Ecoute [03:16]
06. Balans [03:10]
07. Coco Banana [02:43]
08. I Did It Mama [03:27]
09. 9 Lives [03:40]
10. La Fuega [02:49]
11. Boom Pow [02:50]
12. Motive [03:30]
13. Baby, It’s OK [03:24]

Exact Audio Copy V1.0 beta 6 from 9. April 2015

Отчёт EAC об извлечении, выполненном 2. апреля 2016, 1:31

Alexandra Stan / ALESTA

Дисковод: SlimtypeDVD A DS8A9SH Adapter: 1 ID: 0

Режим чтения : Достоверность
Использование точного потока : Да
Отключение кэша аудио : Да
Использование указателей C2 : Нет

Коррекция смещения при чтении : 6
Способность читать области Lead-in и Lead-out : Нет
Заполнение пропущенных сэмплов тишиной : Да
Удаление блоков с тишиной в начале и конце : Нет
При вычислениях CRC использовались нулевые сэмплы : Да
Интерфейс : Встроенный Win32-интерфейс для Win NT/2000

Выходной формат : Пользовательский кодировщик
Выбранный битрейт : 128 kBit/s
Качество : Высокий
Добавление ID3-тега : Нет
Утилита сжатия : D:\Program Files (x86)\Exact Audio Copy\Flac\flac.exe
Дополнительные параметры : -V -8 -T "Date=%year%" -T "Genre=%genre%" %source%


TOC извлечённого CD

Трек | Старт | Длительность | Начальный сектор | Конечный сектор
––––––––––––––––––––––––––––––––––-
1 | 0:00.00 | 2:56.55 | 0 | 13254
2 | 2:56.55 | 3:03.00 | 13255 | 26979
3 | 5:59.55 | 3:52.40 | 26980 | 44419
4 | 9:52.20 | 3:57.20 | 44420 | 62214
5 | 13:49.40 | 3:15.20 | 62215 | 76859
6 | 17:04.60 | 3:09.35 | 76860 | 91069
7 | 20:14.20 | 2:42.65 | 91070 | 103284
8 | 22:57.10 | 3:26.15 | 103285 | 118749
9 | 26:23.25 | 3:39.15 | 118750 | 135189
10 | 30:02.40 | 2:48.45 | 135190 | 147834
11 | 32:51.10 | 2:49.60 | 147835 | 160569
12 | 35:40.70 | 3:29.25 | 160570 | 176269
13 | 39:10.20 | 3:23.35 | 176270 | 191529


Характеристики диапазона извлечения и сообщения об ошибках

Выбранный диапазон

Имя файла D:\My Rips\Audio\Alexandra Stan - ALESTA\Alexandra Stan - ALESTA.wav

Пиковый уровень 98.8 %
Скорость извлечения 4.0 X
Качество диапазона 99.9 %
CRC теста E6FE0614
CRC копии E6FE0614
Копирование… OK

Ошибок не произошло


AccurateRip: сводка

Трек 1 отсутствует в базе данных
Трек 2 отсутствует в базе данных
Трек 3 отсутствует в базе данных
Трек 4 отсутствует в базе данных
Трек 5 отсутствует в базе данных
Трек 6 отсутствует в базе данных
Трек 7 отсутствует в базе данных
Трек 8 отсутствует в базе данных
Трек 9 отсутствует в базе данных
Трек 10 отсутствует в базе данных
Трек 11 отсутствует в базе данных
Трек 12 отсутствует в базе данных
Трек 13 отсутствует в базе данных

Ни одного трека нет в базе AccurateRip

Конец отчёта

==== Контрольная сумма отчёта D8A49AF76965F69F10227D88A7A46417A31296B0DDFFAA324F3363D651956E89 ====

foobar2000 1.2.6 / Dynamic Range Meter 1.1.1
log date: 2016-04-03 11:23:29

––––––––––––––––––––––––––––––––––––––––
Analyzed: Alexandra Stan & Inna feat. Daddy Yankee / ALESTA (1)
Alexandra Stan feat. Mohombi / ALESTA (2)
––––––––––––––––––––––––––––––––––––––––

DR Peak RMS Duration Track
––––––––––––––––––––––––––––––––––––––––
DR5 -1.01 dB -7.25 dB 3:53 03-We Wanna
DR7 -0.10 dB -8.79 dB 3:09 06-Balans
––––––––––––––––––––––––––––––––––––––––

Number of tracks: 2
Official DR value: DR6

Samplerate: 44100 Hz
Channels: 2
Bits per sample: 16
Bitrate: 954 kbps
Codec: FLAC
================================================================================

––––––––––––––––––––––––––––––––––––––––
Analyzed: Alexandra Stan / ALESTA (1-9)
Dorian feat. Alexandra Stan / ALESTA (10)
Follow Your Instinct feat. Alexandra Stan & Viper / ALESTA (11)
––––––––––––––––––––––––––––––––––––––––

DR Peak RMS Duration Track
––––––––––––––––––––––––––––––––––––––––
DR5 -0.40 dB -7.42 dB 2:57 01-Step It Up
DR7 -0.10 dB -7.98 dB 3:03 02-Get What You Give
DR7 -0.40 dB -9.32 dB 3:57 04-Alone
DR6 -0.10 dB -7.98 dB 3:15 05-Ecoute
DR7 -0.10 dB -9.03 dB 2:43 07-Coco Banana
DR4 -0.30 dB -6.24 dB 3:26 08-I Did It Mama
DR7 -0.10 dB -8.02 dB 3:39 09-9 Lives
DR6 -0.31 dB -7.31 dB 2:49 10-La Fuega
DR6 -0.30 dB -7.27 dB 2:50 11-Boom Pow
DR5 -0.80 dB -8.24 dB 3:29 12-Motive
DR4 -1.40 dB -7.67 dB 3:23 13-Baby, It’s OK
––––––––––––––––––––––––––––––––––––––––

Number of tracks: 11
Official DR value: DR6

Samplerate: 44100 Hz
Channels: 2
Bits per sample: 16
Bitrate: 954 kbps
Codec: FLAC
================================================================================

[CUETools log; Date: 03.04.2016 11:23:38; Version: 2.1.5]
[CTDB TOCID: pE2hgI63HOoMcSAtwmurgIp0GRs-] found.
Track | CTDB Status
1 | (6/6) Accurately ripped
2 | (6/6) Accurately ripped
3 | (6/6) Accurately ripped
4 | (6/6) Accurately ripped
5 | (6/6) Accurately ripped
6 | (6/6) Accurately ripped
7 | (6/6) Accurately ripped
8 | (6/6) Accurately ripped
9 | (6/6) Accurately ripped
10 | (6/6) Accurately ripped
11 | (6/6) Accurately ripped
12 | (6/6) Accurately ripped
13 | (6/6) Accurately ripped
[AccurateRip ID: 00149286-00cd805d-aa09f90d] disk not present in database.

Track Peak [ CRC32 ] [W/O NULL] [ LOG ]
– 98,8 [E6FE0614] [987C58BE] CRC32
01 95,5 [F506A8C5] [37121406]
02 98,8 [E3D1F7BD] [C9DF337C]
03 89,0 [7BFE5E1C] [34689F5D]
04 95,5 [C0903B37] [371F2718]
05 98,8 [F42E1B17] [E3991247]
06 98,8 [99AF0608] [7AE5F6B6]
07 98,8 [190D00CD] [AB04CB39]
08 96,6 [E10E29BD] [6D06960F]
09 98,8 [16C71600] [35D02957]
10 96,4 [177D6B09] [959FE754]
11 96,6 [6D9EDF5F] [AEB029F9]
12 91,2 [15E5119F] [50C4C73D]
13 85,1 [D38A8ECF] [F4FCFF78]

Alexandra Stan - Alesta (2016) {Japanese Deluxe Edition}

All thanks go to serg-82

Visit my blog!

Download:
Nitroflare: FLAC | Scans
FileJoker: FLAC | Scans