Subcategories

Alexandra Savior - Belladonna of Sadness (2017)

Posted By: Pisulik
Alexandra Savior - Belladonna of Sadness (2017)

Alexandra Savior - Belladonna of Sadness (2017)
EAC Rip | FLAC (Tracks) +cue, log, m3u - 250 MB | 00:40:49
Indie Pop, Indie Rock, Female Vocal | Label: Columbia Records

Belladonna of Sadness is the debut album from Portland, Oregon native Alexandra Savior. Her album is available digitally, and in physical formats of CD and a special RED VINYL LP. The album features 11 blissfully cinematic tracks, steeped in retro vibes and dusted with darkness and sensuality. An artist in every sense of the word, not only does Alexandra write music and perform live, she also paints her own artwork and writes, directs and edits her own music videos. With a voice that channels the ghosts of smoky 50s jazz haunts, lucid and literary lyricism worthy of J.D. Salinger, and wondrous youth-in-revolt abandon, Alexandra will tell you she makes "sassy impolite spaghetti western music."

Belladonna of Sadness was co-written by Alexandra and British rock front man Alex Turner (Arctic Monkeys, The Last Shadow Puppets) and co-produced by James Ford (HAIM, Florence and the Machine) and Alex Turner.

Alexandra first made her mark with the release of her debut single "Shades" in the summer of 2016, which left Noisey "comp4letely hooked" on the 21-year-old singer/songwriter. "It's about knowing you're doing something you're not supposed to be and reveling in it," she explains. In addition to "Shades," Belladonna of Sadness features previously released songs "M.T.M.E," "Mystery Girl," and the official first single "Mirage," which is about being in the grasp of the record industry and society s portrayal of women. Also included on the album is the track "Vanishing Point,", a hauntingly beautiful song that Idolator called "the best showcase yet of her evocative, widescreen sound and scene-setting lyrics."

Alexandra's unique sound and style first caught the attention of several creative forces including T. Bone Burnett, who placed her song "Risk" in the most recent season of HBO's cult series True Detective. Live performances followed in both New York and Los Angeles, leaving audiences clamoring to hear and know more about this beautiful mystery girl. "I stay a bit stoic with my personal emotions," she admits. "I portrayed things I was going through, but I didn't say them out loud. I made the record when I first moved to L.A. I was observing a world I'd only heard about but it was true. I felt like I had to figure out who I was in a year, and I wrote about that struggle. I created a fantasy."

With nods from top-tier publications including The FADER, Pigeons & Planes, NME, The Sunday Times, Stereogum, PASTE Magazine, V Magazine and many more, Alexandra is certain to soon be on everyone's radar.

TRACKLIST

01. Mirage
02. Bones
03. Shades
04. Girlie
05. Frankie
06. M.T.M.E.
07. Audeline
08. Cupid
09. 'Til You're Mine
10. Vanishing Point
11. Mystery Girl

Exact Audio Copy V1.3 from 2. September 2016

EAC extraction logfile from 28. June 2017, 14:28

Alexandra Savior / Belladonna of Sadness

Used drive : ATAPI DVD A DH16AAL Adapter: 1 ID: 0

Read mode : Secure
Utilize accurate stream : Yes
Defeat audio cache : Yes
Make use of C2 pointers : No

Read offset correction : 6
Overread into Lead-In and Lead-Out : No
Fill up missing offset samples with silence : Yes
Delete leading and trailing silent blocks : No
Null samples used in CRC calculations : Yes
Used interface : Native Win32 interface for Win NT & 2000
Gap handling : Appended to previous track

Used output format : User Defined Encoder
Selected bitrate : 1024 kBit/s
Quality : High
Add ID3 tag : No
Command line compressor : C:\Program Files (x86)\Exact Audio Copy\Flac\flac.exe
Additional command line options : -8 -e -p -V -T "ARTIST=%artist%" -T "TITLE=%title%" -T "ALBUM=%albumtitle%" -T "DATE=%year%" -T "TRACKNUMBER=%tracknr%" -T "GENRE=%genre%" -T "PERFORMER=%albuminterpret%" -T "COMPOSER=%composer%" %haslyrics%–tag-from-file=LYRICS="%lyricsfile%"%haslyrics% -T "ALBUMARTIST=%albumartist%" -T "DISCNUMBER=%cdnumber%" -T "TOTALDISCS=%totalcds%" -T "TOTALTRACKS=%numtracks%" -T "COMMENT=%comment%" %source% -o %dest%


TOC of the extracted CD

Track | Start | Length | Start sector | End sector
––––––––––––––––––––––––––––-
1 | 0:00.00 | 3:27.26 | 0 | 15550
2 | 3:27.26 | 2:50.40 | 15551 | 28340
3 | 6:17.66 | 3:51.18 | 28341 | 45683
4 | 10:09.09 | 3:23.58 | 45684 | 60966
5 | 13:32.67 | 3:49.10 | 60967 | 78151
6 | 17:22.02 | 3:24.13 | 78152 | 93464
7 | 20:46.15 | 3:50.67 | 93465 | 110781
8 | 24:37.07 | 2:58.62 | 110782 | 124193
9 | 27:35.69 | 3:32.74 | 124194 | 140167
10 | 31:08.68 | 4:21.11 | 140168 | 159753
11 | 35:30.04 | 5:35.21 | 159754 | 184899


Track 1

Filename C:\Zelou\EAC Rips\Alexandra Savior - Belladonna of Sadness (2017) [FLAC] {88985333872}\01 - Mirage.wav

Pre-gap length 0:00:02.00

Peak level 100.0 %
Extraction speed 1.9 X
Track quality 100.0 %
Test CRC 3401AF9B
Copy CRC 3401AF9B
Track not present in AccurateRip database
Copy OK

Track 2

Filename C:\Zelou\EAC Rips\Alexandra Savior - Belladonna of Sadness (2017) [FLAC] {88985333872}\02 - Bones.wav

Pre-gap length 0:00:01.49

Peak level 100.0 %
Extraction speed 2.1 X
Track quality 100.0 %
Test CRC 4350C69D
Copy CRC 4350C69D
Track not present in AccurateRip database
Copy OK

Track 3

Filename C:\Zelou\EAC Rips\Alexandra Savior - Belladonna of Sadness (2017) [FLAC] {88985333872}\03 - Shades.wav

Pre-gap length 0:00:01.97

Peak level 100.0 %
Extraction speed 2.3 X
Track quality 100.0 %
Test CRC 6F9AD969
Copy CRC 6F9AD969
Track not present in AccurateRip database
Copy OK

Track 4

Filename C:\Zelou\EAC Rips\Alexandra Savior - Belladonna of Sadness (2017) [FLAC] {88985333872}\04 - Girlie.wav

Pre-gap length 0:00:01.04

Peak level 100.0 %
Extraction speed 2.4 X
Track quality 100.0 %
Test CRC 930B75C7
Copy CRC 930B75C7
Track not present in AccurateRip database
Copy OK

Track 5

Filename C:\Zelou\EAC Rips\Alexandra Savior - Belladonna of Sadness (2017) [FLAC] {88985333872}\05 - Frankie.wav

Pre-gap length 0:00:00.85

Peak level 100.0 %
Extraction speed 2.6 X
Track quality 100.0 %
Test CRC DFED5F00
Copy CRC DFED5F00
Track not present in AccurateRip database
Copy OK

Track 6

Filename C:\Zelou\EAC Rips\Alexandra Savior - Belladonna of Sadness (2017) [FLAC] {88985333872}\06 - M.T.M.E..wav

Pre-gap length 0:00:01.20

Peak level 100.0 %
Extraction speed 1.9 X
Track quality 99.9 %
Test CRC B1B522F5
Copy CRC B1B522F5
Track not present in AccurateRip database
Copy OK

Track 7

Filename C:\Zelou\EAC Rips\Alexandra Savior - Belladonna of Sadness (2017) [FLAC] {88985333872}\07 - Audeline.wav

Pre-gap length 0:00:01.26

Peak level 100.0 %
Extraction speed 2.9 X
Track quality 100.0 %
Test CRC D7AA91FD
Copy CRC D7AA91FD
Track not present in AccurateRip database
Copy OK

Track 8

Filename C:\Zelou\EAC Rips\Alexandra Savior - Belladonna of Sadness (2017) [FLAC] {88985333872}\08 - Cupid.wav

Pre-gap length 0:00:00.81

Peak level 100.0 %
Extraction speed 2.9 X
Track quality 100.0 %
Test CRC 075FD7F4
Copy CRC 075FD7F4
Track not present in AccurateRip database
Copy OK

Track 9

Filename C:\Zelou\EAC Rips\Alexandra Savior - Belladonna of Sadness (2017) [FLAC] {88985333872}\09 - 'Til You're Mine.wav

Pre-gap length 0:00:01.29

Peak level 100.0 %
Extraction speed 3.0 X
Track quality 100.0 %
Test CRC 431FF3D9
Copy CRC 431FF3D9
Track not present in AccurateRip database
Copy OK

Track 10

Filename C:\Zelou\EAC Rips\Alexandra Savior - Belladonna of Sadness (2017) [FLAC] {88985333872}\10 - Vanishing Point.wav

Peak level 99.5 %
Extraction speed 3.3 X
Track quality 100.0 %
Test CRC 939CD83A
Copy CRC 939CD83A
Track not present in AccurateRip database
Copy OK

Track 11

Filename C:\Zelou\EAC Rips\Alexandra Savior - Belladonna of Sadness (2017) [FLAC] {88985333872}\11 - Mystery Girl.wav

Pre-gap length 0:00:00.76

Peak level 99.2 %
Extraction speed 3.5 X
Track quality 100.0 %
Test CRC 32D3CA24
Copy CRC 32D3CA24
Track not present in AccurateRip database
Copy OK


None of the tracks are present in the AccurateRip database

No errors occurred

End of status report

–– CUETools DB Plugin V2.1.6

[CTDB TOCID: sGlU4y_ERtfucag7qdTUz.jmUCg-] found
Submit result: sGlU4y_ERtfucag7qdTUz.jmUCg- has been confirmed
Track | CTDB Status
1 | (8/8) Accurately ripped
2 | (8/8) Accurately ripped
3 | (8/8) Accurately ripped
4 | (8/8) Accurately ripped
5 | (8/8) Accurately ripped
6 | (8/8) Accurately ripped
7 | (8/8) Accurately ripped
8 | (8/8) Accurately ripped
9 | (8/8) Accurately ripped
10 | (8/8) Accurately ripped
11 | (8/8) Accurately ripped


==== Log checksum 0D0956C9865DAE011EB50ECE68369C103D9AFD8FD592752DAD25D5B927BA42B0 ====


All thanks go to the original releaser