Subcategories

Alice In Chains - Facelift (1990)

Posted By: v3122
Alice In Chains - Facelift (1990)

Alice In Chains - Facelift (1990)
EAC | Flac(Image) + Cue + Log & MP3 CBR 320Kbps
CBS Records, CK 46075 | ~ 374 or 127 Mb | Scans(jpg) -> 60 Mb
Grunge / Alternative Rock / Hard Rock

When Alice in Chains' debut album, Facelift, was released in 1990, about a year before Nirvana's Nevermind, the thriving Seattle scene barely registered on the national musical radar outside of underground circles (although Soundgarden's major-label debut, Louder Than Love, was also released that year and brought them a Grammy nomination). That started to change when MTV jumped all over the video for "Man in the Box," giving the group a crucial boost and helping to pave the way for grunge's popular explosion toward the end of 1991. Although their dominant influences – Black Sabbath, the Stooges – were hardly unique on the Seattle scene, Alice in Chains were arguably the most metallic of grunge bands, which gave them a definite appeal outside the underground; all the same, the group's sinister, brooding, suffocating sound resembled little else gaining wide exposure on the 1990 hard rock scene. Neither hedonistic nor especially technically accomplished, Alice in Chains' songs were mostly slow, oppressive dirges with a sense of melody that was undeniable, yet which crept along over the murky sludge of the band's instrumental attack in a way that hardly fit accepted notions of what made hard rock catchy and accessible. Although some parts of Facelift sink into turgid, ponderous bombast (particularly over the erratic second half), and the lyrics are sometimes immature, the overall effect is fresh, exciting, and powerful. While Alice in Chains would go on to do better and more consistent work, Facelift was one of the most important records in establishing an audience for grunge and alternative rock among hard rock and heavy metal listeners, and with its platinum sales certification, it also made Alice in Chains the first Seattle band to break through to a wider, less exclusively underground audience.

by Steve Huey, AMG
Alice In Chains - Facelift (1990)


Alice In Chains - Facelift (1990):

Alice In Chains - Facelift (1990)

Tracklist:

1. We Die Young
2. Man In The Box
3. Sea Of Sorrow
4. Bleed The Freak
5. I Can’t Remember
6. Love, Hate, Love
7. It Ain’t Like That
8. Sunshine
9. Put You Down
10. Confusion
11. I Know Somethin' ('Bout You)
12. Real Thing

Exact Audio Copy V1.1 from 23. June 2015

EAC extraction logfile from 1. January 2016, 16:33

Alice In Chains / Facelift

Used drive : Optiarc DVD-ROM DDU1675S Adapter: 1 ID: 0

Read mode : Secure
Utilize accurate stream : Yes
Defeat audio cache : Yes
Make use of C2 pointers : No

Read offset correction : 6
Overread into Lead-In and Lead-Out : No
Fill up missing offset samples with silence : Yes
Delete leading and trailing silent blocks : No
Null samples used in CRC calculations : Yes
Used interface : Native Win32 interface for Win NT & 2000

Used output format : User Defined Encoder
Selected bitrate : 1024 kBit/s
Quality : High
Add ID3 tag : No
Command line compressor : C:\Program Files (x86)\Exact Audio Copy\Flac\flac.exe
Additional command line options : -V -8 -T "Date=%year%" -T "Genre=%genre%" %source%


TOC of the extracted CD

Track | Start | Length | Start sector | End sector
––––––––––––––––––––––––––––-
1 | 0:00.00 | 2:32.00 | 0 | 11399
2 | 2:32.00 | 4:46.42 | 11400 | 32891
3 | 7:18.42 | 5:49.55 | 32892 | 59121
4 | 13:08.22 | 4:01.65 | 59122 | 77261
5 | 17:10.12 | 3:42.65 | 77262 | 93976
6 | 20:53.02 | 6:27.03 | 93977 | 123004
7 | 27:20.05 | 4:37.37 | 123005 | 143816
8 | 31:57.42 | 4:44.65 | 143817 | 165181
9 | 36:42.32 | 3:16.13 | 165182 | 179894
10 | 39:58.45 | 5:44.02 | 179895 | 205696
11 | 45:42.47 | 4:21.65 | 205697 | 225336
12 | 50:04.37 | 4:03.35 | 225337 | 243596


Range status and errors

Selected range

Filename E:\Torrent\# MY\Alice In Chains - Discography\1990 - Facelift (CBS Records, CK 46075, U.S.A.)\Alice In Chains - Facelift.wav

Peak level 100.0 %
Extraction speed 4.7 X
Range quality 99.9 %
Test CRC 0C813EF3
Copy CRC 0C813EF3
Copy OK

No errors occurred


AccurateRip summary

Track 1 accurately ripped (confidence 49) [9A0FF461] (AR v2)
Track 2 accurately ripped (confidence 49) [454A19EC] (AR v2)
Track 3 accurately ripped (confidence 49) [9AC187F5] (AR v2)
Track 4 accurately ripped (confidence 49) [6EF6F679] (AR v2)
Track 5 accurately ripped (confidence 49) [B99230E1] (AR v2)
Track 6 accurately ripped (confidence 49) [F1D0BD30] (AR v2)
Track 7 accurately ripped (confidence 49) [A4D6D6D5] (AR v2)
Track 8 accurately ripped (confidence 49) [F89D0EA8] (AR v2)
Track 9 accurately ripped (confidence 48) [3A6E78E3] (AR v2)
Track 10 accurately ripped (confidence 49) [199A019A] (AR v2)
Track 11 accurately ripped (confidence 48) [087E70A0] (AR v2)
Track 12 accurately ripped (confidence 49) [8109970B] (AR v2)

All tracks accurately ripped

End of status report

–– CUETools DB Plugin V2.1.6

[CTDB TOCID: R7RudIKdI9KdICZvpwPUacODSP8-] found
Submit result: R7RudIKdI9KdICZvpwPUacODSP8- has been confirmed
Track | CTDB Status
1 | (164/164) Accurately ripped
2 | (164/164) Accurately ripped
3 | (163/164) Accurately ripped
4 | (164/164) Accurately ripped
5 | (164/164) Accurately ripped
6 | (164/164) Accurately ripped
7 | (164/164) Accurately ripped
8 | (163/164) Accurately ripped
9 | (164/164) Accurately ripped
10 | (161/164) Accurately ripped
11 | (161/164) Accurately ripped
12 | (160/164) Accurately ripped


==== Log checksum 4E010878F8A92069E44300AE6A44E88209420A115C7A3BC2D986D37AA3B1110E ====

foobar2000 1.2.9 / Dynamic Range Meter 1.1.1
log date: 2016-01-06 17:10:18

––––––––––––––––––––––––––––––––––––––––
Analyzed: Alice In Chains / Facelift
––––––––––––––––––––––––––––––––––––––––

DR Peak RMS Duration Track
––––––––––––––––––––––––––––––––––––––––
DR10 -0.28 dB -11.55 dB 2:32 01-We Die Young
DR11 0.00 dB -12.47 dB 4:47 02-Man In The Box
DR10 -0.31 dB -12.25 dB 5:50 03-Sea Of Sorrow
DR11 -0.34 dB -13.73 dB 4:02 04-Bleed The Freak
DR11 -0.28 dB -13.45 dB 3:43 05-I Can’t Remember
DR11 0.00 dB -12.90 dB 6:27 06-Love, Hate, Love
DR11 0.00 dB -12.17 dB 4:37 07-It Ain’t Like That
DR11 0.00 dB -12.19 dB 4:45 08-Sunshine
DR11 0.00 dB -12.46 dB 3:16 09-Put You Down
DR10 -0.27 dB -11.85 dB 5:44 10-Confusion
DR10 -0.29 dB -12.41 dB 4:22 11-I Know Somethin' ('Bout You)
DR10 -0.34 dB -12.48 dB 4:03 12-Real Thing
––––––––––––––––––––––––––––––––––––––––

Number of tracks: 12
Official DR value: DR11

Samplerate: 44100 Hz
Channels: 2
Bits per sample: 16
Bitrate: 939 kbps
Codec: FLAC

[CUETools log; Date: 06.01.2016 4:03:11; Version: 2.1.4]
[CTDB TOCID: R7RudIKdI9KdICZvpwPUacODSP8-] found.
Track | CTDB Status
1 | (167/167) Accurately ripped
2 | (167/167) Accurately ripped
3 | (166/167) Accurately ripped
4 | (167/167) Accurately ripped
5 | (167/167) Accurately ripped
6 | (167/167) Accurately ripped
7 | (167/167) Accurately ripped
8 | (166/167) Accurately ripped
9 | (167/167) Accurately ripped
10 | (164/167) Accurately ripped
11 | (164/167) Accurately ripped
12 | (163/167) Accurately ripped
[AccurateRip ID: 0017d25f-00e0e550-800caf0c] found.
Track [ CRC | V2 ] Status
01 [69d0f8d7|9a0ff461] (017+049/244) Accurately ripped
02 [6a344ddb|454a19ec] (017+049/249) Accurately ripped
03 [c6d191e0|9ac187f5] (017+049/243) Accurately ripped
04 [fbcd7ca4|6ef6f679] (017+049/245) Accurately ripped
05 [ae6c508e|b99230e1] (017+049/244) Accurately ripped
06 [1546ef54|f1d0bd30] (016+049/240) Accurately ripped
07 [70d044fe|a4d6d6d5] (017+049/242) Accurately ripped
08 [965df59a|f89d0ea8] (016+049/243) Accurately ripped
09 [da940843|3a6e78e3] (017+048/243) Accurately ripped
10 [f1a6602a|199a019a] (017+049/245) Accurately ripped
11 [71cbe84d|087e70a0] (017+048/241) Accurately ripped
12 [10e3b4f1|8109970b] (017+049/240) Accurately ripped
Offsetted by -285:
01 [6d5d6d18] (005/244) Accurately ripped
02 [6d975ef7] (005/249) Accurately ripped
03 [e7257ed8] (005/243) Accurately ripped
04 [b0346d2a] (005/245) Accurately ripped
05 [5270c03a] (005/244) Accurately ripped
06 [fe381155] (004/240) Accurately ripped
07 [e625f12f] (005/242) Accurately ripped
08 [7c25cdd9] (005/243) Accurately ripped
09 [7f4d9f30] (005/243) Accurately ripped
10 [c6caaed9] (005/245) Accurately ripped
11 [afbaa3cf] (005/241) Accurately ripped
12 [515f14f2] (005/240) Accurately ripped
Offsetted by -282:
01 [011b0bd5] (028/244) Accurately ripped
02 [6a0da217] (028/249) Accurately ripped
03 [dddc2582] (027/243) Accurately ripped
04 [8f6bec86] (027/245) Accurately ripped
05 [d2a623ae] (027/244) Accurately ripped
06 [92cfbcb7] (027/240) Accurately ripped
07 [8612916e] (027/242) Accurately ripped
08 [c9ca51d5] (027/243) Accurately ripped
09 [f59704e5] (028/243) Accurately ripped
10 [1ac79b28] (028/245) Accurately ripped
11 [935f8a95] (027/241) Accurately ripped
12 [33e5e797] (026/240) Accurately ripped
Offsetted by 513:
01 [eae592ba] (013/244) Accurately ripped
02 [0ef2dfb7] (013/249) Accurately ripped
03 [33df1184] (013/243) Accurately ripped
04 [4c757058] (013/245) Accurately ripped
05 [c450e35c] (013/244) Accurately ripped
06 [569683d7] (013/240) Accurately ripped
07 [bc54c807] (013/242) Accurately ripped
08 [03afe191] (013/243) Accurately ripped
09 [33a403d2] (012/243) Accurately ripped
10 [0b9838ef] (013/245) Accurately ripped
11 [7177663b] (013/241) Accurately ripped
12 [2b540cff] (012/240) Accurately ripped
Offsetted by 514:
01 [83a89dca] (017/244) Accurately ripped
02 [064b6686] (017/249) Accurately ripped
03 [a05efb3d] (016/243) Accurately ripped
04 [39efca37] (018/245) Accurately ripped
05 [cf26b6f2] (016/244) Accurately ripped
06 [32c9125a] (015/240) Accurately ripped
07 [f22d63dc] (016/242) Accurately ripped
08 [725ee2c7] (018/243) Accurately ripped
09 [0dc125ca] (016/243) Accurately ripped
10 [7cec87b4] (018/245) Accurately ripped
11 [5cf90bd2] (016/241) Accurately ripped
12 [f9517830] (017/240) Accurately ripped
Offsetted by 664:
01 [1e977b8e] (002/244) Accurately ripped
02 [ce7e8f4c] (002/249) Accurately ripped
03 [3351eda3] (002/243) Accurately ripped
04 [cfc70f25] (002/245) Accurately ripped
05 [996c12c2] (002/244) Accurately ripped
06 [3868931c] (002/240) Accurately ripped
07 [7f18b2aa] (002/242) Accurately ripped
08 [ad79438a] (002/243) Accurately ripped
09 [1c9f69f3] (002/243) Accurately ripped
10 [e452af22] (002/245) Accurately ripped
11 [bf264b5c] (002/241) Accurately ripped
12 [ce0bcd66] (002/240) Accurately ripped
Offsetted by 1237:
01 [4c9fe43e] (033/244) Accurately ripped
02 [8c50eadf] (033/249) Accurately ripped
03 [0da010b8] (033/243) Accurately ripped
04 [f022d1e9] (033/245) Accurately ripped
05 [bc98ea5f] (033/244) Accurately ripped
06 [15918e53] (033/240) Accurately ripped
07 [04ed7e6b] (033/242) Accurately ripped
08 [ea4160ec] (032/243) Accurately ripped
09 [66e6abc7] (033/243) Accurately ripped
10 [8e06fe13] (033/245) Accurately ripped
11 [ddee8af4] (034/241) Accurately ripped
12 [ccfbf127] (034/240) Accurately ripped
Offsetted by 1618:
01 [69f5a2cd] (006/244) Accurately ripped
02 [a1e9f433] (006/249) Accurately ripped
03 [87fee90d] (006/243) Accurately ripped
04 [ea3ef2d8] (006/245) Accurately ripped
05 [fd640901] (006/244) Accurately ripped
06 [cccfa74a] (006/240) Accurately ripped
07 [284d6a6c] (005/242) Accurately ripped
08 [fc6dd0be] (006/243) Accurately ripped
09 [6de7ec97] (006/243) Accurately ripped
10 [38803944] (006/245) Accurately ripped
11 [aa1ba0e6] (005/241) Accurately ripped
12 [da14e77a] (006/240) Accurately ripped
Offsetted by 1663:
01 [d90fe17e] (005/244) Accurately ripped
02 [f51e4bb5] (005/249) Accurately ripped
03 [9a7afe92] (005/243) Accurately ripped
04 [e68d0d1e] (005/245) Accurately ripped
05 [87a6f22c] (005/244) Accurately ripped
06 [81b2b451] (005/240) Accurately ripped
07 [9f60cedd] (005/242) Accurately ripped
08 [22ce4762] (005/243) Accurately ripped
09 [a04ea011] (005/243) Accurately ripped
10 [245211e5] (005/245) Accurately ripped
11 [30127152] (004/241) Accurately ripped
12 [ed679727] (005/240) Accurately ripped

Track Peak [ CRC32 ] [W/O NULL] [ LOG ]
– 100,0 [0C813EF3] [33A5F807] CRC32
01 96,8 [26F7E2AA] [799FD627]
02 100,0 [7B70242C] [91474040]
03 96,4 [3E69DFE7] [FD6F6DCF]
04 96,1 [720D2A4E] [96B6E389]
05 96,8 [D4AE4625] [204BB249]
06 100,0 [5DB97EE7] [FFDDBE63]
07 100,0 [DC6471BC] [269C47BE]
08 100,0 [B6E74ED1] [526892A1]
09 100,0 [4F551A3D] [465AD3FB]
10 96,9 [E4597CB0] [6C7213BF]
11 96,6 [4D7EF31C] [B74A74D4]
12 96,1 [F75862B2] [3958B8CA]

Alice In Chains - Facelift (1990)

All thanks go to Ginger Devil

Alice In Chains in my Blog

Download Alice In Chains - Facelift (1990):