Subcategories

Alice Sara Ott: Pictures (2013)

Posted By: peotuvave
Alice Sara Ott: Pictures (2013)

Alice Sara Ott: Pictures (2013)
EAC Rip | Flac (Image + cue + log) | 1 CD | Full Scans | 254 MB
Genre: Classical | Label: Deutsche Grammophon | Catalog Number: 4790088

Rising star Alice Sara Ott’s new recording documents her summer 2012 rite of passage debut at the prestigious White Nights Festival. Alice Sara Ott’s challenging programme centers upon Mussorgsky’s Pictures at an Exhibition. Her virtuosic technique and youthful brilliance deliver the majesty, colours and spontaneity that this music requires. The power, passion and beauty which Alice Sara brings to Schubert’s thrilling Sonata No. 17 is insightful and memorable.

Composer: Modest Mussorgsky, Franz Schubert
Performer: Alice Sara Ott

Reviews: “recording Mussorgsky's Pictures at an Exhibition live in Saint Petersburg must have taken great courage and self-belief. Which was not misplaced: she negotiates the various pictures' stylistic twists and turns with confidence and expressive brio”

Tracklisting:

1. Pictures at an exhibition by Modest Mussorgsky
Performer: Alice Sara Ott (Piano)
Period: Romantic
Written: 1874; Russia

2. Sonata for Piano in D major, D 850/Op. 53 "Gasteiner" by Franz Schubert
Performer: Alice Sara Ott (Piano)
Period: Romantic
Written: 1825; Vienna, Austria

Exact Audio Copy V1.0 beta 1 from 15. November 2010

EAC extraction logfile from 5. February 2013, 19:51

Alice Sara Ott / Pictures

Used drive : Optiarc DVD RW AD-7203A Adapter: 4 ID: 1

Read mode : Secure
Utilize accurate stream : Yes
Defeat audio cache : Yes
Make use of C2 pointers : No

Read offset correction : 48
Overread into Lead-In and Lead-Out : No
Fill up missing offset samples with silence : Yes
Delete leading and trailing silent blocks : No
Null samples used in CRC calculations : Yes
Used interface : Native Win32 interface for Win NT & 2000

Used output format : User Defined Encoder
Selected bitrate : 128 kBit/s
Quality : High
Add ID3 tag : No
Command line compressor : C:\Program Files\FLAC\flac.exe
Additional command line options : -T "COMMENT=Ripped by GFox" -8 -V %s


TOC of the extracted CD

Track | Start | Length | Start sector | End sector
––––––––––––––––––––––––––––-
1 | 0:00.00 | 1:41.11 | 0 | 7585
2 | 1:41.11 | 2:41.74 | 7586 | 19734
3 | 4:23.10 | 0:54.22 | 19735 | 23806
4 | 5:17.32 | 4:12.45 | 23807 | 42751
5 | 9:30.02 | 0:31.05 | 42752 | 45081
6 | 10:01.07 | 0:59.39 | 45082 | 49545
7 | 11:00.46 | 2:53.09 | 49546 | 62529
8 | 13:53.55 | 0:47.37 | 62530 | 66091
9 | 14:41.17 | 1:10.43 | 66092 | 71384
10 | 15:51.60 | 2:38.57 | 71385 | 83291
11 | 18:30.42 | 1:36.67 | 83292 | 90558
12 | 20:07.34 | 1:26.64 | 90559 | 97072
13 | 21:34.23 | 2:22.37 | 97073 | 107759
14 | 23:56.60 | 1:45.54 | 107760 | 115688
15 | 25:42.39 | 3:30.30 | 115689 | 131468
16 | 29:12.69 | 5:38.57 | 131469 | 156875
17 | 34:51.51 | 9:07.11 | 156876 | 197911
18 | 43:58.62 | 11:08.05 | 197912 | 248016
19 | 55:06.67 | 8:27.70 | 248017 | 286111
20 | 63:34.62 | 8:53.70 | 286112 | 326156


Range status and errors

Selected range

Filename D:\EAC\Alice Sara Ott - Pictures.wav

Peak level 96.9 %
Extraction speed 0.4 X
Range quality 100.0 %
Test CRC 1C41BEC7
Copy CRC 1C41BEC7
Copy OK

No errors occurred


AccurateRip summary

Track 1 accurately ripped (confidence 1) [8F8BEDCB]
Track 2 accurately ripped (confidence 1) [61DB29B0]
Track 3 accurately ripped (confidence 1) [362AC80A]
Track 4 accurately ripped (confidence 1) [551C50E4]
Track 5 accurately ripped (confidence 1) [B185E945]
Track 6 accurately ripped (confidence 1) [EF4D5CC2]
Track 7 accurately ripped (confidence 1) [A7E6308D]
Track 8 accurately ripped (confidence 1) [5779661E]
Track 9 accurately ripped (confidence 1) [58A26650]
Track 10 accurately ripped (confidence 1) [EC0DF0A6]
Track 11 accurately ripped (confidence 1) [4A7C0564]
Track 12 accurately ripped (confidence 1) [4EDE9E85]
Track 13 accurately ripped (confidence 1) [65DB25B7]
Track 14 accurately ripped (confidence 1) [57B0124A]
Track 15 accurately ripped (confidence 1) [9A228D08]
Track 16 accurately ripped (confidence 1) [81E662FD]
Track 17 accurately ripped (confidence 1) [CE274B8F]
Track 18 accurately ripped (confidence 1) [CBA9DC6E]
Track 19 accurately ripped (confidence 1) [4B4D0FF5]
Track 20 accurately ripped (confidence 1) [0C655508]

All tracks accurately ripped

End of status report

==== Log checksum C43D75DB5CFC8D0FF8C4F640D3467B0EB3D10D3D54A86E5B772D9D535B07A251 ====


Thanks to the original releaser

Download:

Uploaded

Part 1 | Part 2

Rapidgator

Part 1 | Part 2