Alicia Keys - HERE (Deluxe) (2016)

Posted By: SERTiL
Alicia Keys - HERE (Deluxe) (2016)

Alicia Keys - HERE (Deluxe)
R&B, Soul | FLAC (Image)+cue, log, covers | 52:43 min | 322 MB
Label: RCA/Sony | Tracks: 18 | Rls.date: 2016

"On this album, I've arrived HERE," Keys says. "A place where I'm willing to truthfully look at myself in the mirror and to also see the reality of who we have become in this world. The good, the ugly, the shadows and the light. I've come to realize that in order for us to grow and to understand and accept each other we have to recognize the complexity of ourselves. We have to be able to talk about it and meet each other where we are, HERE."

Alicia Keys - HERE (Deluxe) (2016)


TRACKLIST
01. The Beginning (Interlude) 01:04
02. The Gospel 03:01
03. Pawn It All 03:10
04. Elaine Brown (Interlude) 00:50
05. Kill Your Mama 02:40
06. She Don't Really Care_1 Luv 06:07
07. Elevate (Interlude) 00:48
08. Illusion Of Bliss 05:23
09. Blended Family (What You Do For Love) 03:31
10. Work On It 03:34
11. Cocoa Butter (Cross & Pic Interlude) 00:59
12. Girl Can't Be Herself 02:39
13. You Glow (Interlude) 00:26
14. More Than We Know 04:35
15. Where Do We Begin Now 02:47
16. Holy War 04:22
17. Hallelujah 03:09
18. In Common 03:29

Exact Audio Copy V1.1 from 23. June 2015

EAC extraction logfile from 4. November 2016, 1:16

Alicia Keys / Here

Used drive : Pioneer BDR-209DBK Adapter: 0 ID: 0

Read mode : Secure
Utilize accurate stream : Yes
Defeat audio cache : Yes
Make use of C2 pointers : No

Read offset correction : 6
Overread into Lead-In and Lead-Out : No
Fill up missing offset samples with silence : Yes
Delete leading and trailing silent blocks : No
Null samples used in CRC calculations : Yes
Used interface : Installed external ASPI interface

Used output format : Internal WAV Routines
Sample format : 44.100 Hz; 16 Bit; Stereo


TOC of the extracted CD

Track | Start | Length | Start sector | End sector
––––––––––––––––––––––––––––-
1 | 0:00.00 | 1:04.12 | 0 | 4811
2 | 1:04.12 | 3:01.52 | 4812 | 18438
3 | 4:05.64 | 3:10.06 | 18439 | 32694
4 | 7:15.70 | 0:50.14 | 32695 | 36458
5 | 8:06.09 | 2:40.60 | 36459 | 48518
6 | 10:46.69 | 6:07.30 | 48519 | 76073
7 | 16:54.24 | 0:48.40 | 76074 | 79713
8 | 17:42.64 | 5:23.55 | 79714 | 103993
9 | 23:06.44 | 3:31.41 | 103994 | 119859
10 | 26:38.10 | 3:34.29 | 119860 | 135938
11 | 30:12.39 | 0:59.66 | 135939 | 140429
12 | 31:12.30 | 2:39.65 | 140430 | 152419
13 | 33:52.20 | 0:25.59 | 152420 | 154353
14 | 34:18.04 | 4:35.59 | 154354 | 175037
15 | 38:53.63 | 2:47.70 | 175038 | 187632
16 | 41:41.58 | 4:22.37 | 187633 | 207319
17 | 46:04.20 | 3:09.55 | 207320 | 221549
18 | 49:14.00 | 3:29.09 | 221550 | 237233


Range status and errors

Selected range

Filename H:\Spotnet\Alicia Keys - Here (EAC)\Alicia Keys - Here.wav

Peak level 100.0 %
Extraction speed 7.2 X
Range quality 100.0 %
Test CRC 76847B48
Copy CRC 76847B48
Copy OK

No errors occurred


AccurateRip summary

Track 1 not present in database
Track 2 not present in database
Track 3 not present in database
Track 4 not present in database
Track 5 not present in database
Track 6 not present in database
Track 7 not present in database
Track 8 not present in database
Track 9 not present in database
Track 10 not present in database
Track 11 not present in database
Track 12 not present in database
Track 13 not present in database
Track 14 not present in database
Track 15 not present in database
Track 16 not present in database
Track 17 not present in database
Track 18 not present in database

None of the tracks are present in the AccurateRip database

End of status report

foobar2000 1.3.8 / Dynamic Range Meter 1.1.1
log date: 2016-11-04 05:16:33

––––––––––––––––––––––––––––––––––––––––
Analyzed: Alicia Keys / Here
––––––––––––––––––––––––––––––––––––––––

DR Peak RMS Duration Track
––––––––––––––––––––––––––––––––––––––––
DR14 -2.20 dB -20.71 dB 1:04 01-The Beginning (Interlude)
DR5 0.00 dB -7.36 dB 3:02 02-The Gospel
DR5 0.00 dB -6.82 dB 3:10 03-Pawn It All
DR10 -2.56 dB -14.99 dB 0:50 04-Elaine Brown (Interlude)
DR8 0.00 dB -10.17 dB 2:41 05-Kill Your mama
DR6 0.00 dB -8.23 dB 6:07 06-She Don't Really Care_1 Luv
DR14 0.00 dB -19.48 dB 0:49 07-Elevate (Interlude)
DR8 0.00 dB -10.21 dB 5:24 08-Illusion Of Bliss
DR5 -1.10 dB -8.77 dB 3:32 09-Blended Family (What You Do For Love)
DR7 -0.01 dB -8.66 dB 3:34 10-Work On It
DR10 -0.18 dB -12.89 dB 1:00 11-Cocoa Butter (Cross & Pic Interlude)
DR6 0.00 dB -7.08 dB 2:40 12-Girl Can't Be Herself
DR12 0.00 dB -18.16 dB 0:26 13-You Glow (Interlude)
DR6 0.00 dB -7.75 dB 4:36 14-More Than We Know
DR6 0.00 dB -7.30 dB 2:48 15-Where Do We Begin Now
DR6 0.00 dB -9.53 dB 4:22 16-Holy War
DR7 0.00 dB -8.96 dB 3:10 17-Hallelujah
DR6 0.00 dB -7.97 dB 3:29 18-In Common
––––––––––––––––––––––––––––––––––––––––

Number of tracks: 18
Official DR value: DR8

Samplerate: 44100 Hz
Channels: 2
Bits per sample: 16
Bitrate: 838 kbps
Codec: FLAC
================================================================================


Alicia Keys - HERE (Deluxe) (2016)


Thanks to the Original customer.