Subcategories

Alicia Keys - Girl On Fire (2012)

Posted By: JET 1
Alicia Keys - Girl On Fire (2012)

Alicia Keys - Girl On Fire (2012)
EAC Rip | FLAC (Tracks) +CUE, LOG | 307 MB | Covers Included
Genre: R&B | Label: RCA | Catalog Number: 88697-94182-2

Girl on Fire is the fifth studio album by American recording artist Alicia Keys. The album, which was released on November 22, 2012, is Keys' first release with RCA Records following Sony Music Entertainment's decision to close J Records during a company reshuffle. Girl on Fire was conceived shortly after Keys' marriage to record producer and rapper Swizz Beatz as well as the birth of her first child, Egypt. It is an R&B album with a mixture of conventional genre songs and piano ballads, some of which touch on Keys' marriage and motherhood. The album sold 159,000 copies in its first week in the United States and became her lowest opening sales for an album. It was a considerable drop from her previous effort, The Element of Freedom (2009), which opened at #2 with sales of 417,000 units. The lead single was the title track; it charted at #2 Hot R&B/Hip-Hop Songs and #11 on the Billboard Hot 100 and reached the Top 10 in several countries worldwide. The second single, "Brand New Me", was only released to US urban adult contemporary radio stations. Upon its release, Girl on Fire received generally positive reviews from music critics. The album has since spawned two further singles: The second international single "New Day" and the third US urban adult contemporary single "Fire We Make" (featuring Maxwell). At 56th Grammy Awards the album won in the Best R&B Album category, making Keys the biggest recipient in this category with three wins.

Exact Audio Copy V1.0 beta 3 from 29. August 2011

EAC extraction logfile from 28. November 2012, 11:35

Alicia Keys / Girl On Fire

Used drive : TSSTcorpCDDVDW SH-S203N Adapter: 3 ID: 0

Read mode : Secure
Utilize accurate stream : Yes
Defeat audio cache : Yes
Make use of C2 pointers : No

Read offset correction : 6
Overread into Lead-In and Lead-Out : No
Fill up missing offset samples with silence : Yes
Delete leading and trailing silent blocks : No
Null samples used in CRC calculations : Yes
Used interface : Native Win32 interface for Win NT & 2000
Gap handling : Appended to previous track

Used output format : User Defined Encoder
Selected bitrate : 128 kBit/s
Quality : High
Add ID3 tag : No
Command line compressor : C:\Program Files (x86)\Exact Audio Copy\Flac\flac.exe
Additional command line options : -8 -V -T "ARTIST=%artist%" -T "TITLE=%title%" -T "ALBUM=%albumtitle%" -T "DATE=%year%" -T "TRACKNUMBER=%tracknr%" -T "GENRE=%genre%" -T "PERFORMER=%albuminterpret%" -T "COMPOSER=%composer%" %haslyrics%–tag-from-file=LYRICS="%lyricsfile%"%haslyrics% -T "ALBUMARTIST=%albumartist%" -T "DISCNUMBER=%cdnumber%" -T "TOTALDISCS=%totalcds%" -T "TOTALTRACKS=%numtracks%" -T "COMMENT=%comment%" %source% -o %dest%


TOC of the extracted CD

Track | Start | Length | Start sector | End sector
––––––––––––––––––––––––––––-
1 | 0:00.00 | 1:19.06 | 0 | 5930
2 | 1:19.06 | 3:53.42 | 5931 | 23447
3 | 5:12.48 | 4:34.04 | 23448 | 44001
4 | 9:46.52 | 3:46.02 | 44002 | 60953
5 | 13:32.54 | 4:02.52 | 60954 | 79155
6 | 17:35.31 | 4:30.54 | 79156 | 99459
7 | 22:06.10 | 5:21.27 | 99460 | 123561
8 | 27:27.37 | 3:59.11 | 123562 | 141497
9 | 31:26.48 | 3:07.01 | 141498 | 155523
10 | 34:33.49 | 4:05.02 | 155524 | 173900
11 | 38:38.51 | 3:57.25 | 173901 | 191700
12 | 42:36.01 | 4:08.43 | 191701 | 210343
13 | 46:44.44 | 6:27.62 | 210344 | 239430


Track 1

Filename M:\Alicia Keys - Girl on Fire (2012) [FLAC]\01 - De Novo Adagio (Intro).wav

Pre-gap length 0:00:02.00

Peak level 89.1 %
Extraction speed 3.6 X
Track quality 100.0 %
Test CRC 672FC92F
Copy CRC 672FC92F
Track not present in AccurateRip database
Copy OK

Track 2

Filename M:\Alicia Keys - Girl on Fire (2012) [FLAC]\02 - Brand New Me.wav

Peak level 100.0 %
Extraction speed 4.8 X
Track quality 100.0 %
Test CRC 89F1F6AB
Copy CRC 89F1F6AB
Track not present in AccurateRip database
Copy OK

Track 3

Filename M:\Alicia Keys - Girl on Fire (2012) [FLAC]\03 - When It's All Over.wav

Peak level 100.0 %
Extraction speed 5.4 X
Track quality 100.0 %
Test CRC 6292F593
Copy CRC 6292F593
Track not present in AccurateRip database
Copy OK

Track 4

Filename M:\Alicia Keys - Girl on Fire (2012) [FLAC]\04 - Listen To Your Heart.wav

Peak level 100.0 %
Extraction speed 5.8 X
Track quality 100.0 %
Test CRC 98D0A395
Copy CRC 98D0A395
Track not present in AccurateRip database
Copy OK

Track 5

Filename M:\Alicia Keys - Girl on Fire (2012) [FLAC]\05 - New Day.wav

Peak level 99.0 %
Extraction speed 5.0 X
Track quality 99.9 %
Test CRC FFB26F10
Copy CRC FFB26F10
Track not present in AccurateRip database
Copy OK

Track 6

Filename M:\Alicia Keys - Girl on Fire (2012) [FLAC]\06 - Girl On Fire (Inferno Version) (feat. Nicki Minaj).wav

Peak level 100.0 %
Extraction speed 6.6 X
Track quality 100.0 %
Test CRC D374E933
Copy CRC D374E933
Track not present in AccurateRip database
Copy OK

Track 7

Filename M:\Alicia Keys - Girl on Fire (2012) [FLAC]\07 - Fire We Make (duet with Maxwell).wav

Peak level 100.0 %
Extraction speed 5.9 X
Track quality 99.9 %
Test CRC 563EE1FE
Copy CRC 563EE1FE
Track not present in AccurateRip database
Copy OK

Track 8

Filename M:\Alicia Keys - Girl on Fire (2012) [FLAC]\08 - Tears Always Win.wav

Peak level 100.0 %
Extraction speed 7.2 X
Track quality 100.0 %
Test CRC CEB637B7
Copy CRC CEB637B7
Track not present in AccurateRip database
Copy OK

Track 9

Filename M:\Alicia Keys - Girl on Fire (2012) [FLAC]\09 - Not Even The King.wav

Peak level 100.0 %
Extraction speed 7.2 X
Track quality 100.0 %
Test CRC 24058DD1
Copy CRC 24058DD1
Track not present in AccurateRip database
Copy OK

Track 10

Filename M:\Alicia Keys - Girl on Fire (2012) [FLAC]\10 - That's When I Knew.wav

Peak level 100.0 %
Extraction speed 6.2 X
Track quality 99.9 %
Test CRC A869C2A4
Copy CRC A869C2A4
Track not present in AccurateRip database
Copy OK

Track 11

Filename M:\Alicia Keys - Girl on Fire (2012) [FLAC]\11 - Limitedless.wav

Peak level 99.9 %
Extraction speed 8.0 X
Track quality 100.0 %
Test CRC 4B46FEC6
Copy CRC 4B46FEC6
Track not present in AccurateRip database
Copy OK

Track 12

Filename M:\Alicia Keys - Girl on Fire (2012) [FLAC]\12 - One Thing.wav

Peak level 100.0 %
Extraction speed 8.2 X
Track quality 100.0 %
Test CRC CF9886EA
Copy CRC CF9886EA
Track not present in AccurateRip database
Copy OK

Track 13

Filename M:\Alicia Keys - Girl on Fire (2012) [FLAC]\13 - 1 0 1.wav

Peak level 100.0 %
Extraction speed 9.0 X
Track quality 100.0 %
Test CRC 556A9D52
Copy CRC 556A9D52
Track not present in AccurateRip database
Copy OK


None of the tracks are present in the AccurateRip database

No errors occurred

End of status report

–– CUETools DB Plugin V2.1.3

[CTDB TOCID: H0Am5_O6Wio3EuxeAuyqZY3n7b8-] found, Submit result: H0Am5_O6Wio3EuxeAuyqZY3n7b8- has been confirmed
[fbe4986a] (5/6) Accurately ripped
[63656745] (1/6) No match


==== Log checksum 225B25AD94592CB18D0C3099D3080578489EE1017BCBC4BF6BD90FA1C432D7AA ====


Tracklist:
01. De Novo Adagio (Intro) (1:19)
02. Brand New Me (3:54)
03. When It’s All Over (4:34)
04. Listen to Your Heart (3:46)
05. New Day (4:03)
06. Girl on Fire (Inferno Version) (feat. Nicki Minaj) (4:31)
07. Fire We Make (duet with Maxwell) (5:21)
08. Tears Always Win (3:59)
09. Not Even the King (3:07)
10. That’s When I Knew (4:05)
11. Limitedless (3:57)
12. One Thing (4:09)
13. 101 (6:28)