Subcategories

Alison Moyet - Studio Albums Collection 1984-2015 (11CD) [Re-Up]

Posted By: Designol
Alison Moyet - Studio Albums Collection 1984-2015 (11CD) [Re-Up]

Alison Moyet - Studio Albums Collection 1984-2015 (11CD)
FLAC | Image/Tracks (Cue&Log) ~ 3.2 Gb | Mp3 (CBR320) ~ 1.3 Gb | Complete Scans
Genre: New Wave, Pop/Rock, Synthpop, Alternative | Time: 08:37:48

Collection includes all studio albums at the moment: Alf (1984); Raindancing (1987); Hoodoo (1991) EU and Japanese press; Essex (1994); Hometime (2002); Voice (2004); Voice (2004) 2CD Deluxe Edition 2015; The Turn (2007); The Minutes (2013).

Alison Moyet, a British pop singer with a remarkably bluesy voice, began her professional career with synth pop duo Yazoo (Yaz in the U.S.) in the early '80s. In 1983, Moyet began a solo career, releasing her debut album, Alf, the following year. Alf was a major success in Britain, hitting number one on the charts and launching the hit singles "Invisible," "All Cried Out," and "Love Resurrection"; it was a minor hit in the U.S., with "Invisible" cracking the Top 40. In 1985, Moyet toured with a jazz band led by John Altman; the group recorded a version of Billie Holiday's "That Ole Devil Called Love," which became her biggest British hit, even though the group received poor reviews.

In 1986, Moyet had another major U.K. hit with "Is This Love?," which was released while she was recording her second solo album. Raindancing appeared in 1987 and it was another big British hit, peaking at number two and featuring the Top Ten hits "Weak in the Presence of Beauty" and "Love Letters." The record wasn't quite as successful in the U.S., peaking at number 94. In 1991, she released her third album, Hoodoo, which was her most musically ambitious collection to date. However, it didn't match the commercial success of her previous albums, failing to chart in America. Essex, her fourth album, appeared in 1994 and she released a greatest-hits collection, Singles, the following year. After a near-nine-year layoff, she returned with Hometime produced by the production team the Insects. Two years later and filled with standards, Voice arrived. In 2005, the album was reissued in America with her version of "Alfie" as a bonus track. After signing with the W14 Music label in late 2006, Moyet released The Turn in October 2007. In wouldn't be until 2013 that she returned. Signing a new worldwide deal with London-based label Cooking Vinyl, Moyet returned to a more electronic sound with her eighth studio album, The Minutes.

Biography by Stephen Thomas Erlewine, Allmusic.com

Alison Moyet - Studio Albums Collection 1984-2015 (11CD) [Re-Up]






Alison Moyet - Studio Albums Collection 1984-2015 (11CD) [Re-Up]

Alison Moyet - Alf (1984)
EAC | FLAC | Image (Cue&Log) ~ 252 Mb | Mp3 (CBR320) ~ 91 Mb
Label: CBS | # CDCBS 26229 | Time: 00:37:52 | Scans ~ 60 Mb

Alison Moyet's solo debut moves away from the all-electronic backing of her two-album partnership with Vince Clarke in Yaz, but ironically, those two albums sound much less dated in retrospect than Alf itself. Hooking up with Bananarama's producers, Tony Swain and Steve Jolley, Moyet delivers an enormous, walloping mid-'80s pop sound that constantly threatens to overwhelm both the songs, which are a mixed bag, and occasionally even the formidably voiced singer herself. Several tracks make it through the production mill unscathed, notably the singles "All Cried Out" and "Love Resurrection," but the album's pinnacle is the remarkable "Invisible," a soulful shouter penned by Motown great Lamont Dozier that's among the great R&B pop singles of the '80s. Moyet tears into the song's emotional chorus with more ferocity than on the rest of the album, and the song is as melodically sturdy as any of Dozier's previous hits. Some of the other tracks would benefit from less-overbearing production, most notably the chilling "Where Hides Sleep," making Alf one of those albums that sounds better once the listener has mentally undressed the songs a bit.

Review by Stewart Mason, Allmusic.com

Tracklist:

01. Love resurrection (03:53)
02. Honey for the bees (04:12)
03. For you only (04:06)
04. Invisible (04:00)
05. Steal me blind (03:16)
06. All cried out (06:50)
07. Money mile (03:44)
08. Twisting the knife (03:28)
09. Where hides sleep (04:20)


Exact Audio Copy V1.0 beta 3 from 29. August 2011

EAC extraction logfile from 7. June 2013, 2:00

Alison Moyet / Alf

Used drive : PIONEER DVD-RW DVR-112D Adapter: 2 ID: 1

Read mode : Secure
Utilize accurate stream : Yes
Defeat audio cache : Yes
Make use of C2 pointers : No

Read offset correction : 48
Overread into Lead-In and Lead-Out : No
Fill up missing offset samples with silence : Yes
Delete leading and trailing silent blocks : No
Null samples used in CRC calculations : Yes
Used interface : Installed external ASPI interface

Used output format : User Defined Encoder
Selected bitrate : 1024 kBit/s
Quality : High
Add ID3 tag : No
Command line compressor : C:\Program Files (x86)\Exact Audio Copy\Flac\flac.exe
Additional command line options : -8 -V -T "Date=%year%" -T "Genre=%genre%" -T "COMMENT=ripped by bvstudio®" %source%


TOC of the extracted CD

Track | Start | Length | Start sector | End sector
––––––––––––––––––––––––––––-
1 | 0:00.00 | 3:53.25 | 0 | 17499
2 | 3:53.25 | 4:12.45 | 17500 | 36444
3 | 8:05.70 | 4:06.30 | 36445 | 54924
4 | 12:12.25 | 4:00.35 | 54925 | 72959
5 | 16:12.60 | 3:16.40 | 72960 | 87699
6 | 19:29.25 | 6:50.37 | 87700 | 118486
7 | 26:19.62 | 3:44.38 | 118487 | 135324
8 | 30:04.25 | 3:27.70 | 135325 | 150919
9 | 33:32.20 | 4:20.35 | 150920 | 170454


Range status and errors

Selected range

Filename F:\Alison Moyet\1984 - Alf (1984 - Japan - CDCBS 26229)\Alison Moyet - Alf.wav

Peak level 100.0 %
Extraction speed 6.5 X
Range quality 100.0 %
Test CRC 593F7550
Copy CRC 593F7550
Copy OK

No errors occurred


AccurateRip summary

Track 1 accurately ripped (confidence 17) [006CB5AE] (AR v2)
Track 2 accurately ripped (confidence 17) [66EA624E] (AR v2)
Track 3 accurately ripped (confidence 17) [6A183F2A] (AR v2)
Track 4 accurately ripped (confidence 17) [27AB0384] (AR v2)
Track 5 accurately ripped (confidence 17) [D0901F46] (AR v2)
Track 6 accurately ripped (confidence 17) [0DDC60B8] (AR v2)
Track 7 accurately ripped (confidence 16) [B82070DF] (AR v2)
Track 8 accurately ripped (confidence 17) [F0D09BA6] (AR v2)
Track 9 accurately ripped (confidence 17) [47FB301B] (AR v2)

All tracks accurately ripped

End of status report

–– CUETools DB Plugin V2.1.5

[CTDB TOCID: U_NAU6.I8t9u3qzmSaQlxD3473A-] found
Submit result: U_NAU6.I8t9u3qzmSaQlxD3473A- has been confirmed
Track | CTDB Status
1 | (27/27) Accurately ripped
2 | (26/27) Accurately ripped
3 | (26/27) Accurately ripped
4 | (26/27) Accurately ripped
5 | (27/27) Accurately ripped
6 | (26/27) Accurately ripped
7 | (26/27) Accurately ripped
8 | (26/27) Accurately ripped
9 | (26/27) Accurately ripped


==== Log checksum 22BCDB8A287A56755EA89524E9A4A565BCF1203F775D8B68AB45BFF03965D9C1 ====

foobar2000 1.2.7 beta 1 / Dynamic Range Meter 1.1.1
log date: 2013-06-07 02:55:01

––––––––––––––––––––––––––––––––––––––––
Analyzed: Alison Moyet / Alf
––––––––––––––––––––––––––––––––––––––––

DR Peak RMS Duration Track
––––––––––––––––––––––––––––––––––––––––
DR14 0.00 dB -15.87 dB 3:53 01-Love Resurrection
DR15 0.00 dB -16.80 dB 4:13 02-Honey For The Bees
DR16 -1.16 dB -19.76 dB 4:06 03-For You Only
DR13 -0.42 dB -16.29 dB 4:00 04-Invisible
DR16 0.00 dB -18.63 dB 3:17 05-Steal Me Blind
DR15 -0.73 dB -18.63 dB 6:50 06-All Cried Out
DR14 0.00 dB -16.32 dB 3:45 07-Money Mile
DR13 0.00 dB -15.54 dB 3:28 08-Twisting The Knife
DR15 -0.04 dB -17.48 dB 4:20 09-Where Hides Sleep
––––––––––––––––––––––––––––––––––––––––

Number of tracks: 9
Official DR value: DR15

Samplerate: 44100 Hz
Channels: 2
Bits per sample: 16
Bitrate: 886 kbps
Codec: FLAC
================================================================================




Alison Moyet - Studio Albums Collection 1984-2015 (11CD) [Re-Up]

Alison Moyet - Raindancing (1987)
EAC | FLAC | Image (Cue&Log) ~ 272 Mb | Mp3 (CBR320) ~ 96 Mb
Label: CBS | # CBS 450152 2 | Time: 00:39:57 | Scans ~ 47 Mb

After reading a few negative reviews of Alison Moyet's Raindancing, I had to put in a review for myself. Got the album as a birthday present back in 1987. I loved the song Is This Love?. Didn't know too much about Alison back then. I knew she had an album called Alf released, but didn't hear too many songs from it except for Invisible. I thoroughy enjoyed Raindancing, and continue to listen to it to this day! I know Alison feels it doesn't represent her as an artist. She felt she got stuck with producer Jimmy Iovine to do the recording, but I did read an interview that she enjoyed making Raindancing more than she did Alf. Apparently, Swain and Jolley were pretty much dictators in the studio. Does it have a dated feel to it? Yeah, maybe a little-so do the Human League (who I love also). So what? Name an artist from the last 30 years who doesn't sound dated. All the music today sounds over processed and overproduced. Why should Raindancing have vocals where she sounds like an android? And over repetitive synthesizer lines? Raindancing is what it is. A beautifully produced pop album with an incredibly soulful voice that predates Adele. For me, there isn't a dud on it. Whenever anybody listens to an artist's recording, you will get a room full of people with totally different opinions about what works and what doesn't. That is the universal language of music. No one is going to completely agree about a released recording-just read the differing opinions from respected,published music critics. But I love Alison and every recording she has done. Even the more experimental follow up, Hoodoo.

Review by Mr. David T. Albert, Amazon.com

Tracklist:

01. Week in the presence of beauty (03:48)
02. Ordinary girl (03:28)
03. You got me wrong (04:06)
04. Without you (03:29)
05. Sleep like breating (04:25)
06. Is this love? (04:02)
07. Bow wind bow (05:49)
08. Glorious love (04:23)
09. When i say (02:57)
10. Stay (03:27)


Exact Audio Copy V1.0 beta 3 from 29. August 2011

EAC extraction logfile from 7. June 2013, 2:18

Alison Moyet / Raindancing

Used drive : PIONEER DVD-RW DVR-112D Adapter: 2 ID: 1

Read mode : Secure
Utilize accurate stream : Yes
Defeat audio cache : Yes
Make use of C2 pointers : No

Read offset correction : 48
Overread into Lead-In and Lead-Out : No
Fill up missing offset samples with silence : Yes
Delete leading and trailing silent blocks : No
Null samples used in CRC calculations : Yes
Used interface : Installed external ASPI interface

Used output format : User Defined Encoder
Selected bitrate : 1024 kBit/s
Quality : High
Add ID3 tag : No
Command line compressor : C:\Program Files (x86)\Exact Audio Copy\Flac\flac.exe
Additional command line options : -8 -V -T "Date=%year%" -T "Genre=%genre%" -T "COMMENT=ripped by bvstudio®" %source%


TOC of the extracted CD

Track | Start | Length | Start sector | End sector
––––––––––––––––––––––––––––-
1 | 0:00.00 | 3:48.35 | 0 | 17134
2 | 3:48.35 | 3:28.65 | 17135 | 32799
3 | 7:17.25 | 4:06.55 | 32800 | 51304
4 | 11:24.05 | 3:29.52 | 51305 | 67031
5 | 14:53.57 | 4:22.18 | 67032 | 86699
6 | 19:16.00 | 4:02.15 | 86700 | 104864
7 | 23:18.15 | 5:49.02 | 104865 | 131041
8 | 29:07.17 | 4:23.05 | 131042 | 150771
9 | 33:30.22 | 2:57.35 | 150772 | 164081
10 | 36:27.57 | 3:28.60 | 164082 | 179741


Range status and errors

Selected range

Filename F:\Alison Moyet\1987 - Raindancing (1987 - Japan - 450 152 2)\Alison Moyet - Raindancing.wav

Peak level 100.0 %
Extraction speed 6.6 X
Range quality 100.0 %
Test CRC A99BFDEF
Copy CRC A99BFDEF
Copy OK

No errors occurred


AccurateRip summary

Track 1 accurately ripped (confidence 14) [4290865E] (AR v2)
Track 2 accurately ripped (confidence 14) [4F7512CE] (AR v2)
Track 3 accurately ripped (confidence 14) [DA65B5AD] (AR v2)
Track 4 accurately ripped (confidence 14) [4F802DBF] (AR v2)
Track 5 accurately ripped (confidence 14) [0A22D32B] (AR v2)
Track 6 accurately ripped (confidence 14) [B7D60A6E] (AR v2)
Track 7 accurately ripped (confidence 14) [0C959210] (AR v2)
Track 8 accurately ripped (confidence 14) [28805A0F] (AR v2)
Track 9 accurately ripped (confidence 14) [8D804B70] (AR v2)
Track 10 accurately ripped (confidence 14) [2E32DDAA] (AR v2)

All tracks accurately ripped

End of status report

–– CUETools DB Plugin V2.1.5

[CTDB TOCID: CAGpMiZNkraCAnnTH26DzLmD4Mk-] found
Submit result: CAGpMiZNkraCAnnTH26DzLmD4Mk- has been confirmed
Track | CTDB Status
1 | (29/29) Accurately ripped
2 | (29/29) Accurately ripped
3 | (29/29) Accurately ripped
4 | (29/29) Accurately ripped
5 | (29/29) Accurately ripped
6 | (29/29) Accurately ripped
7 | (28/29) Accurately ripped
8 | (29/29) Accurately ripped
9 | (29/29) Accurately ripped
10 | (29/29) Accurately ripped


==== Log checksum CACC202A1D12158AC4731583C7515E20705520B8695DE4DEB7293882F7A40212 ====

foobar2000 1.2 / Dynamic Range Meter 1.1.1
log date: 2014-01-30 20:39:43

––––––––––––––––––––––––––––––––––––––––
Analyzed: Alison Moyet / Raindancing
––––––––––––––––––––––––––––––––––––––––

DR Peak RMS Duration Track
––––––––––––––––––––––––––––––––––––––––
DR12 0.00 dB -13.73 dB 3:48 01-Weak In The Presence Of Beauty
DR13 -0.01 dB -14.64 dB 3:29 02-Ordinary Girl
DR14 0.00 dB -15.83 dB 4:07 03-You Got Me Wrong
DR12 0.00 dB -13.79 dB 3:30 04-Without You
DR13 -0.46 dB -15.79 dB 4:22 05-Sleep Like Breathing
DR12 0.00 dB -14.32 dB 4:02 06-Is This Love?
DR12 -1.63 dB -17.62 dB 5:49 07-Blow Wind Blow
DR12 -0.26 dB -14.48 dB 4:23 08-Glorious Love
DR12 -0.18 dB -13.66 dB 2:57 09-When I Say (No Giveaway)
DR13 -0.87 dB -16.78 dB 3:29 10-Stay
––––––––––––––––––––––––––––––––––––––––

Number of tracks: 10
Official DR value: DR12

Samplerate: 44100 Hz
Channels: 2
Bits per sample: 16
Bitrate: 907 kbps
Codec: FLAC
================================================================================




Alison Moyet - Studio Albums Collection 1984-2015 (11CD) [Re-Up]

Alison Moyet - Hoodoo (1991)
EAC | FLAC | Image (Cue&Log) ~ 314 Mb | Mp3 (CBR320) ~ 116 Mb
Label: Sony Music/Columbia | # 468272-2 | Time: 00:47:51 | Scans ~ 134 Mb

On her third post-Yaz release, songstress Alison Moyet puts her bluesy vocal abilities to good use on possibly her most soulful collection yet. She hasn't lost her knack for breezy, adult pop, evident on the lilting, melodic "Wishing You Were Here" (with Kirsty MacColl lending some assistance on backing vocals) and "It Won't Be Long," but tracks like the horn-driven "Footsteps" and high-energy title song form the core of Hoodoo. With the lyrics squarely focused on relationships, Moyet is often brassy and assertive as on "Back Where I Belong," which features a catchy electro-reggae beat and contributions from ex-Fine Young Cannibals Andy Cox and David Steele. She's still more than capable of expressing heart-aching vulnerability, though, especially on the gorgeous "This House," where a split-second pause gives way to her passionately imploring, "Who will take your place?" Other highlights include a pair of gospel-flavored numbers, the jumpy "Rise" (on which she adds harmonica) and the anthemic closer, "Find Me." It all makes Hoodoo another strong offering from the distinctive Moyet.

Review by Tom Demalon, Allmusic.com

Tracklist:

01. Footsteps (05:00)
02. It Won't Be Long (04:14)
03. This House (03:56)
04. Rise (03:46)
05. Wishing You Were Here (03:57)
06. Hoodoo (04:43)
07. (Meeting With My) Main Man (04:40)
08. Back Where I Belong (03:51)
09. My Right A.R.M. (04:47)
10. Never Too Late (03:29)
11. Find Me (05:25)


Exact Audio Copy V1.0 beta 3 from 29. August 2011

EAC extraction logfile from 3. April 2013, 0:41

Alison Moyet / Hoodoo

Used drive : Optiarc BD RW BD-5300S Adapter: 3 ID: 0

Read mode : Secure
Utilize accurate stream : Yes
Defeat audio cache : Yes
Make use of C2 pointers : No

Read offset correction : 6
Overread into Lead-In and Lead-Out : No
Fill up missing offset samples with silence : Yes
Delete leading and trailing silent blocks : No
Null samples used in CRC calculations : Yes
Used interface : Installed external ASPI interface

Used output format : User Defined Encoder
Selected bitrate : 1024 kBit/s
Quality : High
Add ID3 tag : No
Command line compressor : C:\Program Files (x86)\Exact Audio Copy\Flac\flac.exe
Additional command line options : -8 -V -T "Date=%year%" -T "Genre=%genre%" -T "COMMENT=ripped by bvstudio®" %source%


TOC of the extracted CD

Track | Start | Length | Start sector | End sector
––––––––––––––––––––––––––––-
1 | 0:00.00 | 4:59.70 | 0 | 22494
2 | 4:59.70 | 4:14.25 | 22495 | 41569
3 | 9:14.20 | 3:56.10 | 41570 | 59279
4 | 13:10.30 | 3:46.50 | 59280 | 76279
5 | 16:57.05 | 3:57.50 | 76280 | 94104
6 | 20:54.55 | 4:43.10 | 94105 | 115339
7 | 25:37.65 | 4:40.02 | 115340 | 136341
8 | 30:17.67 | 3:51.33 | 136342 | 153699
9 | 34:09.25 | 4:47.17 | 153700 | 175241
10 | 38:56.42 | 3:29.28 | 175242 | 190944
11 | 42:25.70 | 5:25.12 | 190945 | 215331


Range status and errors

Selected range

Filename F:\Alison Moyet\1991 - Hoodoo\Alison Moyet - Hoodoo.wav

Peak level 100.0 %
Extraction speed 6.8 X
Range quality 100.0 %
Test CRC B6125A50
Copy CRC B6125A50
Copy OK

No errors occurred


AccurateRip summary

Track 1 accurately ripped (confidence 12) [C4CCC419] (AR v2)
Track 2 accurately ripped (confidence 12) [03293D00] (AR v2)
Track 3 accurately ripped (confidence 11) [269FA684] (AR v2)
Track 4 accurately ripped (confidence 12) [6378BC73] (AR v2)
Track 5 accurately ripped (confidence 12) [87D54858] (AR v2)
Track 6 accurately ripped (confidence 12) [1E735E08] (AR v2)
Track 7 accurately ripped (confidence 12) [680D7BE1] (AR v2)
Track 8 accurately ripped (confidence 12) [EEA60703] (AR v2)
Track 9 accurately ripped (confidence 12) [0EF9FDFD] (AR v2)
Track 10 accurately ripped (confidence 12) [2C484769] (AR v2)
Track 11 accurately ripped (confidence 12) [C2E4359C] (AR v2)

All tracks accurately ripped

End of status report

–– CUETools DB Plugin V2.1.4

[CTDB TOCID: nX.bk1iLjRigKuSakEaQDUGpJdQ-] found
Submit result: nX.bk1iLjRigKuSakEaQDUGpJdQ- has been confirmed
Track | CTDB Status
1 | (21/21) Accurately ripped
2 | (21/21) Accurately ripped
3 | (21/21) Accurately ripped
4 | (21/21) Accurately ripped
5 | (21/21) Accurately ripped
6 | (21/21) Accurately ripped
7 | (21/21) Accurately ripped
8 | (21/21) Accurately ripped
9 | (21/21) Accurately ripped
10 | (21/21) Accurately ripped
11 | (21/21) Accurately ripped


==== Log checksum 02640606DA214F67971A5A462651AEB119E9BE2E5C19CFFA2F139D82C4B5AFA3 ====

foobar2000 1.2.4 / Dynamic Range Meter 1.1.1
log date: 2013-04-03 01:04:01

––––––––––––––––––––––––––––––––––––––––
Analyzed: Alison Moyet / Hoodoo
––––––––––––––––––––––––––––––––––––––––

DR Peak RMS Duration Track
––––––––––––––––––––––––––––––––––––––––
DR12 -1.19 dB -16.22 dB 5:00 01-Footsteps
DR13 0.00 dB -14.94 dB 4:14 02-It Won't Be Long
DR13 -2.08 dB -19.61 dB 3:56 03-This House
DR12 -0.82 dB -15.34 dB 3:47 04-Rise
DR13 -1.20 dB -17.42 dB 3:58 05-Wishing You Were Here
DR13 -0.01 dB -15.41 dB 4:43 06-Hoodoo
DR13 -1.20 dB -16.17 dB 4:40 07-(Meeting With My) Main Man
DR15 -0.32 dB -16.08 dB 3:51 08-Back Where I Belong
DR13 -1.80 dB -18.32 dB 4:47 09-My Right A.R.M.
DR13 -1.43 dB -16.83 dB 3:29 10-Never Too Late
DR12 -0.24 dB -15.99 dB 5:25 11-Find Me
––––––––––––––––––––––––––––––––––––––––

Number of tracks: 11
Official DR value: DR13

Samplerate: 44100 Hz
Channels: 2
Bits per sample: 16
Bitrate: 876 kbps
Codec: FLAC
================================================================================




Alison Moyet - Studio Albums Collection 1984-2015 (11CD) [Re-Up]

Alison Moyet - Hoodoo (1991) Japanese Press
EAC | FLAC | Image (Cue&Log) ~ 314 Mb | Mp3 (CBR320) ~ 116 Mb
Label: Epic/Sony | # ESCA 5305 | Time: 00:47:52 | Scans ~ 138 Mb


Tracklist:

01. Footsteps (04:59)
02. It Won't Be Long (04:14)
03. This House (03:56)
04. Rise (03:46)
05. Wishing You Were Here (03:56)
06. Hoodoo (04:43)
07. (Meeting With My) Main Man (04:39)
08. Back Where I Belong (03:51)
09. My Right A.R.M. (04:47)
10. Never Too Late (03:29)
11. Find Me (05:27)


Exact Audio Copy V1.0 beta 3 from 29. August 2011

EAC extraction logfile from 18. January 2014, 0:48

Alison Moyet / Hoodoo

Used drive : PLEXTOR DVDR PX-810SA Adapter: 2 ID: 0

Read mode : Secure
Utilize accurate stream : Yes
Defeat audio cache : Yes
Make use of C2 pointers : No

Read offset correction : 48
Overread into Lead-In and Lead-Out : No
Fill up missing offset samples with silence : Yes
Delete leading and trailing silent blocks : No
Null samples used in CRC calculations : Yes
Used interface : Installed external ASPI interface

Used output format : User Defined Encoder
Selected bitrate : 1024 kBit/s
Quality : High
Add ID3 tag : No
Command line compressor : C:\Program Files (x86)\Exact Audio Copy\Flac\flac.exe
Additional command line options : -8 -V -T "Date=%year%" -T "Genre=%genre%" -T "COMMENT=ripped by bvstudio®" %source%


TOC of the extracted CD

Track | Start | Length | Start sector | End sector
––––––––––––––––––––––––––––-
1 | 0:00.00 | 4:59.05 | 0 | 22429
2 | 4:59.05 | 4:14.32 | 22430 | 41511
3 | 9:13.37 | 3:56.18 | 41512 | 59229
4 | 13:09.55 | 3:46.42 | 59230 | 76221
5 | 16:56.22 | 3:57.50 | 76222 | 94046
6 | 20:53.72 | 4:43.18 | 94047 | 115289
7 | 25:37.15 | 4:39.70 | 115290 | 136284
8 | 30:17.10 | 3:51.22 | 136285 | 153631
9 | 34:08.32 | 4:47.23 | 153632 | 175179
10 | 38:55.55 | 3:29.27 | 175180 | 190881
11 | 42:25.07 | 5:27.05 | 190882 | 215411


Range status and errors

Selected range

Filename F:\1991 - Hoodoo (1991 - Japan - ESCA 5305)\Alison Moyet - Hoodoo.wav

Peak level 100.0 %
Extraction speed 6.8 X
Range quality 99.9 %
Test CRC C1D99DEE
Copy CRC C1D99DEE
Copy OK

No errors occurred


AccurateRip summary

Track 1 accurately ripped (confidence 1) [1C70F7F7] (AR v1)
Track 2 accurately ripped (confidence 1) [F3D94071] (AR v1)
Track 3 accurately ripped (confidence 1) [E69B2B1B] (AR v1)
Track 4 accurately ripped (confidence 1) [3796F546] (AR v1)
Track 5 accurately ripped (confidence 1) [94DEFAAA] (AR v1)
Track 6 accurately ripped (confidence 1) [9AA13031] (AR v1)
Track 7 accurately ripped (confidence 1) [6A01FA73] (AR v1)
Track 8 accurately ripped (confidence 1) [B7E5BB98] (AR v1)
Track 9 accurately ripped (confidence 1) [EAFA92EF] (AR v1)
Track 10 accurately ripped (confidence 1) [1DC4D588] (AR v1)
Track 11 accurately ripped (confidence 1) [D270003A] (AR v1)

All tracks accurately ripped

End of status report

–– CUETools DB Plugin V2.1.5

[CTDB TOCID: 3a9BfBibIP9nI1LVWCOKbWWtQv4-] disk not present in database
Submit result: 3a9BfBibIP9nI1LVWCOKbWWtQv4- has been uploaded


==== Log checksum 152AA68A1C06073DE1A4ACBA705D6B86C559967A512B3908F092D0E2FE9EF54B ====

foobar2000 1.3.1 beta 1 / Dynamic Range Meter 1.1.1
log date: 2014-01-18 02:23:13

––––––––––––––––––––––––––––––––––––––––
Analyzed: Alison Moyet / Hoodoo
––––––––––––––––––––––––––––––––––––––––

DR Peak RMS Duration Track
––––––––––––––––––––––––––––––––––––––––
DR12 -1.18 dB -16.23 dB 4:59 01-Footsteps
DR13 0.00 dB -14.95 dB 4:14 02-It Won't Be Long
DR13 -2.10 dB -19.62 dB 3:56 03-This House
DR12 -0.83 dB -15.34 dB 3:47 04-Rise
DR13 -1.21 dB -17.42 dB 3:58 05-Wishing You Were Here
DR13 0.00 dB -15.41 dB 4:43 06-Hoodoo
DR13 -1.18 dB -16.18 dB 4:40 07-(Meeting With My) Main Man
DR15 -0.33 dB -16.02 dB 3:51 08-Back Where I Belong
DR13 -1.80 dB -18.33 dB 4:47 09-My Right A.R.M.
DR13 -1.41 dB -16.83 dB 3:29 10-Never Too Late
DR12 -0.24 dB -15.99 dB 5:27 11-Find Me
––––––––––––––––––––––––––––––––––––––––

Number of tracks: 11
Official DR value: DR13

Samplerate: 44100 Hz
Channels: 2
Bits per sample: 16
Bitrate: 876 kbps
Codec: FLAC
================================================================================




Alison Moyet - Studio Albums Collection 1984-2015 (11CD) [Re-Up]

Alison Moyet - Essex (1994)
EAC | FLAC | Image (Cue&Log) ~ 323 Mb | Mp3 (CBR320) ~ 116 Mb
Label: Sony Music/Columbia | # CCK 57448 | Time: 00:48:26 | Scans (jpg/png) ~ 47 Mb

On her fourth solo album, Essex, named after her home county, Alison Moyet continues to search for valid alternatives to her natural gifts. A singer with a remarkably forceful voice and emotional delivery, she had succeeded both as a jazz and blues interpreter and when her singing was inventively contrasted with Vince Clarke's synthesizer tracks in Yaz. While her solo work at first showed promise of combining those styles with contemporary Brit-pop and produced some hits, by this point she is struggling to sound distinctive against the overeager production style of Ian Broudie, whose work is somewhat offset by the more sedate tracks produced by Pete Glenister. "Whispering Your Name," the first single, written by Jules Shear, with a lyric intended to be sung by one man to another, sounds curious coming out of Moyet's mouth, but at least the words are about something definite, which is more than you can say for Moyet's own elliptical expressions of anger and romantic discord. Musically, the album veers from the Revolver-era Beatles sound of the second single, "Falling," to the Motown rhythm of "So Am I" and an unnecessary remake of Yaz's "Ode to Boy" arranged to sound like "Pinball Wizard." The best song, the Glenister-produced ballad "Satellite," is buried in the middle of the record – what makes it the best is that the arrangement actually allows Moyet the space to sing and to be as moving as she can be.

Review by William Ruhlmann, Allmusic.com

Tracklist:

01. Falling (03:40)
02. And I Know (03:49)
03. Whispering Your Name (03:28)
04. Getting Into Something (04:16)
05. So Am I (03:46)
06. Satellite (04:17)
07. Ode To Boy (02:53)
08. Dorothy (03:27)
09. Another Living Day (03:45)
10. Boys Own (04:05)
11. Take Of Me (04:10)
12. Ode To Boy II (02:58)
13. Whispering Your Name (Single mix) (03:47)


Exact Audio Copy V1.0 beta 3 from 29. August 2011

EAC extraction logfile from 3. April 2013, 1:02

Alison Moyet / Essex

Used drive : Optiarc BD RW BD-5300S Adapter: 3 ID: 0

Read mode : Secure
Utilize accurate stream : Yes
Defeat audio cache : Yes
Make use of C2 pointers : No

Read offset correction : 6
Overread into Lead-In and Lead-Out : No
Fill up missing offset samples with silence : Yes
Delete leading and trailing silent blocks : No
Null samples used in CRC calculations : Yes
Used interface : Installed external ASPI interface

Used output format : User Defined Encoder
Selected bitrate : 1024 kBit/s
Quality : High
Add ID3 tag : No
Command line compressor : C:\Program Files (x86)\Exact Audio Copy\Flac\flac.exe
Additional command line options : -8 -V -T "Date=%year%" -T "Genre=%genre%" -T "COMMENT=ripped by bvstudio®" %source%


TOC of the extracted CD

Track | Start | Length | Start sector | End sector
––––––––––––––––––––––––––––-
1 | 0:00.00 | 3:40.15 | 0 | 16514
2 | 3:40.15 | 3:49.67 | 16515 | 33756
3 | 7:30.07 | 3:28.63 | 33757 | 49419
4 | 10:58.70 | 4:16.52 | 49420 | 68671
5 | 15:15.47 | 3:46.18 | 68672 | 85639
6 | 19:01.65 | 4:17.22 | 85640 | 104936
7 | 23:19.12 | 2:53.30 | 104937 | 117941
8 | 26:12.42 | 3:26.70 | 117942 | 133461
9 | 29:39.37 | 3:45.43 | 133462 | 150379
10 | 33:25.05 | 4:05.55 | 150380 | 168809
11 | 37:30.60 | 4:09.70 | 168810 | 187554
12 | 41:40.55 | 2:57.70 | 187555 | 200899
13 | 44:38.50 | 3:47.55 | 200900 | 217979


Range status and errors

Selected range

Filename F:\Alison Moyet\1994 - Essex\Alison Moyet - Essex.wav

Peak level 93.3 %
Extraction speed 7.1 X
Range quality 100.0 %
Test CRC 0007CA7C
Copy CRC 0007CA7C
Copy OK

No errors occurred


AccurateRip summary

Track 1 cannot be verified as accurate (confidence 1) [BC443DE6], AccurateRip returned [56667E27] (AR v2)
Track 2 cannot be verified as accurate (confidence 1) [59D3F262], AccurateRip returned [579A3A47] (AR v2)
Track 3 cannot be verified as accurate (confidence 1) [FB015F25], AccurateRip returned [DB708449] (AR v2)
Track 4 cannot be verified as accurate (confidence 1) [72E2E888], AccurateRip returned [77DE41B6] (AR v2)
Track 5 cannot be verified as accurate (confidence 1) [2764A294], AccurateRip returned [A927AFD2] (AR v2)
Track 6 cannot be verified as accurate (confidence 1) [9054545A], AccurateRip returned [9E79081A] (AR v2)
Track 7 cannot be verified as accurate (confidence 1) [9A0FBF30], AccurateRip returned [2DA21783] (AR v2)
Track 8 cannot be verified as accurate (confidence 1) [9E44F379], AccurateRip returned [A3235A7C] (AR v2)
Track 9 cannot be verified as accurate (confidence 1) [BC626E81], AccurateRip returned [56BE1EF1] (AR v2)
Track 10 cannot be verified as accurate (confidence 1) [10B9F13C], AccurateRip returned [0623F4A3] (AR v2)
Track 11 cannot be verified as accurate (confidence 1) [56819DFC], AccurateRip returned [0F593F88] (AR v2)
Track 12 cannot be verified as accurate (confidence 1) [82B38EB7], AccurateRip returned [AFE009AC] (AR v2)
Track 13 cannot be verified as accurate (confidence 1) [48E45B0A], AccurateRip returned [A578DEA9] (AR v2)

No tracks could be verified as accurate
You may have a different pressing from the one(s) in the database

End of status report

–– CUETools DB Plugin V2.1.4

[CTDB TOCID: Gu6cffR1c4QrtKCfmcqRUmM73.I-] found
Submit result: Gu6cffR1c4QrtKCfmcqRUmM73.I- has been confirmed
Track | CTDB Status
1 | (1/1) Accurately ripped
2 | (1/1) Accurately ripped
3 | (1/1) Accurately ripped
4 | (1/1) Accurately ripped
5 | (1/1) Accurately ripped
6 | (1/1) Accurately ripped
7 | (1/1) Accurately ripped
8 | (1/1) Accurately ripped
9 | (1/1) Accurately ripped
10 | (1/1) Accurately ripped
11 | (1/1) Accurately ripped
12 | (1/1) Accurately ripped
13 | (1/1) Accurately ripped


==== Log checksum CFF59166230CAF0B509CA8B03BE37A198BBB767B978379A234FA5576632A0059 ====

foobar2000 1.2.4 / Dynamic Range Meter 1.1.1
log date: 2013-04-03 15:47:23

––––––––––––––––––––––––––––––––––––––––
Analyzed: Alison Moyet / Essex
––––––––––––––––––––––––––––––––––––––––

DR Peak RMS Duration Track
––––––––––––––––––––––––––––––––––––––––
DR12 -1.20 dB -15.45 dB 3:40 01-Falling
DR12 -1.20 dB -15.04 dB 3:50 02-And I Know
DR10 -3.46 dB -16.01 dB 3:29 03-Whispering Your Name
DR11 -1.76 dB -14.25 dB 4:17 04-Getting Into Something
DR12 -1.40 dB -14.87 dB 3:46 05-So Am I
DR11 -1.40 dB -16.90 dB 4:17 06-Satellite
DR9 -1.40 dB -13.87 dB 2:53 07-Ode To Boy
DR11 -1.40 dB -14.25 dB 3:27 08-Dorothy
DR11 -1.40 dB -14.99 dB 3:46 09-Another Living Day
DR11 -1.66 dB -15.24 dB 4:06 10-Boys Own
DR13 -2.51 dB -19.67 dB 4:10 11-Take Of Me
DR11 -0.60 dB -14.35 dB 2:58 12-Ode To Boy II
DR10 -1.12 dB -12.55 dB 3:48 13-Whispering Your Name (Single mix)
––––––––––––––––––––––––––––––––––––––––

Number of tracks: 13
Official DR value: DR11

Samplerate: 44100 Hz
Channels: 2
Bits per sample: 16
Bitrate: 888 kbps
Codec: FLAC
================================================================================




Alison Moyet - Studio Albums Collection 1984-2015 (11CD) [Re-Up]

Alison Moyet - Hometime (2002)
EAC | FLAC | Image (Cue&Log) ~ 288 Mb | Mp3 (CBR320) ~ 109 Mb
Label: Motley Music/Sanctuary | # SANCD128 | Time: 00:45:21 | Scans ~ 184 Mb

After a near-nine-year layoff, Alison Moyet's fifth solo album is a posh, lavish, elegant affair that shows she's lost none of her chops throughout the long layoff. Production by the Insects, best known for their soundtrack work, adds a torchy, dreamy quality to these tunes, all but two of which were co-written by the singer. Between the intricately crafted songs, the ornate production, and Moyet's soulful voice, this is arguably her most fully realized and cohesive work. Strings, keyboards, and multiple guitars layer into a big, lush, sophisticated sound perfect for Moyet's husky voice. While there is nothing that reminds the listener of Yaz, the synths, drum programming, and loops recall the more techno aspects of her old band, while adding an organic, if not quite rootsy, feel. If Dusty Springfield still made records in the millennium, it's likely they would be similar to Hometime. Personal yet expansive with just the right touch of ghostly R&B, this is a remarkably moving collection of European-style ballads. Somewhat reminiscent of Portishead's live work, Moyet sinks into these tracks as if lounging in an overstuffed chair. The elements combine most poignantly on the stirring "If You Don't Come Back to Me." With its hypnotic strings, reverbed guitar, and jazzy bass, it seems like she's interpreting an existing classic instead of writing a new one. Classy, subtle, yet often mesmerizing, this album is never less than affecting. It strives to be – and often is – a perfect vehicle for Moyet's talent, reaching heights that have only been hinted at in her previous work.

Review by Hal Horowitz, Allmusic.com

Tracklist:

01. Yesterday's Flame (04:28)
02. Should I Feel That It's Over (04:01)
03. More (03:59)
04. Hometime (03:47)
05. Mary, Don.t Keep Me Waiting (03:38)
06. Say It (04:00)
07. Ski (04:22)
08. If You Don't Come Back To Me (04:30)
09. Do You Ever Wonder (03:10)
10. The Train I Ride (05:03)
11. You Don't Have To Go (04:17)


Exact Audio Copy V1.0 beta 3 from 29. August 2011

EAC extraction logfile from 3. April 2013, 1:45

Alison Moyet / Hometime

Used drive : Optiarc BD RW BD-5300S Adapter: 3 ID: 0

Read mode : Secure
Utilize accurate stream : Yes
Defeat audio cache : Yes
Make use of C2 pointers : No

Read offset correction : 6
Overread into Lead-In and Lead-Out : No
Fill up missing offset samples with silence : Yes
Delete leading and trailing silent blocks : No
Null samples used in CRC calculations : Yes
Used interface : Installed external ASPI interface

Used output format : User Defined Encoder
Selected bitrate : 1024 kBit/s
Quality : High
Add ID3 tag : No
Command line compressor : C:\Program Files (x86)\Exact Audio Copy\Flac\flac.exe
Additional command line options : -8 -V -T "Date=%year%" -T "Genre=%genre%" -T "COMMENT=ripped by bvstudio®" %source%


TOC of the extracted CD

Track | Start | Length | Start sector | End sector
––––––––––––––––––––––––––––-
1 | 0:00.00 | 4:28.26 | 0 | 20125
2 | 4:28.26 | 4:01.44 | 20126 | 38244
3 | 8:29.70 | 3:59.68 | 38245 | 56237
4 | 12:29.63 | 3:47.41 | 56238 | 73303
5 | 16:17.29 | 3:38.66 | 73304 | 89719
6 | 19:56.20 | 4:00.66 | 89720 | 107785
7 | 23:57.11 | 4:22.43 | 107786 | 127478
8 | 28:19.54 | 4:30.07 | 127479 | 147735
9 | 32:49.61 | 3:10.34 | 147736 | 162019
10 | 36:00.20 | 5:03.50 | 162020 | 184794
11 | 41:03.70 | 4:17.13 | 184795 | 204082


Range status and errors

Selected range

Filename F:\Alison Moyet\2002 - Hometime\Alison Moyet - Hometime.wav

Peak level 100.0 %
Extraction speed 6.6 X
Range quality 99.9 %
Test CRC B5088748
Copy CRC B5088748
Copy OK

No errors occurred


AccurateRip summary

Track 1 accurately ripped (confidence 2) [E98C8CE3] (AR v2)
Track 2 accurately ripped (confidence 2) [AFDE641D] (AR v2)
Track 3 accurately ripped (confidence 2) [94CF3E05] (AR v2)
Track 4 accurately ripped (confidence 2) [4A3A032F] (AR v2)
Track 5 accurately ripped (confidence 2) [4109DEB1] (AR v2)
Track 6 accurately ripped (confidence 2) [1AA6BF1E] (AR v2)
Track 7 accurately ripped (confidence 2) [1EE004A6] (AR v2)
Track 8 accurately ripped (confidence 2) [85645042] (AR v2)
Track 9 accurately ripped (confidence 2) [284555BB] (AR v2)
Track 10 accurately ripped (confidence 2) [33BB7CE1] (AR v2)
Track 11 accurately ripped (confidence 2) [334A194D] (AR v2)

All tracks accurately ripped

End of status report

–– CUETools DB Plugin V2.1.4

[CTDB TOCID: twQN4kbDKgrMe6MuhUUbvjAEFVc-] found
Submit result: twQN4kbDKgrMe6MuhUUbvjAEFVc- has been confirmed
Track | CTDB Status
1 | (4/4) Accurately ripped
2 | (4/4) Accurately ripped
3 | (4/4) Accurately ripped
4 | (4/4) Accurately ripped
5 | (4/4) Accurately ripped
6 | (4/4) Accurately ripped
7 | (4/4) Accurately ripped
8 | (4/4) Accurately ripped
9 | (4/4) Accurately ripped
10 | (4/4) Accurately ripped
11 | (4/4) Accurately ripped


==== Log checksum 1D92558959FAFCFEB7F38E331F07169B96B7606114941389C0CED7081C3D1297 ====

foobar2000 1.2.4 / Dynamic Range Meter 1.1.1
log date: 2013-04-03 16:37:26

––––––––––––––––––––––––––––––––––––––––
Analyzed: Alison Moyet / Hometime
––––––––––––––––––––––––––––––––––––––––

DR Peak RMS Duration Track
––––––––––––––––––––––––––––––––––––––––
DR8 0.00 dB -10.64 dB 4:28 01-Yesterday's Flame
DR7 -0.27 dB -9.85 dB 4:02 02-Should I Feel That It's Over
DR9 0.00 dB -11.11 dB 4:00 03-More
DR8 -0.64 dB -11.70 dB 3:48 04-Hometime
DR8 -0.50 dB -11.45 dB 3:39 05-Mary, Don.t Keep Me Waiting
DR8 0.00 dB -10.44 dB 4:01 06-Say It
DR10 -0.01 dB -11.59 dB 4:23 07-Ski
DR8 -0.51 dB -12.64 dB 4:30 08-If You Don't Come Back To Me
DR8 -0.01 dB -11.12 dB 3:10 09-Do You Ever Wonder
DR8 0.00 dB -11.27 dB 5:04 10-The Train I Ride
DR9 -0.01 dB -12.99 dB 4:17 11-You Don't Have To Go
––––––––––––––––––––––––––––––––––––––––

Number of tracks: 11
Official DR value: DR8

Samplerate: 44100 Hz
Channels: 2
Bits per sample: 16
Bitrate: 848 kbps
Codec: FLAC
================================================================================




Alison Moyet - Studio Albums Collection 1984-2015 (11CD) [Re-Up]

Alison Moyet - Voice (2004)
XLD | FLAC | Tracks (Cue&Log) ~ 258 Mb | Mp3 (CBR320) ~ 107 Mb
Label: Sanctuary | # SANCD270 | Time: 00:44:38 | Scans ~ 86 Mb

One of the U.K.'s most popular and best-selling vocalists of the past two decades, Alison Moyet's husk-and-honey voice has made her equally successful as a blues wailer and a dancefloor diva. Equal focus has always been paid to her sharp songwriting, but her new path keeps listeners firmly focused on the intimacy of those vocals, which sound better than ever on this mature and soul-stirring, lushly produced and arranged (by British film composer Anne Dudley) collection of standards – some old (Legrand, Gershwin), some new (Elvis Costello), a few in French, and all surprising. Edging sweetly into pop-classical territory, Moyet reels us into the "Windmills of Your Mind" before ruminating on "The Man I Love" and exploring the concept of feeling "Almost Blue" (the Costello chestnut). Another highlight is her soaring, ethereal turn on the Costello/Burt Bacharach tune "God Give Me Strength," rendered here like a passionate prayer. She also tackles classical pieces by Bizet and Purcell. Although the tempo and tone of the arrangements are fairly similar, as per the album title, Dudley's restraint allows Moyet's voice to take center stage, where it always belongs. The key to creating a successful standards album is finding unique ways to render familiar material, and peppering the set with obscure pieces that will inspire a deeper study of musical history. Moyet achieves all this and more on this winsome future classic.

Review by Jonathan Widran, Allmusic.com

Tracklist:

01. Windmills Of Your Mind (03:51)
02. The Man I Love (03:49)
03. Almost Blue (03:53)
04. Je Crois Entendre Encore (03:30)
05. What Are You Doing The Rest Of Your Life? (03:15)
06. God Give Me Strength (05:36)
07. The Wraggle Taggle Gypsies-O! (03:30)
08. Dido's Lament: When I Am Laid In Earth (03:20)
09. La Chanson Des Vieux Amants (05:08)
10. Cry Me A River (05:39)
11. Bye Bye Blackbird (03:01)


X Lossless Decoder version 20110312 (130.0)

XLD extraction logfile from 2011-04-12 17:35:42 +0400

Alison Moyet / Voice

Used drive : SONY DVD RW DRU-830A (revision SS23)

Ripper mode : CDParanoia III 10.2
Disable audio cache : OK for the drive with a cache less than 2750KiB
Make use of C2 pointers : NO
Read offset correction : 6
Max retry count : 100
Gap status : Analyzed, Appended

TOC of the extracted CD
Track | Start | Length | Start sector | End sector
––––––––––––––––––––––––––––-
1 | 00:00:00 | 03:51:10 | 0 | 17334
2 | 03:51:10 | 03:49:33 | 17335 | 34542
3 | 07:40:43 | 03:53:30 | 34543 | 52047
4 | 11:33:73 | 03:30:05 | 52048 | 67802
5 | 15:04:03 | 03:15:12 | 67803 | 82439
6 | 18:19:15 | 05:36:61 | 82440 | 107700
7 | 23:56:01 | 03:30:40 | 107701 | 123490
8 | 27:26:41 | 03:20:44 | 123491 | 138534
9 | 30:47:10 | 05:08:44 | 138535 | 161678
10 | 35:55:54 | 05:39:14 | 161679 | 187117
11 | 41:34:68 | 03:01:54 | 187118 | 200746

List of alternate offset correction values
# | Absolute | Relative | Confidence
–––––––––––––––––––––
1 | -670 | -676 | 3

AccurateRip Summary
Track 01 : OK (AR2, confidence 5)
Track 02 : OK (AR2, confidence 5)
Track 03 : OK (AR2, confidence 5)
Track 04 : OK (AR2, confidence 5)
Track 05 : OK (AR2, confidence 5)
Track 06 : OK (AR2, confidence 5)
Track 07 : OK (AR2, confidence 5)
Track 08 : OK (AR2, confidence 5)
Track 09 : OK (AR2, confidence 5)
Track 10 : OK (AR2, confidence 5)
Track 11 : OK (AR2, confidence 5)
->All tracks accurately ripped.

All Tracks
Album gain : -5.26 dB
Peak : 0.988800
Statistics
Read error : 0
Skipped (treated as error) : 0
Edge jitter error (maybe fixed) : 0
Atom jitter error (maybe fixed) : 0
Drift error (maybe fixed) : 0
Dropped bytes error (maybe fixed) : 0
Duplicated bytes error (maybe fixed) : 0

Track 01
Filename : /Users/mac/Desktop/01 Alison Moyet - Windmills Of Your Mind.flac
Pre-gap length : 00:02:00

Track gain : -6.10 dB
Peak : 0.988800
CRC32 hash (test run) : 98DD9A6F
CRC32 hash : 98DD9A6F
CRC32 hash (skip zero) : B3C9C1DD
AccurateRip signature : C2205979
->Accurately ripped! (AR2, confidence 5)
Statistics
Read error : 0
Skipped (treated as error) : 0
Edge jitter error (maybe fixed) : 0
Atom jitter error (maybe fixed) : 0
Drift error (maybe fixed) : 0
Dropped bytes error (maybe fixed) : 0
Duplicated bytes error (maybe fixed) : 0
Inconsistency in error sectors : 0

Track 02
Filename : /Users/mac/Desktop/02 Alison Moyet - The Man I Love.flac

Track gain : -4.31 dB
Peak : 0.988770
CRC32 hash (test run) : 59743CA4
CRC32 hash : 59743CA4
CRC32 hash (skip zero) : 05B49838
AccurateRip signature : 1E4F416F
->Accurately ripped! (AR2, confidence 5)
Statistics
Read error : 0
Skipped (treated as error) : 0
Edge jitter error (maybe fixed) : 0
Atom jitter error (maybe fixed) : 0
Drift error (maybe fixed) : 0
Dropped bytes error (maybe fixed) : 0
Duplicated bytes error (maybe fixed) : 0
Inconsistency in error sectors : 0

Track 03
Filename : /Users/mac/Desktop/03 Alison Moyet - Almost Blue.flac
Pre-gap length : 00:00:44

Track gain : -5.50 dB
Peak : 0.988708
CRC32 hash (test run) : F666075D
CRC32 hash : F666075D
CRC32 hash (skip zero) : C82F4F4C
AccurateRip signature : 3DA838B8
->Accurately ripped! (AR2, confidence 5)
Statistics
Read error : 0
Skipped (treated as error) : 0
Edge jitter error (maybe fixed) : 0
Atom jitter error (maybe fixed) : 0
Drift error (maybe fixed) : 0
Dropped bytes error (maybe fixed) : 0
Duplicated bytes error (maybe fixed) : 0
Inconsistency in error sectors : 0

Track 04
Filename : /Users/mac/Desktop/04 Alison Moyet - Je Crois Entendre Encore.flac

Track gain : -6.13 dB
Peak : 0.988739
CRC32 hash (test run) : ED7E1922
CRC32 hash : ED7E1922
CRC32 hash (skip zero) : 22BD0F28
AccurateRip signature : 78D29ADF
->Accurately ripped! (AR2, confidence 5)
Statistics
Read error : 0
Skipped (treated as error) : 0
Edge jitter error (maybe fixed) : 0
Atom jitter error (maybe fixed) : 0
Drift error (maybe fixed) : 0
Dropped bytes error (maybe fixed) : 0
Duplicated bytes error (maybe fixed) : 0
Inconsistency in error sectors : 0

Track 05
Filename : /Users/mac/Desktop/05 Alison Moyet - What Are You Doing The Rest Of Your Life?.flac

Track gain : -4.57 dB
Peak : 0.988739
CRC32 hash (test run) : CF8ED045
CRC32 hash : CF8ED045
CRC32 hash (skip zero) : 05C4E498
AccurateRip signature : C00C8C21
->Accurately ripped! (AR2, confidence 5)
Statistics
Read error : 0
Skipped (treated as error) : 0
Edge jitter error (maybe fixed) : 0
Atom jitter error (maybe fixed) : 0
Drift error (maybe fixed) : 0
Dropped bytes error (maybe fixed) : 0
Duplicated bytes error (maybe fixed) : 0
Inconsistency in error sectors : 0

Track 06
Filename : /Users/mac/Desktop/06 Alison Moyet - God Give Me Strength.flac
Pre-gap length : 00:00:69

Track gain : -5.74 dB
Peak : 0.988739
CRC32 hash (test run) : 28AFDC71
CRC32 hash : 28AFDC71
CRC32 hash (skip zero) : 0C4A82A2
AccurateRip signature : 67002887
->Accurately ripped! (AR2, confidence 5)
Statistics
Read error : 0
Skipped (treated as error) : 0
Edge jitter error (maybe fixed) : 0
Atom jitter error (maybe fixed) : 0
Drift error (maybe fixed) : 0
Dropped bytes error (maybe fixed) : 0
Duplicated bytes error (maybe fixed) : 0
Inconsistency in error sectors : 0

Track 07
Filename : /Users/mac/Desktop/07 Alison Moyet - The Wraggle Taggle Gypsies-O!.flac
Pre-gap length : 00:00:46

Track gain : -5.28 dB
Peak : 0.988770
CRC32 hash (test run) : E79C25C1
CRC32 hash : E79C25C1
CRC32 hash (skip zero) : 7274E2BB
AccurateRip signature : C8BCE52B
->Accurately ripped! (AR2, confidence 5)
Statistics
Read error : 0
Skipped (treated as error) : 0
Edge jitter error (maybe fixed) : 0
Atom jitter error (maybe fixed) : 0
Drift error (maybe fixed) : 0
Dropped bytes error (maybe fixed) : 0
Duplicated bytes error (maybe fixed) : 0
Inconsistency in error sectors : 0

Track 08
Filename : /Users/mac/Desktop/08 Alison Moyet - Dido's Lament: When I Am Laid In Earth.flac

Track gain : -5.61 dB
Peak : 0.988739
CRC32 hash (test run) : F0F4D923
CRC32 hash : F0F4D923
CRC32 hash (skip zero) : FF4756BB
AccurateRip signature : BBAC1CA0
->Accurately ripped! (AR2, confidence 5)
Statistics
Read error : 0
Skipped (treated as error) : 0
Edge jitter error (maybe fixed) : 0
Atom jitter error (maybe fixed) : 0
Drift error (maybe fixed) : 0
Dropped bytes error (maybe fixed) : 0
Duplicated bytes error (maybe fixed) : 0
Inconsistency in error sectors : 0

Track 09
Filename : /Users/mac/Desktop/09 Alison Moyet - La Chanson Des Vieux Amants.flac

Track gain : -5.55 dB
Peak : 0.988739
CRC32 hash (test run) : 65BEA695
CRC32 hash : 65BEA695
CRC32 hash (skip zero) : 81665627
AccurateRip signature : A475A07F
->Accurately ripped! (AR2, confidence 5)
Statistics
Read error : 0
Skipped (treated as error) : 0
Edge jitter error (maybe fixed) : 0
Atom jitter error (maybe fixed) : 0
Drift error (maybe fixed) : 0
Dropped bytes error (maybe fixed) : 0
Duplicated bytes error (maybe fixed) : 0
Inconsistency in error sectors : 0

Track 10
Filename : /Users/mac/Desktop/10 Alison Moyet - Cry Me A River.flac
Pre-gap length : 00:00:44

Track gain : -3.88 dB
Peak : 0.988739
CRC32 hash (test run) : 9521F3AF
CRC32 hash : 9521F3AF
CRC32 hash (skip zero) : D88124F0
AccurateRip signature : 72E79A53
->Accurately ripped! (AR2, confidence 5)
Statistics
Read error : 0
Skipped (treated as error) : 0
Edge jitter error (maybe fixed) : 0
Atom jitter error (maybe fixed) : 0
Drift error (maybe fixed) : 0
Dropped bytes error (maybe fixed) : 0
Duplicated bytes error (maybe fixed) : 0
Inconsistency in error sectors : 0

Track 11
Filename : /Users/mac/Desktop/11 Alison Moyet - Bye Bye Blackbird.flac
Pre-gap length : 00:01:67

Track gain : -3.18 dB
Peak : 0.822327
CRC32 hash (test run) : FAF71E81
CRC32 hash : FAF71E81
CRC32 hash (skip zero) : 69F8F056
AccurateRip signature : F68FCF38
->Accurately ripped! (AR2, confidence 5)
Statistics
Read error : 0
Skipped (treated as error) : 0
Edge jitter error (maybe fixed) : 0
Atom jitter error (maybe fixed) : 0
Drift error (maybe fixed) : 0
Dropped bytes error (maybe fixed) : 0
Duplicated bytes error (maybe fixed) : 0
Inconsistency in error sectors : 0

No errors occurred

End of status report

foobar2000 1.2 / Dynamic Range Meter 1.1.1
log date: 2013-04-10 18:41:27

––––––––––––––––––––––––––––––––––––––––
Analyzed: Alison Moyet / Voice
––––––––––––––––––––––––––––––––––––––––

DR Peak RMS Duration Track
––––––––––––––––––––––––––––––––––––––––
DR11 -0.10 dB -13.91 dB 3:51 01-Windmills Of Your Mind
DR12 -0.10 dB -14.08 dB 3:49 02-The Man I Love
DR11 -0.10 dB -14.12 dB 3:53 03-Almost Blue
DR10 -0.10 dB -12.52 dB 3:30 04-Je Crois Entendre Encore
DR12 -0.10 dB -15.15 dB 3:15 05-What Are You Doing The Rest Of Your Life?
DR10 -0.10 dB -13.98 dB 5:37 06-God Give Me Strength
DR11 -0.10 dB -14.22 dB 3:31 07-The Wraggle Taggle Gypsies-O!
DR11 -0.10 dB -14.03 dB 3:21 08-Dido's Lament: When I Am Laid In Earth
DR11 -0.10 dB -14.31 dB 5:09 09-La Chanson Des Vieux Amants
DR12 -0.10 dB -14.75 dB 5:39 10-Cry Me A River
DR11 -1.70 dB -16.15 dB 3:02 11-Bye Bye Blackbird
––––––––––––––––––––––––––––––––––––––––

Number of tracks: 11
Official DR value: DR11

Samplerate: 44100 Hz
Channels: 2
Bits per sample: 16
Bitrate: 738 kbps
Codec: FLAC
================================================================================




Alison Moyet - Studio Albums Collection 1984-2015 (11CD) [Re-Up]

Alison Moyet - Voice (2004) 2CD Deluxe Edition 2015
EAC | FLAC | Image (Cue&Log) ~ 739 Mb | Mp3 (CBR320) ~ 293 Mb | Scans ~ 89 Mb | 02:07:41
Vocal Pop, Vocal Jazz, Pop/Rock, Chanson | Label: Cooking Vinyl | # COOKCD627

With Voice, Alison made a radical diversion and recorded an album of songs by other composers that she loved, with the intention of concentrating on her instrument alone - minus the songwriting she was synonymous for. Voice marked a first for Alison, as it featured a classical orchestra and was produced and arranged by Academy Award winner Anne Dudley. It entered the UK album charts at No.7 and reached gold status, selling a quarter of a million copies. It showcased Moyet's eclectic tastes, and above all - her voice at its best. The Guardian described 'extraordinary tones' and 'flawless' renditions of La Chanson Des Vieux Amants and Bye Bye Blackbird.

Tracklist:

CD1 (48:11) - Voice Album

01. Windmills Of Your Mind (3:52)
02. The Man I Love (3:49)
03. Almost Blue (3:54)
04. Je Crois Entendre Encore (3:30)
05. What Are You Doing The Rest Of Your Life? (3:15)
06. God Give Me Strength (5:37)
07. The Wraggle Taggle Gypsies-O! (3:31)
08. Dido's Lament: When I Am Laid In Earth (3:20)
09. La Chanson Des Vieux Amants (5:09)
10. Cry Me A River (5:38)
11. Bye Bye Blackbird (3:02)
12. Alfie (Bonus Track) (3:35)


CD2 (1:19:30) - One Blue Voice Live

01. Satellite (4:40)
02. Mary, Don’t Keep Me Waiting (3:42)
03. Windmills Of Your Mind (4:02)
04. What Are You Doing The Rest Of Your Life? (3:25)
05. La Chanson Des Vieux Amants (5:29)
06. Almost Blue (3:47)
07. If You Don’t Come Back To Me (4:59)
08. Cry Me A River (4:45)
09. The Wraggle Taggle Gypsies-O! (3:49)
10. God Give Me Strength (5:24)
11. Dido’s Lament: When I Am Laid In Earth (3:51)
12. Momma Momma (4:45)
13. Ski (4:41)
14. This House (3:58)
15. You Don’t Have To Go (4:51)
16. Alfie (Bonus Track) (3:18)
17. Only You (Bonus Track) (3:05)
18. That Ole Devil Called Love (Bonus Track) (3:01)
19. Should I Feel That It’s Over (Bonus Track) (3:56)


Exact Audio Copy V1.3 from 2. September 2016

EAC extraction logfile from 10. June 2017, 23:02

Alison Moyet / Voice

Used drive : PLEXTOR DVDR PX-810SA Adapter: 1 ID: 0

Read mode : Secure
Utilize accurate stream : Yes
Defeat audio cache : Yes
Make use of C2 pointers : No

Read offset correction : 48
Overread into Lead-In and Lead-Out : No
Fill up missing offset samples with silence : Yes
Delete leading and trailing silent blocks : No
Null samples used in CRC calculations : Yes
Used interface : Installed external ASPI interface

Used output format : User Defined Encoder
Selected bitrate : 1024 kBit/s
Quality : Low
Add ID3 tag : No
Command line compressor : C:\Program Files (x86)\Exact Audio Copy\Flac\flac.exe
Additional command line options : -8 -V -T "Date=%year%" -T "Genre=%genre%" -T "COMMENT=ripped by bvstudio®" %source%


TOC of the extracted CD

Track | Start | Length | Start sector | End sector
––––––––––––––––––––––––––––-
1 | 0:00.00 | 3:51.46 | 0 | 17370
2 | 3:51.46 | 3:49.12 | 17371 | 34557
3 | 7:40.58 | 3:53.38 | 34558 | 52070
4 | 11:34.21 | 3:29.66 | 52071 | 67811
5 | 15:04.12 | 3:15.32 | 67812 | 82468
6 | 18:19.44 | 5:36.58 | 82469 | 107726
7 | 23:56.27 | 3:30.44 | 107727 | 123520
8 | 27:26.71 | 3:20.29 | 123521 | 138549
9 | 30:47.25 | 5:08.53 | 138550 | 161702
10 | 35:56.03 | 5:38.33 | 161703 | 187085
11 | 41:34.36 | 3:02.12 | 187086 | 200747
12 | 44:36.48 | 3:34.57 | 200748 | 216854


Range status and errors

Selected range

Filename F:\Alison Moyet\Alison Moyet\2004 - Voice (Deluxe Edition) (2015 - Motley Music Ltd. • Cooking Vinyl Ltd. - UK - COOKCD627)\CD1\Alison Moyet - Voice.wav

Peak level 98.8 %
Extraction speed 6.9 X
Range quality 99.9 %
Test CRC 8264CA24
Copy CRC 8264CA24
Copy OK

No errors occurred


AccurateRip summary

Track 1 accurately ripped (confidence 9) [03DAD54E] (AR v2)
Track 2 accurately ripped (confidence 9) [88F63A09] (AR v2)
Track 3 accurately ripped (confidence 9) [EFC95A6C] (AR v2)
Track 4 accurately ripped (confidence 9) [260807DF] (AR v2)
Track 5 accurately ripped (confidence 9) [BF7854A7] (AR v2)
Track 6 accurately ripped (confidence 9) [04FA2001] (AR v2)
Track 7 accurately ripped (confidence 9) [0A69693F] (AR v2)
Track 8 accurately ripped (confidence 9) [97574B5E] (AR v2)
Track 9 accurately ripped (confidence 9) [246534C2] (AR v2)
Track 10 accurately ripped (confidence 9) [D2A7CC84] (AR v2)
Track 11 accurately ripped (confidence 9) [495EA044] (AR v2)
Track 12 accurately ripped (confidence 9) [C1EC4CB1] (AR v2)

All tracks accurately ripped

End of status report

–– CUETools DB Plugin V2.1.6

[CTDB TOCID: pRjGs0FzZDuusZcnCbuRPir3MXY-] found
Submit result: pRjGs0FzZDuusZcnCbuRPir3MXY- has been confirmed
Track | CTDB Status
1 | (13/13) Accurately ripped
2 | (13/13) Accurately ripped
3 | (13/13) Accurately ripped
4 | (13/13) Accurately ripped
5 | (13/13) Accurately ripped
6 | (13/13) Accurately ripped
7 | (13/13) Accurately ripped
8 | (13/13) Accurately ripped
9 | (13/13) Accurately ripped
10 | (13/13) Accurately ripped
11 | (13/13) Accurately ripped
12 | (13/13) Accurately ripped


==== Log checksum 9FEFF7038580F461E71E48582311AADA071D6F62A35DAFE3CF368960994C14BE ====

foobar2000 1.3.15 / Dynamic Range Meter 1.1.1
log date: 2017-06-10 23:06:18

––––––––––––––––––––––––––––––––––––––––
Analyzed: Alison Moyet / Voice
––––––––––––––––––––––––––––––––––––––––

DR Peak RMS Duration Track
––––––––––––––––––––––––––––––––––––––––
DR11 -0.10 dB -13.97 dB 3:52 01-Windmills Of Your Mind
DR12 -0.10 dB -14.08 dB 3:49 02-The Man I Love
DR11 -0.10 dB -14.12 dB 3:54 03-Almost Blue
DR10 -0.10 dB -12.52 dB 3:30 04-Je Crois Entendre Encore
DR12 -0.10 dB -15.22 dB 3:15 05-What Are You Doing The Rest Of Your Life?
DR10 -0.10 dB -13.98 dB 5:37 06-God Give Me Strength
DR11 -0.10 dB -14.22 dB 3:31 07-The Wraggle Taggle Gypsies-O!
DR11 -0.10 dB -14.03 dB 3:20 08-Dido's Lament: When I Am Laid In Earth
DR11 -0.10 dB -14.31 dB 5:09 09-La Chanson Des Vieux Amants
DR12 -0.10 dB -14.75 dB 5:38 10-Cry Me A River
DR11 -1.70 dB -16.15 dB 3:02 11-Bye Bye Blackbird
DR10 -0.10 dB -14.47 dB 3:35 12-Alfie (Bonus Track)
––––––––––––––––––––––––––––––––––––––––

Number of tracks: 12
Official DR value: DR11

Samplerate: 44100 Hz
Channels: 2
Bits per sample: 16
Bitrate: 767 kbps
Codec: FLAC
================================================================================


Exact Audio Copy V1.3 from 2. September 2016

EAC extraction logfile from 10. June 2017, 23:42

Alison Moyet / One Blue Voice Live

Used drive : PLEXTOR DVDR PX-810SA Adapter: 1 ID: 0

Read mode : Secure
Utilize accurate stream : Yes
Defeat audio cache : Yes
Make use of C2 pointers : No

Read offset correction : 48
Overread into Lead-In and Lead-Out : No
Fill up missing offset samples with silence : Yes
Delete leading and trailing silent blocks : No
Null samples used in CRC calculations : Yes
Used interface : Installed external ASPI interface

Used output format : User Defined Encoder
Selected bitrate : 1024 kBit/s
Quality : Low
Add ID3 tag : No
Command line compressor : C:\Program Files (x86)\Exact Audio Copy\Flac\flac.exe
Additional command line options : -8 -V -T "Date=%year%" -T "Genre=%genre%" -T "COMMENT=ripped by bvstudio®" %source%


TOC of the extracted CD

Track | Start | Length | Start sector | End sector
––––––––––––––––––––––––––––-
1 | 0:00.00 | 4:40.28 | 0 | 21027
2 | 4:40.28 | 3:42.15 | 21028 | 37692
3 | 8:22.43 | 4:02.28 | 37693 | 55870
4 | 12:24.71 | 3:25.24 | 55871 | 71269
5 | 15:50.20 | 5:29.27 | 71270 | 95971
6 | 21:19.47 | 3:46.44 | 95972 | 112965
7 | 25:06.16 | 4:59.34 | 112966 | 135424
8 | 30:05.50 | 4:44.59 | 135425 | 156783
9 | 34:50.34 | 3:48.69 | 156784 | 173952
10 | 38:39.28 | 5:23.55 | 173953 | 198232
11 | 44:03.08 | 3:51.37 | 198233 | 215594
12 | 47:54.45 | 4:45.05 | 215595 | 236974
13 | 52:39.50 | 4:40.41 | 236975 | 258015
14 | 57:20.16 | 3:58.03 | 258016 | 275868
15 | 61:18.19 | 4:51.33 | 275869 | 297726
16 | 66:09.52 | 3:18.26 | 297727 | 312602
17 | 69:28.03 | 3:04.50 | 312603 | 326452
18 | 72:32.53 | 3:01.00 | 326453 | 340027
19 | 75:33.53 | 3:56.03 | 340028 | 357730


Range status and errors

Selected range

Filename F:\Alison Moyet\Alison Moyet\2004 - Voice (Deluxe Edition) (2015 - Motley Music Ltd. • Cooking Vinyl Ltd. - UK - COOKCD627)\CD2\Alison Moyet - One Blue Voice Live.wav

Peak level 96.6 %
Extraction speed 8.2 X
Range quality 100.0 %
Test CRC 79DA3685
Copy CRC 79DA3685
Copy OK

No errors occurred


AccurateRip summary

Track 1 accurately ripped (confidence 9) [8A08333C] (AR v2)
Track 2 accurately ripped (confidence 9) [557B413C] (AR v2)
Track 3 accurately ripped (confidence 9) [AA426BC9] (AR v2)
Track 4 accurately ripped (confidence 9) [62101191] (AR v2)
Track 5 accurately ripped (confidence 9) [2B3D8DE8] (AR v2)
Track 6 accurately ripped (confidence 9) [B4B01A7C] (AR v2)
Track 7 accurately ripped (confidence 9) [AAFCF6B3] (AR v2)
Track 8 accurately ripped (confidence 9) [CABB8B8D] (AR v2)
Track 9 accurately ripped (confidence 9) [13855D5C] (AR v2)
Track 10 accurately ripped (confidence 9) [40BA772D] (AR v2)
Track 11 accurately ripped (confidence 9) [69BA4762] (AR v2)
Track 12 accurately ripped (confidence 9) [61A32E1F] (AR v2)
Track 13 accurately ripped (confidence 9) [0126B409] (AR v2)
Track 14 accurately ripped (confidence 9) [7C685C63] (AR v2)
Track 15 accurately ripped (confidence 9) [24778948] (AR v2)
Track 16 accurately ripped (confidence 9) [8728EB0D] (AR v2)
Track 17 accurately ripped (confidence 9) [FDFDF785] (AR v2)
Track 18 accurately ripped (confidence 9) [DD1B701D] (AR v2)
Track 19 accurately ripped (confidence 9) [7C17156E] (AR v2)

All tracks accurately ripped

End of status report

–– CUETools DB Plugin V2.1.6

[CTDB TOCID: sHtg6f6sowBx0f0r2ZlVmZDnV7I-] found
Submit result: sHtg6f6sowBx0f0r2ZlVmZDnV7I- has been confirmed
Track | CTDB Status
1 | (10/10) Accurately ripped
2 | (10/10) Accurately ripped
3 | (10/10) Accurately ripped
4 | (10/10) Accurately ripped
5 | (10/10) Accurately ripped
6 | (10/10) Accurately ripped
7 | (10/10) Accurately ripped
8 | (10/10) Accurately ripped
9 | (10/10) Accurately ripped
10 | (10/10) Accurately ripped
11 | (10/10) Accurately ripped
12 | (10/10) Accurately ripped
13 | (10/10) Accurately ripped
14 | (10/10) Accurately ripped
15 | (10/10) Accurately ripped
16 | (10/10) Accurately ripped
17 | (10/10) Accurately ripped
18 | (10/10) Accurately ripped
19 | (10/10) Accurately ripped


==== Log checksum 50464EF23B1A70C3A28DD82683A3912FCFF34B13632DAA22C8853767BAE7B947 ====

foobar2000 1.3.15 / Dynamic Range Meter 1.1.1
log date: 2017-06-10 23:53:34

––––––––––––––––––––––––––––––––––––––––
Analyzed: Alison Moyet / One Blue Voice Live
––––––––––––––––––––––––––––––––––––––––

DR Peak RMS Duration Track
––––––––––––––––––––––––––––––––––––––––
DR8 -0.30 dB -11.25 dB 4:40 01-Satellite
DR10 -0.30 dB -12.51 dB 3:42 02-Mary, Don’t Keep Me Waiting
DR10 -0.63 dB -13.97 dB 4:02 03-Windmills Of Your Mind
DR9 -0.48 dB -13.49 dB 3:25 04-What Are You Doing The Rest Of Your Life?
DR10 -1.32 dB -13.62 dB 5:29 05-La Chanson Des Vieux Amants
DR11 -0.30 dB -14.09 dB 3:47 06-Almost Blue
DR7 -0.30 dB -10.57 dB 4:59 07-If You Don’t Come Back To Me
DR10 -1.33 dB -14.37 dB 4:45 08-Cry Me A River
DR10 -1.17 dB -13.74 dB 3:49 09-The Wraggle Taggle Gypsies-O!
DR9 -0.39 dB -11.66 dB 5:24 10-God Give Me Strength
DR8 -0.30 dB -11.60 dB 3:51 11-Dido’s Lament: When I Am Laid In Earth
DR6 -0.30 dB -10.19 dB 4:45 12-Momma Momma
DR10 -0.30 dB -12.53 dB 4:41 13-Ski
DR7 -0.30 dB -10.90 dB 3:58 14-This House
DR7 -0.30 dB -10.57 dB 4:51 15-You Don’t Have To Go
DR10 -0.30 dB -14.49 dB 3:18 16-Alfie (Bonus Track)
DR9 -0.30 dB -13.04 dB 3:05 17-Only You (Bonus Track)
DR11 -0.38 dB -13.00 dB 3:01 18-That Ole Devil Called Love (Bonus Track)
DR7 -0.30 dB -10.12 dB 3:56 19-Should I Feel That It’s Over (Bonus Track)
––––––––––––––––––––––––––––––––––––––––

Number of tracks: 19
Official DR value: DR9

Samplerate: 44100 Hz
Channels: 2
Bits per sample: 16
Bitrate: 833 kbps
Codec: FLAC
================================================================================




Alison Moyet - Studio Albums Collection 1984-2015 (11CD) [Re-Up]

Alison Moyet - The Turn (2007)
EAC | FLAC | Image (Cue&Log) ~ 237 Mb | Mp3 (CBR320) ~ 92 Mb
Label: W14 Music | # 174 9780 | Time: 00:38:32 | Scans ~ 110 Mb

Had Dusty Springfield still been making records in 2007 with her vocal power intact, she might have sounded like Alison Moyet does on Turn. The similarities lie not only in the singing, but also in the material, which mixes orchestrated pop/rock with a blue-eyed soul sensibility. There are important differences, though, chief among them the greater vibrato and stridency in Moyet's vocal delivery. The tracks are in an adult contemporary pop mold that's far above the usual standards for that genre, yet still too mainstream and, in some senses, slick and stiffly executed to find much favor among the hip crowd. It's still aimed at the mature pop market, but songs like "The Man in the Wings" betray a certain theatrical sensibility. As it happens, a few of the songs ("Smaller," the tango-flavored "Home," and "World Without End") were indeed first written (by Moyet and Pete Glenister, who are responsible for all the material on the album) and performed in 2006 for a stage play, Smaller, in which Moyet starred with Dawn French. She does vary her approach substantially throughout the disc, "It's Not the Thing Henry" coming close to funky rock, though moody romantic ruminations usually remain at the core of most of the music.

Review by Richie Unterberger, Allmusic.com

Tracklist:

01. One More Time (03:59)
02. Anytime At All (03:24)
03. The Man In The Wings (04:27)
04. Can't Say It Like I Mean It (05:40)
05. It's Not The Thing Henry (03:40)
06. Fire (03:58)
07. The Sharpest Corner (Hollow) (04:14)
08. World Without End (02:35)
09. Home (02:46)
10. Smaller (03:27)


Exact Audio Copy V1.0 beta 3 from 29. August 2011

EAC extraction logfile from 2. July 2013, 15:34

Alison Moyet / The Turn

Used drive : PIONEER DVD-RW DVR-112D Adapter: 2 ID: 1

Read mode : Secure
Utilize accurate stream : Yes
Defeat audio cache : Yes
Make use of C2 pointers : No

Read offset correction : 48
Overread into Lead-In and Lead-Out : No
Fill up missing offset samples with silence : Yes
Delete leading and trailing silent blocks : No
Null samples used in CRC calculations : Yes
Used interface : Installed external ASPI interface

Used output format : User Defined Encoder
Selected bitrate : 1024 kBit/s
Quality : High
Add ID3 tag : No
Command line compressor : C:\Program Files (x86)\Exact Audio Copy\Flac\flac.exe
Additional command line options : -8 -V -T "Date=%year%" -T "Genre=%genre%" -T "COMMENT=ripped by bvstudio®" %source%


TOC of the extracted CD

Track | Start | Length | Start sector | End sector
––––––––––––––––––––––––––––-
1 | 0:00.00 | 4:00.72 | 0 | 18071
2 | 4:00.72 | 3:26.39 | 18072 | 33560
3 | 7:27.36 | 4:29.26 | 33561 | 53761
4 | 11:56.62 | 5:41.10 | 53762 | 79346
5 | 17:37.72 | 3:42.72 | 79347 | 96068
6 | 21:20.69 | 3:59.23 | 96069 | 114016
7 | 25:20.17 | 4:16.23 | 114017 | 133239
8 | 29:36.40 | 2:38.01 | 133240 | 145090
9 | 32:14.41 | 2:49.34 | 145091 | 157799
10 | 35:04.00 | 3:27.51 | 157800 | 173375


Range status and errors

Selected range

Filename F:\Alison Moyet\2007 - The Turn (2007 - Germany - 174 9780)\Alison Moyet - The Turn.wav

Peak level 100.0 %
Extraction speed 6.5 X
Range quality 99.9 %
Test CRC 7E05FF1B
Copy CRC 7E05FF1B
Copy OK

No errors occurred


AccurateRip summary

Track 1 accurately ripped (confidence 15) [10BB6DC1] (AR v1)
Track 2 accurately ripped (confidence 15) [AC62FECE] (AR v1)
Track 3 accurately ripped (confidence 15) [34CD3AB6] (AR v1)
Track 4 accurately ripped (confidence 16) [03389514] (AR v1)
Track 5 accurately ripped (confidence 16) [74C0AFDA] (AR v1)
Track 6 accurately ripped (confidence 15) [5114A953] (AR v1)
Track 7 accurately ripped (confidence 15) [43CF6180] (AR v1)
Track 8 accurately ripped (confidence 16) [306AFEB0] (AR v1)
Track 9 accurately ripped (confidence 15) [6E980FB9] (AR v1)
Track 10 accurately ripped (confidence 14) [E3B8C718] (AR v1)

All tracks accurately ripped

End of status report

–– CUETools DB Plugin V2.1.5

[CTDB TOCID: a0TLEl.sdx4TIRPSHtIJr9W2.BM-] found
Submit result: a0TLEl.sdx4TIRPSHtIJr9W2.BM- has been confirmed
Track | CTDB Status
1 | (3/3) Accurately ripped
2 | (3/3) Accurately ripped
3 | (3/3) Accurately ripped
4 | (3/3) Accurately ripped
5 | (3/3) Accurately ripped
6 | (3/3) Accurately ripped
7 | (3/3) Accurately ripped
8 | (3/3) Accurately ripped
9 | (3/3) Accurately ripped
10 | (3/3) Accurately ripped


==== Log checksum 575F0D9E3E19C8E9333A720CC0952843CD26EFA783CF7575CAB2DEE407F661D8 ====

foobar2000 1.2.8 / Dynamic Range Meter 1.1.1
log date: 2013-07-02 15:38:10

––––––––––––––––––––––––––––––––––––––––
Analyzed: Alison Moyet / The Turn
––––––––––––––––––––––––––––––––––––––––

DR Peak RMS Duration Track
––––––––––––––––––––––––––––––––––––––––
DR6 -0.08 dB -8.04 dB 4:01 01-One More Time
DR7 -0.03 dB -10.02 dB 3:27 02-Anytime At All
DR10 -0.55 dB -13.87 dB 4:29 03-The Man In The Wings
DR8 -0.04 dB -9.58 dB 5:41 04-Can't Say It Like I Mean It
DR6 -0.09 dB -7.96 dB 3:43 05-It's Not The Thing Henry
DR8 -0.09 dB -11.62 dB 3:59 06-Fire
DR7 -0.07 dB -9.13 dB 4:16 07-The Sharpest Corner (Hollow)
DR11 -0.13 dB -15.78 dB 2:38 08-World Without End
DR6 0.00 dB -8.74 dB 2:49 09-Home
DR9 -0.09 dB -11.63 dB 3:28 10-Smaller
––––––––––––––––––––––––––––––––––––––––

Number of tracks: 10
Official DR value: DR8

Samplerate: 44100 Hz
Channels: 2
Bits per sample: 16
Bitrate: 819 kbps
Codec: FLAC
================================================================================




Alison Moyet - Studio Albums Collection 1984-2015 (11CD) [Re-Up]

Alison Moyet - The Minutes (2013)
EAC | FLAC | Image (Cue&Log) ~ 283 Mb | Mp3 (CBR320) ~ 98 Mb
Label: Motley Music/Cooking Vinyl | # COOKCD585 | Time: 00:40:47 | Scans ~ 106 Mb

After a reunion tour with Yaz and an appearance as Mama Morton in the West End production of the musical Chicago, Alison Moyet released The Minutes, her first recording in six years. Produced and co-conceived with producer Guy Sigsworth (Madonna, Björk, Britney Spears, Alanis Morissette), this set marks the first time Moyet has embraced an entirely electronic palette since the 1980s. And while her electro roots are on full display here, this is not an exercise in nostalgia. The only cuts that remotely suggest Yaz are the jaunty, pulsing "Love Reign Supreme," a song about resilience in the most difficult of times, and "Filigree," with its delicate, barely there ticking rhythm, bubbling, bleepy synthesizers, and only enough structure to carry Moyet's melody home in this lovely, poignant ballad. In spite of her collaboration with a producer whose metier is more often than not dancefloor pop, Moyet proves she is no mere slave to the rhythm (never has been), and as has been her wont, the lyrics are meaty throughout. The record's first single, "When I Was Your Girl," doesn't stray very far from her torch song dramatics, even with its electronic palette – no, those aren't guitars. But check "Changeling" and you'll hear dubstep breakdowns and drops, while "Right as Rain" uses 1990s post-disco and techno to carry its message of unlimited and unconditional devotion to her beloved. "Apple Kisses," with its squelchy basslines and skeletal beats, underscores the erotic bravado in the lyric. "A Place to Stay" commences with a gothic organ and its hint at harder edges, which arrive in the form of an industrial instrumental break, all of it underscoring Moyet the scorched-earth torch singer. Realistically, despite this being an electronic album, she only glances back occasionally. The Minutes is rooted firmly in the present. Lyrically, Moyet has seldom been better, and her voice is simply ageless. Her partnership with Sigsworth is a fine, even seamless fit, making this consistent, and satisfying, top to bottom.

Review by Thom Jurek, Allmusic.com

Tracklist:

01. Horizon Flame (03:39)
02. Changeling (02:57)
03. When I Was Your Girl (03:39)
04. Apple Kisses (03:32)
05. Right As Rain (03:07)
06. Remind Yourself (03:48)
07. Love Reign Supreme (03:45)
08. A Place To Stay (04:03)
09. Filigree (03:44)
10. All Signs Of Life (03:54)
11. Rung By The Tide (04:35)


Exact Audio Copy V1.0 beta 3 from 29. August 2011

EAC extraction logfile from 21. May 2013, 1:02

Alison Moyet / The Minutes

Used drive : PIONEER DVD-RW DVR-112D Adapter: 2 ID: 1

Read mode : Secure
Utilize accurate stream : Yes
Defeat audio cache : Yes
Make use of C2 pointers : No

Read offset correction : 48
Overread into Lead-In and Lead-Out : No
Fill up missing offset samples with silence : Yes
Delete leading and trailing silent blocks : No
Null samples used in CRC calculations : Yes
Used interface : Installed external ASPI interface

Used output format : User Defined Encoder
Selected bitrate : 1024 kBit/s
Quality : High
Add ID3 tag : No
Command line compressor : C:\Program Files (x86)\Exact Audio Copy\Flac\flac.exe
Additional command line options : -8 -V -T "Date=%year%" -T "Genre=%genre%" -T "COMMENT=ripped by bvstudio®" %source%


TOC of the extracted CD

Track | Start | Length | Start sector | End sector
––––––––––––––––––––––––––––-
1 | 0:00.00 | 3:39.15 | 0 | 16439
2 | 3:39.15 | 2:57.64 | 16440 | 29778
3 | 6:37.04 | 3:39.20 | 29779 | 46223
4 | 10:16.24 | 3:32.27 | 46224 | 62150
5 | 13:48.51 | 3:07.44 | 62151 | 76219
6 | 16:56.20 | 3:48.09 | 76220 | 93328
7 | 20:44.29 | 3:45.40 | 93329 | 110243
8 | 24:29.69 | 4:03.19 | 110244 | 128487
9 | 28:33.13 | 3:44.53 | 128488 | 145340
10 | 32:17.66 | 3:54.44 | 145341 | 162934
11 | 36:12.35 | 4:35.26 | 162935 | 183585


Range status and errors

Selected range

Filename F:\LOSSLESS UPLOADS\Alison Moyet\2013 - The Minutes\Alison Moyet - The Minutes.wav

Peak level 97.9 %
Extraction speed 6.5 X
Range quality 99.9 %
Test CRC 457C1F99
Copy CRC 457C1F99
Copy OK

No errors occurred


AccurateRip summary

Track 1 not present in database
Track 2 not present in database
Track 3 not present in database
Track 4 not present in database
Track 5 not present in database
Track 6 not present in database
Track 7 not present in database
Track 8 not present in database
Track 9 not present in database
Track 10 not present in database
Track 11 not present in database

None of the tracks are present in the AccurateRip database

End of status report

–– CUETools DB Plugin V2.1.5

[CTDB TOCID: GBRwSuvA7R6XRohMz2g1LknZj0c-] found
Submit result: GBRwSuvA7R6XRohMz2g1LknZj0c- has been confirmed
Track | CTDB Status
1 | (9/9) Accurately ripped
2 | (9/9) Accurately ripped
3 | (9/9) Accurately ripped
4 | (9/9) Accurately ripped
5 | (9/9) Accurately ripped
6 | (9/9) Accurately ripped
7 | (9/9) Accurately ripped
8 | (9/9) Accurately ripped
9 | (9/9) Accurately ripped
10 | (9/9) Accurately ripped
11 | (9/9) Accurately ripped


==== Log checksum 16CD01FFEB592A8B3B717D9328F87C994B856D7BF6A91010230E713A7F5D09C1 ====

foobar2000 1.2.6 / Dynamic Range Meter 1.1.1
log date: 2013-05-21 01:54:11

––––––––––––––––––––––––––––––––––––––––
Analyzed: Alison Moyet / The Minutes
––––––––––––––––––––––––––––––––––––––––

DR Peak RMS Duration Track
––––––––––––––––––––––––––––––––––––––––
DR8 -0.18 dB -9.92 dB 3:39 01-Horizon Flame
DR7 -0.78 dB -10.08 dB 2:58 02-Changeling
DR7 -0.20 dB -9.62 dB 3:39 03-When I Was Your Girl
DR6 -0.18 dB -8.92 dB 3:32 04-Apple Kisses
DR8 -0.18 dB -8.81 dB 3:08 05-Right As Rain
DR7 -0.18 dB -9.55 dB 3:48 06-Remind Yourself
DR7 -0.78 dB -10.39 dB 3:46 07-Love Reign Supreme
DR8 -0.78 dB -10.87 dB 4:03 08-A Place To Stay
DR9 -0.18 dB -10.94 dB 3:45 09-Filigree
DR7 -0.18 dB -10.37 dB 3:55 10-All Signs Of Life
DR8 -0.20 dB -11.70 dB 4:35 11-Rung By The Tide
––––––––––––––––––––––––––––––––––––––––

Number of tracks: 11
Official DR value: DR7

Samplerate: 44100 Hz
Channels: 2
Bits per sample: 16
Bitrate: 926 kbps
Codec: FLAC
================================================================================





All thanks to original releasers: Patriarch40 for 'Voice', and bvstudio for all other albums

More interesting music in My Blog