Allan Holdsworth - Flat Tire: Music for a Non-Existent Movie (2001)

Posted By: v3122
Allan Holdsworth - Flat Tire: Music for a Non-Existent Movie (2001)

Allan Holdsworth - Flat Tire: Music for a Non-Existent Movie (2001)
EAC | Flac(Image) + Cue + Log & MP3 CBR 320Kbps
Megazoidal Records, CDMZ013 | ~ 244 or 112 Mb | Scans(jpg) -> 42 Mb
Fusion / Free Jazz

Flat Tire is a departure in that it is Allan Holdsworth's first unaccompanied record, executed with the Synthaxe guitar synthesizer. Holdsworth uses the instrument not only to play basslines, string- and choir-like chord swells, and quicksilver single-note lines, but also to trigger drum patches. The result is more of a one-man band effect than a solo guitar performance. Some of the synth sounds are quite reminiscent of his 1987 album Sand. The music is a bit static and repetitive overall, particularly on tracks like "Please Hold On," "So Long," and "Don't You Know," during which single lines flutter over subtly shifting rubato harmonies. The brassy chords that surface during "The Duplicate Man" are perhaps the best example of Holdsworth's sonic creativity. More varied and rewarding are the tempo-based tracks, particularly "Eeny Meeny" and "Bo Peep," both of which feature bassist Dave Carpenter, who played on 2000's excellent The Sixteen Men of Tain. Other highlights include the quasi-African percussion collage of "Snow Moon" and the steady groove and syncopations of "Curves." Certainly not the best introduction to Holdsworth's music, but his die-hard fans will want to pay it close attention.

by David R. Adler, AMG
Allan Holdsworth - Flat Tire: Music for a Non-Existent Movie (2001)


Allan Holdsworth - Flat Tire: Music for a Non-Existent Movie (2001):

Allan Holdsworth - Flat Tire: Music for a Non-Existent Movie (2001)


Tracklist:

01. The Duplicate Man (Intro) 1:52
02. The Duplicate Man 4:42
03. Eeny Meeny 4:48
04. Please Hold On 4:01
05. Snow Moon 8:04
06. Curves 5:36
07. So Long 5:31
08. Bo Peep 3:47
09. Don't You Know? 9:12

Musicians:

- Allan Holdsworth / guitar, synthaxe
- Dave Carpenter / acoustic bass (Tracks 3 & 8)


Exact Audio Copy V1.0 beta 3 from 29. August 2011

EAC extraction logfile from 7. November 2012, 16:47

Allan Holdsworth / Flat Tire: Music for a Non-Existent Movie

Used drive : HL-DT-STBDDVDRW GBC-H20N Adapter: 1 ID: 0

Read mode : Secure
Utilize accurate stream : Yes
Defeat audio cache : Yes
Make use of C2 pointers : No

Read offset correction : 667
Overread into Lead-In and Lead-Out : No
Fill up missing offset samples with silence : Yes
Delete leading and trailing silent blocks : No
Null samples used in CRC calculations : Yes
Used interface : Native Win32 interface for Win NT & 2000

Used output format : User Defined Encoder
Selected bitrate : 1024 kBit/s
Quality : High
Add ID3 tag : No
Command line compressor : C:\Program Files\Exact Audio Copy\wavpack.exe
Additional command line options : -hm %source% %dest%


TOC of the extracted CD

Track | Start | Length | Start sector | End sector
––––––––––––––––––––––––––––-
1 | 0:00.00 | 1:52.29 | 0 | 8428
2 | 1:52.29 | 4:41.59 | 8429 | 29562
3 | 6:34.13 | 4:48.32 | 29563 | 51194
4 | 11:22.45 | 4:01.00 | 51195 | 69269
5 | 15:23.45 | 8:04.04 | 69270 | 105573
6 | 23:27.49 | 5:35.48 | 105574 | 130746
7 | 29:03.22 | 5:31.36 | 130747 | 155607
8 | 34:34.58 | 3:46.53 | 155608 | 172610
9 | 38:21.36 | 9:12.18 | 172611 | 214028


Range status and errors

Selected range

Filename C:\Users\ProgDog\Music\ZALIVKI\Allan Holdsworth\Studio albums\2001 - Flat Tire Music for a Non-Existent Movie\Allan Holdsworth - Flat Tire- Music for a Non-Existent Movie.wav

Peak level 98.4 %
Extraction speed 4.5 X
Range quality 100.0 %
Test CRC 1437951F
Copy CRC 1437951F
Copy OK

No errors occurred


AccurateRip summary

Track 1 accurately ripped (confidence 8) [08A0FC27] (AR v1)
Track 2 accurately ripped (confidence 8) [EFB1BB4B] (AR v1)
Track 3 accurately ripped (confidence 8) [639AA3AE] (AR v1)
Track 4 accurately ripped (confidence 8) [4A5D984C] (AR v1)
Track 5 accurately ripped (confidence 8) [B306801F] (AR v1)
Track 6 accurately ripped (confidence 8) [82CA4309] (AR v1)
Track 7 accurately ripped (confidence 8) [4796D639] (AR v1)
Track 8 accurately ripped (confidence 8) [1C24BFCA] (AR v1)
Track 9 accurately ripped (confidence 8) [FEE89825] (AR v1)

All tracks accurately ripped

End of status report

–– CUETools DB Plugin V2.1.3

[CTDB TOCID: 5Qrcem4COnyWTlO_J2oiJQbzjYM-] found, Submit result: 5Qrcem4COnyWTlO_J2oiJQbzjYM- has been confirmed
[b4e75def] (9/9) Accurately ripped


==== Log checksum 8F167EBD844A8305C65EBAE7ABE7E2A433A1237C57523D6C535886BAF5791CFB ====

foobar2000 1.2.9 / Dynamic Range Meter 1.1.1
log date: 2016-01-14 13:56:39

––––––––––––––––––––––––––––––––––––––––
Analyzed: Allan Holdsworth / Flat Tire: Music for a Non-Existent Movie
––––––––––––––––––––––––––––––––––––––––

DR Peak RMS Duration Track
––––––––––––––––––––––––––––––––––––––––
DR9 -1.75 dB -13.71 dB 1:52 01-The Duplicate Man (Intro)
DR9 -0.14 dB -12.76 dB 4:42 02-The Duplicate Man
DR11 -0.69 dB -13.33 dB 4:48 03-Eeny Meeny
DR12 -2.73 dB -17.32 dB 4:01 04-Please Hold On
DR11 -0.47 dB -14.32 dB 8:04 05-Snow Moon
DR10 -0.14 dB -12.23 dB 5:36 06-Curves
DR11 -1.36 dB -16.06 dB 5:31 07-So Long
DR11 -0.17 dB -13.25 dB 3:47 08-Bo Peep
DR11 -0.63 dB -15.34 dB 9:12 09-Don't You Know?
––––––––––––––––––––––––––––––––––––––––

Number of tracks: 9
Official DR value: DR11

Samplerate: 44100 Hz
Channels: 2
Bits per sample: 16
Bitrate: 695 kbps
Codec: FLAC

[CUETools log; Date: 14.01.2016 13:56:55; Version: 2.1.4]
[CTDB TOCID: 5Qrcem4COnyWTlO_J2oiJQbzjYM-] found.
Track | CTDB Status
1 | (6/6) Accurately ripped
2 | (6/6) Accurately ripped
3 | (6/6) Accurately ripped
4 | (6/6) Accurately ripped
5 | (6/6) Accurately ripped
6 | (6/6) Accurately ripped
7 | (6/6) Accurately ripped
8 | (6/6) Accurately ripped
9 | (6/6) Accurately ripped
[AccurateRip ID: 000e4c42-006d0244-720b2509] found.
Track [ CRC | V2 ] Status
01 [08a0fc27|360246b6] (08+03/11) Accurately ripped
02 [efb1bb4b|612691be] (08+03/11) Accurately ripped
03 [639aa3ae|5a293748] (08+03/11) Accurately ripped
04 [4a5d984c|566bea1f] (08+03/11) Accurately ripped
05 [b306801f|36c94be0] (08+03/11) Accurately ripped
06 [82ca4309|63a827d8] (08+03/11) Accurately ripped
07 [4796d639|19904f14] (08+03/11) Accurately ripped
08 [1c24bfca|8266c685] (08+03/11) Accurately ripped
09 [fee89825|6456ee10] (08+03/11) Accurately ripped

Track Peak [ CRC32 ] [W/O NULL] [ LOG ]
– 98,4 [1437951F] [E63CBB73] CRC32
01 81,7 [58CFF5B3] [40FE8479]
02 98,4 [287BCF5F] [FC570B10]
03 92,3 [387C22A5] [FA862B49]
04 73,0 [E394EA2B] [40BBC745]
05 94,7 [139A80C2] [D9D99235]
06 98,4 [E98A9DF3] [6BF86CCC]
07 85,5 [6CF8C67B] [AB5B2A52]
08 98,0 [F6B2F6F8] [61E09F31]
09 93,0 [4F6747D5] [90B718DD]

Allan Holdsworth - Flat Tire: Music for a Non-Existent Movie (2001)

All thanks go to AD's

Allan Holdsworth in my Blog

Download Allan Holdsworth - Flat Tire: Music for a Non-Existent Movie (2001):