Allan Holdsworth - The Sixteen Men of Tain (2000)

Posted By: v3122
Allan Holdsworth - The Sixteen Men of Tain (2000)

Allan Holdsworth - The Sixteen Men of Tain (2000)
EAC | Flac(Image) + Cue + Log & MP3 CBR 320Kbps
Cream Records, JMS 18713-2 | ~ 289 or 106 Mb | Scans(jpg) -> 32 Mb
Fusion / Free Jazz / Jazz-Rock

Coming on the heels of some rather mediocre efforts, The Sixteen Men of Tain is startlingly superb. Holdsworth has stripped away the distracting banks of keyboards and allowed his soaring, gliding guitar to shine through in a way it hasn't since the 1980s. Even the Synthaxe, Holdsworth's signature guitar synthesizer, sounds organic and immediate, not to mention far less prevalent than on previous albums. Dave Carpenter's acoustic bass is a radical departure (check out his solo on the title track), as are Walt Fowler's two guest appearances on trumpet. "The Drums Were Yellow," a burning guitar/drum duet tribute to the late Tony Williams, is also a first. Gary Novak's drumming is appropriately complex and riveting on this and six other tracks. (Holdsworth's old compatriot Chad Wackerman sits in for "Downside Up.") In short, this album is full of fresh ideas and unadulterated improvisational brilliance – just when it was beginning to seem that Holdsworth's best work was behind him.

by David R. Adler, AMG
Allan Holdsworth - The Sixteen Men of Tain (2000)


Allan Holdsworth - The Sixteen Men of Tain (2000):

Allan Holdsworth - The Sixteen Men of Tain (2000)

Tracklist:

01. 0274 7:46
02. The Sixteen Men Of Tain 6:26
03. Above And Below 3:09
04. The Drums Were Yellow 5:58
05. Texas 5:45
06. Downside Up 7:07
07. Eidolon 4:37
08. Above And Below (Reprise) 4:07

Musicians:

- Allan Holdsworth / guitar, synthaxe
- Dave Carpenter / acoustic bass, electric bass
- Walt Fowler / trumpet (tracks 1 & 5)
- Gary Novak / drums
- Chad Wackerman / drums (track 6)


Exact Audio Copy V1.0 beta 3 from 29. August 2011

EAC extraction logfile from 7. November 2012, 16:21

Allan Holdsworth / The Sixteen Men of Tain

Used drive : HL-DT-STBDDVDRW GBC-H20N Adapter: 1 ID: 0

Read mode : Secure
Utilize accurate stream : Yes
Defeat audio cache : Yes
Make use of C2 pointers : No

Read offset correction : 667
Overread into Lead-In and Lead-Out : No
Fill up missing offset samples with silence : Yes
Delete leading and trailing silent blocks : No
Null samples used in CRC calculations : Yes
Used interface : Native Win32 interface for Win NT & 2000

Used output format : User Defined Encoder
Selected bitrate : 1024 kBit/s
Quality : High
Add ID3 tag : No
Command line compressor : C:\Program Files\Exact Audio Copy\wavpack.exe
Additional command line options : -hm %source% %dest%


TOC of the extracted CD

Track | Start | Length | Start sector | End sector
––––––––––––––––––––––––––––-
1 | 0:00.00 | 7:46.07 | 0 | 34956
2 | 7:46.07 | 6:26.23 | 34957 | 63929
3 | 14:12.30 | 3:08.40 | 63930 | 78069
4 | 17:20.70 | 5:57.72 | 78070 | 104916
5 | 23:18.67 | 5:44.50 | 104917 | 130766
6 | 29:03.42 | 7:07.00 | 130767 | 162791
7 | 36:10.42 | 4:36.55 | 162792 | 183546
8 | 40:47.22 | 4:06.55 | 183547 | 202051


Range status and errors

Selected range

Filename C:\Users\ProgDog\Music\ZALIVKI\Allan Holdsworth\Studio albums\2000 - The Sixteen Men of Tain\Allan Holdsworth - The Sixteen Men of Tain.wav

Peak level 99.0 %
Extraction speed 5.8 X
Range quality 100.0 %
Test CRC 35854BCD
Copy CRC 35854BCD
Copy OK

No errors occurred


AccurateRip summary

Track 1 cannot be verified as accurate (confidence 28) [570E3F75], AccurateRip returned [9626D2BC] (AR v2)
Track 2 cannot be verified as accurate (confidence 28) [3BEECEF4], AccurateRip returned [9FF729D3] (AR v2)
Track 3 cannot be verified as accurate (confidence 28) [BCFCF107], AccurateRip returned [F5D10F09] (AR v2)
Track 4 cannot be verified as accurate (confidence 28) [DAF30D57], AccurateRip returned [7AA0D134] (AR v2)
Track 5 cannot be verified as accurate (confidence 28) [193182AE], AccurateRip returned [6A3BADE9] (AR v2)
Track 6 cannot be verified as accurate (confidence 28) [C17BF2A8], AccurateRip returned [89CA7BB4] (AR v2)
Track 7 cannot be verified as accurate (confidence 28) [9F9FAEE2], AccurateRip returned [C6435E07] (AR v2)
Track 8 cannot be verified as accurate (confidence 27) [ACDBBE1F], AccurateRip returned [18C17D49] (AR v2)

No tracks could be verified as accurate
You may have a different pressing from the one(s) in the database

End of status report

–– CUETools DB Plugin V2.1.3

[CTDB TOCID: KAJRgDSpa6vnXCT2NgJ0dkzWKAY-] found, Submit result: KAJRgDSpa6vnXCT2NgJ0dkzWKAY- has been confirmed
[fd548799] (3/3) Accurately ripped


==== Log checksum 4B02B9F753CF051D47C31E183F104180E8D1E8C5EED7E3C0CE474573F43D1449 ====

foobar2000 1.2.9 / Dynamic Range Meter 1.1.1
log date: 2016-01-09 15:32:29

––––––––––––––––––––––––––––––––––––––––
Analyzed: Allan Holdsworth / The Sixteen Men of Tain
––––––––––––––––––––––––––––––––––––––––

DR Peak RMS Duration Track
––––––––––––––––––––––––––––––––––––––––
DR8 -0.09 dB -11.62 dB 7:46 01-0274
DR8 -0.09 dB -10.53 dB 6:26 02-The Sixteen Men Of Tain
DR10 -0.09 dB -12.64 dB 3:09 03-Above And Below
DR8 -0.09 dB -10.40 dB 5:58 04-The Drums Were Yellow
DR8 -0.09 dB -9.88 dB 5:45 05-Texas
DR8 -0.08 dB -9.62 dB 7:07 06-Downside Up
DR9 -0.09 dB -11.90 dB 4:37 07-Eidolon
DR11 -0.10 dB -14.26 dB 4:07 08-Above And Below (Reprise)
––––––––––––––––––––––––––––––––––––––––

Number of tracks: 8
Official DR value: DR9

Samplerate: 44100 Hz
Channels: 2
Bits per sample: 16
Bitrate: 872 kbps
Codec: FLAC

[CUETools log; Date: 09.01.2016 15:32:37; Version: 2.1.4]
[CTDB TOCID: KAJRgDSpa6vnXCT2NgJ0dkzWKAY-] found.
Track | CTDB Status
1 | (18/18) Accurately ripped
2 | (18/18) Accurately ripped
3 | (18/18) Accurately ripped
4 | (18/18) Accurately ripped
5 | (18/18) Accurately ripped
6 | (18/18) Accurately ripped
7 | (18/18) Accurately ripped
8 | (17/18) Accurately ripped
[AccurateRip ID: 000eaa08-006046b8-610a8608] found.
Track [ CRC | V2 ] Status
01 [bcf94946|570e3f75] (00+00/44) No match
02 [ee21ab77|3beecef4] (00+00/44) No match
03 [a2a2a417|bcfcf107] (00+00/44) No match
04 [c728a91c|daf30d57] (00+00/44) No match
05 [5281f395|193182ae] (00+00/44) No match
06 [2aa25200|c17bf2a8] (00+00/44) No match
07 [0dea6bf9|9f9faee2] (00+00/44) No match
08 [02381b04|acdbbe1f] (00+00/43) No match
Offsetted by 18:
01 [9626d2bc] (28/44) Accurately ripped
02 [9ff729d3] (28/44) Accurately ripped
03 [f5d10f09] (28/44) Accurately ripped
04 [7aa0d134] (28/44) Accurately ripped
05 [6a3bade9] (28/44) Accurately ripped
06 [89ca7bb4] (28/44) Accurately ripped
07 [c6435e07] (28/44) Accurately ripped
08 [18c17d49] (27/43) Accurately ripped

Track Peak [ CRC32 ] [W/O NULL] [ LOG ]
– 99,0 [35854BCD] [6D94E77D] CRC32
01 98,9 [A79EC807] [69185E89]
02 99,0 [295EE27F] [CAB2DA3B]
03 98,9 [7BF41454] [0D9E8649]
04 99,0 [94B1F562] [81799F69]
05 99,0 [A1756540] [2ABB6CDF]
06 99,0 [E747A7EB] [F8172611]
07 99,0 [8B72296D] [AB70C2C0]
08 98,8 [2822CF78] [EE33CF36]

Allan Holdsworth - The Sixteen Men of Tain (2000)

All thanks go to AD's

Allan Holdsworth in my Blog

Download Allan Holdsworth - The Sixteen Men of Tain (2000):