Allan Holdsworth - I.O.U Live (1997)

Posted By: v3122
Allan Holdsworth - I.O.U Live (1997)

Allan Holdsworth - I.O.U Live (1997)
EAC | Flac(Image) + Cue + Log & MP3 CBR 320Kbps
Outer Music, OM-1003 | ~ 428 or 135 Mb | Scans(jpg) -> 46 Mb
Fusion / Free Jazz / Jazz-Rock

I.O.U. Live is a live album by guitarist Allan Holdsworth, released in 1997 through Cleopatra Records. According to Holdsworth, the tracks were taken from video footage of a 1984 concert in Japan, which later became a bootleg circulating under the name of Tokyo Dream: Allan Holdsworth in Japan. He therefore considers it an unauthorised release and not part of his discography.

~ wiki
Allan Holdsworth - I.O.U Live (1997)


Allan Holdsworth - I.O.U Live (1997):

Allan Holdsworth - I.O.U Live (1997)

Tracklist:

01. Road Games 4:26
02. White Line 7:02
03. Panic Station 4:15
04. Letters Of Marque 6:42
05. Material Real 7:30
06. Metal Fatigue 5:11
07. Where Is One? 8:03
08. The Things You See 7:02
09. Was There (Something)? 6:59

Musicians:

- Allan Holdsworth / guitar
- Jimmy Johnson / bass
- Chad Wackerman / drums
- Paul Williams / vocals


Exact Audio Copy V1.0 beta 3 from 29. August 2011

EAC extraction logfile from 7. November 2012, 18:15

Allan Holdsworth / I.O.U Live

Used drive : HL-DT-STBDDVDRW GBC-H20N Adapter: 1 ID: 0

Read mode : Secure
Utilize accurate stream : Yes
Defeat audio cache : Yes
Make use of C2 pointers : No

Read offset correction : 667
Overread into Lead-In and Lead-Out : No
Fill up missing offset samples with silence : Yes
Delete leading and trailing silent blocks : No
Null samples used in CRC calculations : Yes
Used interface : Native Win32 interface for Win NT & 2000

Used output format : User Defined Encoder
Selected bitrate : 1024 kBit/s
Quality : High
Add ID3 tag : No
Command line compressor : C:\Program Files\Exact Audio Copy\wavpack.exe
Additional command line options : -hm %source% %dest%


TOC of the extracted CD

Track | Start | Length | Start sector | End sector
––––––––––––––––––––––––––––-
1 | 0:00.00 | 4:25.54 | 0 | 19928
2 | 4:25.54 | 7:01.49 | 19929 | 51552
3 | 11:27.28 | 4:14.68 | 51553 | 70670
4 | 15:42.21 | 6:41.50 | 70671 | 100795
5 | 22:23.71 | 7:30.04 | 100796 | 134549
6 | 29:54.00 | 5:10.49 | 134550 | 157848
7 | 35:04.49 | 8:02.52 | 157849 | 194050
8 | 43:07.26 | 7:01.60 | 194051 | 225685
9 | 50:09.11 | 6:58.45 | 225686 | 257080


Range status and errors

Selected range

Filename C:\Users\ProgDog\Music\ZALIVKI\Allan Holdsworth\Live albums\1997 - I.O.U. Live\Allan Holdsworth - I.O.U Live.wav

Peak level 95.3 %
Extraction speed 6.2 X
Range quality 100.0 %
Test CRC F47E27D6
Copy CRC F47E27D6
Copy OK

No errors occurred


AccurateRip summary

Track 1 accurately ripped (confidence 3) [1452D3BB] (AR v1)
Track 2 accurately ripped (confidence 3) [3E101A20] (AR v1)
Track 3 accurately ripped (confidence 3) [D919FF34] (AR v1)
Track 4 accurately ripped (confidence 3) [4A22001D] (AR v1)
Track 5 accurately ripped (confidence 3) [1A21C8F3] (AR v1)
Track 6 accurately ripped (confidence 3) [27FBFD36] (AR v1)
Track 7 accurately ripped (confidence 3) [3D23228A] (AR v1)
Track 8 accurately ripped (confidence 3) [8B2F485D] (AR v1)
Track 9 accurately ripped (confidence 3) [032ADAD8] (AR v1)

All tracks accurately ripped

End of status report

–– CUETools DB Plugin V2.1.3

[CTDB TOCID: yBZC0gLEVRMDBjKgrEaDv2OeAD0-] disk not present in database, Submit result: yBZC0gLEVRMDBjKgrEaDv2OeAD0- has been uploaded


==== Log checksum 628651EEA2741D438F5ACFB1E8E5CED419F4DBC7DF112001C0C3F53EF23A22F0 ====

foobar2000 1.2.9 / Dynamic Range Meter 1.1.1
log date: 2016-01-06 17:36:26

––––––––––––––––––––––––––––––––––––––––
Analyzed: Allan Holdsworth / I.O.U Live
––––––––––––––––––––––––––––––––––––––––

DR Peak RMS Duration Track
––––––––––––––––––––––––––––––––––––––––
DR13 -0.42 dB -16.53 dB 4:26 01-Road Games
DR13 -1.23 dB -17.54 dB 7:02 02-White Line
DR13 -2.48 dB -18.49 dB 4:15 03-Panic Station
DR12 -2.58 dB -17.66 dB 6:42 04-Letters Of Marque
DR14 -2.26 dB -21.95 dB 7:30 05-Material Real
DR13 -1.08 dB -18.12 dB 5:11 06-Metal Fatigue
DR13 -3.48 dB -20.14 dB 8:03 07-Where Is One?
DR12 -3.07 dB -19.17 dB 7:02 08-The Things You See
DR13 -1.87 dB -18.92 dB 6:59 09-Was There (Something)?
––––––––––––––––––––––––––––––––––––––––

Number of tracks: 9
Official DR value: DR13

Samplerate: 44100 Hz
Channels: 2
Bits per sample: 16
Bitrate: 827 kbps
Codec: FLAC

[CUETools log; Date: 06.01.2016 4:06:34; Version: 2.1.4]
[AccurateRip ID: 00127f06-008a0f09-830d6309] found.
Track [ CRC | V2 ] Status
01 [1452d3bb|baea98e8] (03+07/10) Accurately ripped
02 [3e101a20|6d945aae] (03+07/10) Accurately ripped
03 [d919ff34|62bc4928] (03+07/10) Accurately ripped
04 [4a22001d|1e27e71f] (03+07/10) Accurately ripped
05 [1a21c8f3|708ab588] (03+07/10) Accurately ripped
06 [27fbfd36|d62d5674] (03+07/10) Accurately ripped
07 [3d23228a|389a5f2a] (03+07/10) Accurately ripped
08 [8b2f485d|a569a336] (03+07/10) Accurately ripped
09 [032adad8|8aab7236] (03+07/10) Accurately ripped

Track Peak [ CRC32 ] [W/O NULL] [ LOG ]
– 95,3 [F47E27D6] [3C620A3E] CRC32
01 95,3 [4B0933C0] [90AD177F]
02 86,8 [2142B7B0] [AE1BF9DC]
03 75,1 [F43DE0CE] [20EE87FC]
04 74,2 [3698A834] [602EBE54]
05 77,0 [4395DAB4] [8D51C2A0]
06 88,2 [AADEAC91] [08455000]
07 66,9 [73424424] [F46BB5BC]
08 70,2 [3DDE6228] [61C026EA]
09 80,6 [8A4611DC] [9891B28C]

Allan Holdsworth - I.O.U Live (1997)

All thanks go to AD's

Allan Holdsworth in my Blog

Download Allan Holdsworth - I.O.U Live (1997):