Subcategories
Tags
Language
Tags

Allan Taylor - Colour To The Moon (2000)

Posted By: popsakov
Allan Taylor - Colour To The Moon (2000)

Allan Taylor - Colour To The Moon (2000)
EAC Rip | FLAC (Img) + Cue + Log ~ 337 Mb | MP3 CBR320 ~ 160 Mb
Full Scans | 00:48:45 | RAR 5% Recovery
Folk, Folk Rock, Acoustic | Stockfisch Records #SFR 357.6021.2

Allan Taylor is one of England's most-respected singer/songwriters. His songs have been covered by artists on both sides of the Atlantic, including Don Williams, Frankie Miller, Fairport Convention, Dick Gaughan, the McCalmans, the Fureys, the Clancy Brothers, and De Dannan. Folk Roots praised him for his "ability to crystallize a mood and evoke an era with the ease of a computer memory access, crafting perfect songs with dramatic changes in the spirit of Brecht, Bikel, and Brel." The Oxford Book of Traditional Verse felt as strongly, writing that Taylor was "one of the most literate and sensitive of contemporary songwriters in terms of words and music and one who is capable of exploring more complex subjects than most of his contemporaries." Inspired by the folk revival that swept the United Kingdom in the mid-'60s, Taylor left school at the age of 16 to run a local folk club. Stepping out as a professional musician five years later, he was greatly supported by members of Fairport Convention. Their friendship was cemented when he toured as opening act for the group's national tour. His 1971 debut album, Sometimes, featured instrumental accompaniment from Fairport's drummer Dave Mattacks, fiddler Dave Swarbrick, and bassist Dave Pegg. Moving to New York in 1972, Taylor recorded The American Album with Nashville and Los Angeles session players. He remained in the United States through 1974. Returning to England, Taylor formed a group, Cajun Moon, featuring fiddler Brian Golbey and keyboard player Jon Gillaspie, to perform American folk and roots music. Signed by Chrysalis in May 1976 following a tour with Steeleye Span, the future seemed secure for Taylor and the group. Their dreams faded, however, when Taylor damaged his vocal cords and was forced to rest for three months. The hiatus put an end to the band's momentum. By the time he had healed from surgery and was ready to return, the group had folded. Resuming his solo career, Taylor signed a publishing deal with Chrysalis and a recording deal with Rubber Records. His first new album, The Traveller, featured instrumental backing by melodeon and accordion player John Kirkpatrick. The album received the Grand Prix du Disque de Montreux for Best European Folk Album in 1980. Taylor spent much of the '80s and early '90s as a student. Although he continued to record, much of his focus was devoted to his studies. He received a bachelor's degree from Leeds University in 1983, a master's from Lancaster University in 1985, and a doctorate from Queens University in Belfast in 1993. His thesis explored the creative process and the power and aesthetics of song.

~ Craig Harris, All Music
Allan Taylor - Colour To The Moon (2000)


***************

Allan Taylor - Colour To The Moon (2000)

Track List:

01. Kerouac's Dream [03:58]
02. A House By The River [02:43]
03. A Road Too Long [04:09]
04. Back Again [03:27]
05. Notes From Paris [04:50]
06. Wheel Of Fortune [03:49]
07. Brighton Beach [04:26]
08. Colour To The Moon [04:35]
09. Creole Girl [06:20]
10. Whatever The Way [03:33]
11. Crazy Amsterdam [03:35]
12. Scotty [03:24]

Exact Audio Copy V1.0 beta 3 from 29. August 2011

Отчёт EAC об извлечении, выполненном 24. апреля 2013, 23:22

Allan Taylor / Colour to the Moon

Дисковод: SlimtypeDVD A DS8A8SH Adapter: 0 ID: 1

Режим чтения : Достоверность
Использование точного потока : Да
Отключение кэша аудио : Да
Использование указателей C2 : Нет

Коррекция смещения при чтении : 6
Способность читать области Lead-in и Lead-out : Нет
Заполнение пропущенных сэмплов тишиной : Да
Удаление блоков с тишиной в начале и конце : Нет
При вычислениях CRC использовались нулевые сэмплы : Да
Интерфейс : Встроенный Win32-интерфейс для Win NT/2000

Выходной формат : Пользовательский кодировщик
Выбранный битрейт : 768 kBit/s
Качество : Высокий
Добавление ID3-тега : Нет
Утилита сжатия : C:\Program Files (x86)\Exact Audio Copy\Flac\flac.exe
Дополнительные параметры : -V -8 -T "Date=%year%" -T "Genre=%genre%" %source%


TOC извлечённого CD

Трек | Старт | Длительность | Начальный сектор | Конечный сектор
––––––––––––––––––––––––––––––––––-
1 | 0:00.00 | 3:57.55 | 0 | 17829
2 | 3:57.55 | 2:42.17 | 17830 | 29996
3 | 6:39.72 | 4:08.10 | 29997 | 48606
4 | 10:48.07 | 3:27.00 | 48607 | 64131
5 | 14:15.07 | 4:49.53 | 64132 | 85859
6 | 19:04.60 | 3:49.00 | 85860 | 103034
7 | 22:53.60 | 4:25.65 | 103035 | 122974
8 | 27:19.50 | 4:34.32 | 122975 | 143556
9 | 31:54.07 | 6:19.70 | 143557 | 172051
10 | 38:14.02 | 3:32.18 | 172052 | 187969
11 | 41:46.20 | 3:34.62 | 187970 | 204081
12 | 45:21.07 | 3:23.15 | 204082 | 219321


Характеристики диапазона извлечения и сообщения об ошибках

Выбранный диапазон

Имя файла D:\Music\Allan Taylor\FLAC\2000 - Colour to the Moon\Allan Taylor - Colour to the Moon.wav

Пиковый уровень 98.8 %
Скорость извлечения 1.9 X
Качество диапазона 100.0 %
CRC теста CA1811CE
CRC копии CA1811CE
Копирование… OK

Ошибок не произошло


AccurateRip: сводка

Трек 1 : извлечено точно (доверие 3) [42AD33A5] (AR v2)
Трек 2 : извлечено точно (доверие 3) [B22A2C19] (AR v2)
Трек 3 : извлечено точно (доверие 3) [67BCFCD4] (AR v2)
Трек 4 : извлечено точно (доверие 3) [B1E4DAEF] (AR v2)
Трек 5 : извлечено точно (доверие 3) [20205CE2] (AR v2)
Трек 6 : извлечено точно (доверие 3) [CD5D0C45] (AR v2)
Трек 7 : извлечено точно (доверие 3) [C9E9218F] (AR v2)
Трек 8 : извлечено точно (доверие 3) [168AA4AD] (AR v2)
Трек 9 : извлечено точно (доверие 3) [DEF86993] (AR v2)
Трек 10 : извлечено точно (доверие 3) [87928381] (AR v2)
Трек 11 : извлечено точно (доверие 3) [8EB65141] (AR v2)
Трек 12 : извлечено точно (доверие 3) [0796529E] (AR v2)

Все треки извлечены точно

Конец отчёта

==== Контрольная сумма отчёта 5A5839B98D3833B4744B876E754E89E56956B5BEB5D36B17297ED2F107715AB0 ====

[CUETools log; Date: 27.10.2019 18:53:31; Version: 2.1.6]
[CTDB TOCID: .vj71gs5uBdwEJ8GNCAhCobwHxI-] found.
Track | CTDB Status
1 | (313/474) Accurately ripped
2 | (313/474) Accurately ripped
3 | (318/474) Accurately ripped
4 | (315/474) Accurately ripped
5 | (318/474) Accurately ripped
6 | (314/474) Accurately ripped
7 | (316/474) Accurately ripped
8 | (316/474) Accurately ripped
9 | (310/474) Accurately ripped
10 | (313/474) Accurately ripped
11 | (314/474) Accurately ripped
12 | (312/474) Accurately ripped
[AccurateRip ID: 00155a7b-00ca0be6-9d0b6c0c] found.
Track [ CRC | V2 ] Status
01 [09e1ad83|42ad33a5] (000+054/356) Accurately ripped
02 [70698b6a|b22a2c19] (000+054/355) Accurately ripped
03 [9f8f7b96|67bcfcd4] (000+054/355) Accurately ripped
04 [41c6e570|b1e4daef] (000+054/354) Accurately ripped
05 [f16f1e88|20205ce2] (000+054/354) Accurately ripped
06 [907a39a1|cd5d0c45] (000+054/355) Accurately ripped
07 [d9671628|c9e9218f] (000+054/353) Accurately ripped
08 [5d7b870d|168aa4ad] (000+054/357) Accurately ripped
09 [4f2110c8|def86993] (000+054/354) Accurately ripped
10 [89a26700|87928381] (000+054/353) Accurately ripped
11 [f0451f6a|8eb65141] (000+054/353) Accurately ripped
12 [777b5c92|0796529e] (000+051/348) Accurately ripped
Offsetted by -640:
01 [4702c117] (002/356) Accurately ripped
02 [bca1f8b7] (002/355) Accurately ripped
03 [e8ea52ed] (002/355) Accurately ripped
04 [0a75ed2a] (002/354) Accurately ripped
05 [31359186] (002/354) Accurately ripped
06 [8bb2f9d7] (002/355) Accurately ripped
07 [f262d65e] (002/353) Accurately ripped
08 [34c0cc8d] (002/357) Accurately ripped
09 [9d6635b5] (002/354) Accurately ripped
10 [c7db7907] (002/353) Accurately ripped
11 [44acfdbe] (002/353) Accurately ripped
12 [cc233b4d] (002/348) Accurately ripped
Offsetted by 36:
01 [79a17260] (116/356) Accurately ripped
02 [ee42dc51] (116/355) Accurately ripped
03 [460d4d12] (115/355) Accurately ripped
04 [89a48cec] (114/354) Accurately ripped
05 [aee1c960] (115/354) Accurately ripped
06 [0c2fc817] (116/355) Accurately ripped
07 [8898ab16] (114/353) Accurately ripped
08 [67c607f1] (117/357) Accurately ripped
09 [0359026a] (114/354) Accurately ripped
10 [6e5ee7bc] (114/353) Accurately ripped
11 [688bf61c] (114/353) Accurately ripped
12 [54b52d0d] (112/348) Accurately ripped
Offsetted by -1118:
01 [719e32ff] (000/356) No match (V2 was not tested)
02 [4d2f0fc4] (000/355) No match (V2 was not tested)
03 [c8337d1e] (000/355) No match (V2 was not tested)
04 [daa9406c] (000/354) No match (V2 was not tested)
05 [a63b03f8] (000/354) No match (V2 was not tested)
06 [002b9f5a] (000/355) No match (V2 was not tested)
07 [79c681c7] (000/353) No match (V2 was not tested)
08 [ba55560f] (000/357) No match (V2 was not tested)
09 [1d058e2f] (000/354) No match (V2 was not tested)
10 [3414854b] (000/353) No match (V2 was not tested)
11 [72e4514c] (000/353) No match (V2 was not tested)
12 [d505d5cc] (000/348) No match (V2 was not tested)
Offsetted by -702:
01 [7866db92] (000/356) No match (V2 was not tested)
02 [ba1582e6] (000/355) No match (V2 was not tested)
03 [808d33d5] (000/355) No match (V2 was not tested)
04 [6ee6fe48] (000/354) No match (V2 was not tested)
05 [d44b812c] (000/354) No match (V2 was not tested)
06 [4e1dbc0c] (000/355) No match (V2 was not tested)
07 [85401771] (000/353) No match (V2 was not tested)
08 [14ceb5af] (000/357) No match (V2 was not tested)
09 [cb097390] (000/354) No match (V2 was not tested)
10 [1ab24bfa] (000/353) No match (V2 was not tested)
11 [7cd08cbc] (000/353) No match (V2 was not tested)
12 [c97572ff] (000/348) No match (V2 was not tested)
Offsetted by -534:
01 [3d1771c2] (000/356) No match (V2 was not tested)
02 [43f3a21c] (000/355) No match (V2 was not tested)
03 [d94287f3] (000/355) No match (V2 was not tested)
04 [c1a88e5f] (000/354) No match (V2 was not tested)
05 [7f66a9c1] (000/354) No match (V2 was not tested)
06 [59b83dd5] (000/355) No match (V2 was not tested)
07 [369c779c] (000/353) No match (V2 was not tested)
08 [ef7fb9d7] (000/357) No match (V2 was not tested)
09 [1c213380] (000/354) No match (V2 was not tested)
10 [2bc14653] (000/353) No match (V2 was not tested)
11 [55539213] (000/353) No match (V2 was not tested)
12 [31a70109] (000/348) No match (V2 was not tested)
Offsetted by -96:
01 [7cc2fc56] (000/356) No match (V2 was not tested)
02 [ad5fb64a] (000/355) No match (V2 was not tested)
03 [a8133cf3] (000/355) No match (V2 was not tested)
04 [07a2e576] (000/354) No match (V2 was not tested)
05 [330a32ce] (000/354) No match (V2 was not tested)
06 [926634e8] (000/355) No match (V2 was not tested)
07 [b834ca55] (000/353) No match (V2 was not tested)
08 [975f84ad] (000/357) No match (V2 was not tested)
09 [6dd2d98f] (000/354) No match (V2 was not tested)
10 [901803dc] (000/353) No match (V2 was not tested)
11 [29d7ecdb] (000/353) No match (V2 was not tested)
12 [79099d14] (000/348) No match (V2 was not tested)
Offsetted by -30:
01 [8a65977c] (000/356) No match (V2 was not tested)
02 [5b0bdbd7] (000/355) No match (V2 was not tested)
03 [378ca436] (000/355) No match (V2 was not tested)
04 [5ea27e6e] (000/354) No match (V2 was not tested)
05 [c0b68802] (000/354) No match (V2 was not tested)
06 [3ddcf221] (000/355) No match (V2 was not tested)
07 [85a8bf1c] (000/353) No match (V2 was not tested)
08 [7f92c64f] (000/357) No match (V2 was not tested)
09 [634143d0] (000/354) No match (V2 was not tested)
10 [e0e4f9b0] (000/353) No match (V2 was not tested)
11 [cbe9aa32] (000/353) No match (V2 was not tested)
12 [0661ba68] (000/348) No match (V2 was not tested)
Offsetted by 6:
01 [e36542f6] (000/356) No match (V2 was not tested)
02 [a77d89d7] (000/355) No match (V2 was not tested)
03 [ff3f2e34] (000/355) No match (V2 was not tested)
04 [f729ca56] (000/354) No match (V2 was not tested)
05 [954e3a8e] (000/354) No match (V2 was not tested)
06 [6ddbcccd] (000/355) No match (V2 was not tested)
07 [4f882a70] (000/353) No match (V2 was not tested)
08 [89dd4733] (000/357) No match (V2 was not tested)
09 [485abe9f] (000/354) No match (V2 was not tested)
10 [7b11aba1] (000/353) No match (V2 was not tested)
11 [5bcb9996] (000/353) No match (V2 was not tested)
12 [951b893c] (000/348) No match (V2 was not tested)
Offsetted by 42:
01 [1a61c888] (000/356) No match (V2 was not tested)
02 [50253c24] (000/355) No match (V2 was not tested)
03 [cbaad951] (000/355) No match (V2 was not tested)
04 [98ca71f5] (000/354) No match (V2 was not tested)
05 [4820e79f] (000/354) No match (V2 was not tested)
06 [663f5018] (000/355) No match (V2 was not tested)
07 [f677ca89] (000/353) No match (V2 was not tested)
08 [9427c817] (000/357) No match (V2 was not tested)
09 [720a1208] (000/354) No match (V2 was not tested)
10 [b009bf92] (000/353) No match (V2 was not tested)
11 [cff26f60] (000/353) No match (V2 was not tested)
12 [b04c6cb1] (000/348) No match (V2 was not tested)

Track Peak [ CRC32 ] [W/O NULL] [ LOG ]
– 98,8 [CA1811CE] [77C817F7] CRC32
01 77,6 [D2189785] [D9AA1848]
02 97,7 [EBF8936A] [152E34C3]
03 98,8 [165E100B] [53E8BF50]
04 86,1 [76677BED] [BC26B29B]
05 97,7 [C2C0112E] [2CB46888]
06 97,7 [F66900D4] [66424740]
07 98,8 [1000BA56] [83F86250]
08 98,8 [2009D10B] [7C31F15F]
09 98,8 [AC34D609] [2DCD8CFB]
10 98,8 [DD0E3F9E] [1B2C913B]
11 97,7 [5B246437] [CE61E22E]
12 69,1 [C569654E] [B9AA6864]

Allan Taylor - Colour To The Moon (2000)


All thanks go to mapSeamoff and Camerado

>>> Allan Taylor in my Blog <<<

DOWNLOAD: