Tags
Language
Tags
February 2023
Su Mo Tu We Th Fr Sa
29 30 31 1 2 3 4
5 6 7 8 9 10 11
12 13 14 15 16 17 18
19 20 21 22 23 24 25
26 27 28 1 2 3 4

Allan Taylor - Lines (1988)

Posted By: popsakov
Allan Taylor - Lines (1988)

Allan Taylor - Lines (1988)
EAC Rip | FLAC (Img) + Cue + Log ~ 400 Mb | MP3 CBR320 ~ 177 Mb
Scans Included (JPG, 600 dpi) | RAR 5% Recovery
Folk, Folk Rock, Acoustic | T. Records #T.002

Allan Taylor is one of England's most-respected singer/songwriters. His songs have been covered by artists on both sides of the Atlantic, including Don Williams, Frankie Miller, Fairport Convention, Dick Gaughan, the McCalmans, the Fureys, the Clancy Brothers, and De Dannan. Folk Roots praised him for his "ability to crystallize a mood and evoke an era with the ease of a computer memory access, crafting perfect songs with dramatic changes in the spirit of Brecht, Bikel, and Brel." The Oxford Book of Traditional Verse felt as strongly, writing that Taylor was "one of the most literate and sensitive of contemporary songwriters in terms of words and music and one who is capable of exploring more complex subjects than most of his contemporaries." Inspired by the folk revival that swept the United Kingdom in the mid-'60s, Taylor left school at the age of 16 to run a local folk club. Stepping out as a professional musician five years later, he was greatly supported by members of Fairport Convention. Their friendship was cemented when he toured as opening act for the group's national tour. His 1971 debut album, Sometimes, featured instrumental accompaniment from Fairport's drummer Dave Mattacks, fiddler Dave Swarbrick, and bassist Dave Pegg. Moving to New York in 1972, Taylor recorded The American Album with Nashville and Los Angeles session players. He remained in the United States through 1974. Returning to England, Taylor formed a group, Cajun Moon, featuring fiddler Brian Golbey and keyboard player Jon Gillaspie, to perform American folk and roots music. Signed by Chrysalis in May 1976 following a tour with Steeleye Span, the future seemed secure for Taylor and the group. Their dreams faded, however, when Taylor damaged his vocal cords and was forced to rest for three months. The hiatus put an end to the band's momentum. By the time he had healed from surgery and was ready to return, the group had folded. Resuming his solo career, Taylor signed a publishing deal with Chrysalis and a recording deal with Rubber Records. His first new album, The Traveller, featured instrumental backing by melodeon and accordion player John Kirkpatrick. The album received the Grand Prix du Disque de Montreux for Best European Folk Album in 1980. Taylor spent much of the '80s and early '90s as a student. Although he continued to record, much of his focus was devoted to his studies. He received a bachelor's degree from Leeds University in 1983, a master's from Lancaster University in 1985, and a doctorate from Queens University in Belfast in 1993. His thesis explored the creative process and the power and aesthetics of song.
~ Craig Harris, All Music

***************

Allan Taylor - Lines (1988)

Allan Taylor - Lines (1988)

Track List:

01. Chimes At Midnight [5:21]
02. Songdance [3:27]
03. Rubenstein Remembers [5:14]
04. Boy Becomes The Man [3:41]
05. The Veteran [5:18]
06. Flower In The Snow [2:59]
07. Banjo Man [4:53]
08. Maybe Another Day [5:29]
09. Jimmy's Song [3:21]
10. Crazy Man [4:05]
11. Gently Does It [4:08]
12. The Wall [5:02]
13. Choose Your Time [3:12]
14. Win Or Loose [5:31]
15. There Was A Time [3:14]

Personnel:
Allan Taylor - vocal, guitar
Mike Silver - Backing vocals and guitar
Rick Kemp - Bass
Pete Glennon - Bass
Richie Close - Piano

Exact Audio Copy V1.1 from 23. June 2015

EAC extraction logfile from 26. October 2017, 21:15

Allan Taylor / Lines

Used drive : HL-DT-STDVDRAM GUE1N Adapter: 1 ID: 0

Read mode : Secure
Utilize accurate stream : Yes
Defeat audio cache : Yes
Make use of C2 pointers : No

Read offset correction : 6
Overread into Lead-In and Lead-Out : No
Fill up missing offset samples with silence : Yes
Delete leading and trailing silent blocks : No
Null samples used in CRC calculations : Yes
Used interface : Native Win32 interface for Win NT & 2000

Used output format : User Defined Encoder
Selected bitrate : 768 kBit/s
Quality : High
Add ID3 tag : No
Command line compressor : C:\Program Files (x86)\Exact Audio Copy\Flac\flac.exe
Additional command line options : -V -8 -T "Date=%year%" -T "Genre=%genre%" %source%


TOC of the extracted CD

Track | Start | Length | Start sector | End sector
––––––––––––––––––––––––––––-
1 | 0:00.33 | 5:21.25 | 33 | 24132
2 | 5:21.58 | 3:26.60 | 24133 | 39642
3 | 8:48.43 | 5:14.30 | 39643 | 63222
4 | 14:02.73 | 3:41.07 | 63223 | 79804
5 | 17:44.05 | 5:17.70 | 79805 | 103649
6 | 23:02.00 | 2:59.30 | 103650 | 117104
7 | 26:01.30 | 4:53.10 | 117105 | 139089
8 | 30:54.40 | 5:29.18 | 139090 | 163782
9 | 36:23.58 | 3:21.12 | 163783 | 178869
10 | 39:44.70 | 4:05.25 | 178870 | 197269
11 | 43:50.20 | 4:08.30 | 197270 | 215899
12 | 47:58.50 | 5:02.33 | 215900 | 238582
13 | 53:01.08 | 3:11.72 | 238583 | 252979
14 | 56:13.05 | 5:30.58 | 252980 | 277787
15 | 61:43.63 | 3:14.32 | 277788 | 292369


Range status and errors

Selected range

Filename D:\Music\Allan Taylor\FLAC\1988 - Lines\Allan Taylor - Lines.wav

Peak level 100.0 %
Extraction speed 1.8 X
Range quality 100.0 %
Test CRC EF3BA99D
Copy CRC EF3BA99D
Copy OK

No errors occurred


AccurateRip summary

Track 1 accurately ripped (confidence 3) [9FA3EA19] (AR v2)
Track 2 accurately ripped (confidence 3) [CB2DC848] (AR v2)
Track 3 accurately ripped (confidence 3) [AA638A2B] (AR v2)
Track 4 accurately ripped (confidence 3) [22DFCE6A] (AR v2)
Track 5 accurately ripped (confidence 3) [4845B93C] (AR v2)
Track 6 accurately ripped (confidence 3) [4A28CF3B] (AR v2)
Track 7 accurately ripped (confidence 3) [6AB41C94] (AR v2)
Track 8 accurately ripped (confidence 3) [A7998D11] (AR v2)
Track 9 accurately ripped (confidence 3) [493B4E5A] (AR v2)
Track 10 accurately ripped (confidence 3) [D23C0D00] (AR v2)
Track 11 accurately ripped (confidence 3) [E2C10DB0] (AR v2)
Track 12 accurately ripped (confidence 3) [7AFD599F] (AR v2)
Track 13 accurately ripped (confidence 3) [9C3E5EEE] (AR v2)
Track 14 accurately ripped (confidence 3) [7069E7F6] (AR v2)
Track 15 accurately ripped (confidence 3) [1B9954A1] (AR v2)

All tracks accurately ripped

End of status report

==== Log checksum 7F6C1BCB722E18E8B6C3551689B2BEFAE40F1952977DABE13D3A5ACD609EB29E ====

foobar2000 1.3.16 / Dynamic Range Meter 1.1.1
log date: 2017-10-29 02:42:54

––––––––––––––––––––––––––––––––––––––––
Analyzed: Allan Taylor / Lines
––––––––––––––––––––––––––––––––––––––––

DR Peak RMS Duration Track
––––––––––––––––––––––––––––––––––––––––
DR12 -0.40 dB -15.71 dB 5:21 01-Chimes At Midnight
DR14 0.00 dB -17.94 dB 3:27 02-Songdance
DR12 -0.40 dB -15.15 dB 5:14 03-Rubenstein Remembers
DR13 0.00 dB -14.90 dB 3:41 04-Boy Becomes The Man
DR12 -0.20 dB -14.09 dB 5:18 05-The Veteran
DR12 -0.40 dB -15.40 dB 2:59 06-Flower In The Snow
DR13 0.00 dB -14.98 dB 4:53 07-Banjo Man
DR11 -0.20 dB -14.71 dB 5:29 08-Maybe Another Day
DR12 -0.20 dB -14.94 dB 3:21 09-Jimmy's Song
DR11 -0.40 dB -14.02 dB 4:05 10-Crazy Man
DR12 -0.57 dB -15.24 dB 4:08 11-Gently Does It
DR12 -0.20 dB -14.95 dB 5:02 12-The Wall
DR15 -1.80 dB -21.27 dB 3:12 13-Choose Your Time
DR14 -0.40 dB -18.68 dB 5:31 14-Win Or Loose
DR13 -0.93 dB -18.90 dB 3:14 15-There Was A Time
––––––––––––––––––––––––––––––––––––––––

Number of tracks: 15
Official DR value: DR13

Samplerate: 44100 Hz
Channels: 2
Bits per sample: 16
Bitrate: 777 kbps
Codec: FLAC
================================================================================

[CUETools log; Date: 29.10.2017 2:43:02; Version: 2.1.5]
Pregap length 00:00:33.
[CTDB TOCID: 9gRhNB6xovmFD1q.B_0XRmz1VpE-] found.
Track | CTDB Status
1 | (1/1) Accurately ripped
2 | (1/1) Accurately ripped
3 | (1/1) Accurately ripped
4 | (1/1) Accurately ripped
5 | (1/1) Accurately ripped
6 | (1/1) Accurately ripped
7 | (1/1) Accurately ripped
8 | (1/1) Accurately ripped
9 | (1/1) Accurately ripped
10 | (1/1) Accurately ripped
11 | (1/1) Accurately ripped
12 | (1/1) Accurately ripped
13 | (1/1) Accurately ripped
14 | (1/1) Accurately ripped
15 | (1/1) Accurately ripped
[AccurateRip ID: 00246162-019a3bc0-d40f3a0f] found.
Track [ CRC | V2 ] Status
01 [6eac1dfd|9fa3ea19] (2+3/5) Accurately ripped
02 [123152a0|cb2dc848] (2+3/5) Accurately ripped
03 [9ab359f0|aa638a2b] (2+3/5) Accurately ripped
04 [e2f58455|22dfce6a] (2+3/5) Accurately ripped
05 [66dddf27|4845b93c] (2+3/5) Accurately ripped
06 [a3d1a4e2|4a28cf3b] (2+3/5) Accurately ripped
07 [beb0d81b|6ab41c94] (2+3/5) Accurately ripped
08 [97d0d260|a7998d11] (2+3/5) Accurately ripped
09 [8595e507|493b4e5a] (2+3/5) Accurately ripped
10 [5eabe5e7|d23c0d00] (2+3/5) Accurately ripped
11 [f68b9230|e2c10db0] (2+3/5) Accurately ripped
12 [7961d3cb|7afd599f] (2+3/5) Accurately ripped
13 [42d25ae1|9c3e5eee] (2+3/5) Accurately ripped
14 [8fa2a81a|7069e7f6] (2+3/5) Accurately ripped
15 [6a3d097a|1b9954a1] (2+3/5) Accurately ripped

Track Peak [ CRC32 ] [W/O NULL] [ LOG ]
– 100,0 [EF3BA99D] [75AD262E] CRC32
01 95,5 [B7F95007] [878ADFB7]
02 100,0 [F41C783E] [A7CE00E6]
03 95,5 [45313E5E] [17C49044]
04 100,0 [26DBB841] [4E04852F]
05 97,7 [D276E826] [E2DA5EF9]
06 95,5 [BDF0A704] [CBB8D091]
07 100,0 [CD15B725] [9F08B3AB]
08 97,7 [3ED26135] [E5220D1B]
09 97,7 [8B245387] [E0D176D9]
10 95,5 [F42151D2] [ACF66B73]
11 93,6 [19EE3024] [AEF59016]
12 97,7 [0E0E9E6A] [88A67EB4]
13 81,2 [D06C30F6] [91AAB6C0]
14 95,5 [3295A1A0] [955FEBCA]
15 89,8 [480873D5] [A0102375]

Allan Taylor - Lines (1988)

All thanks go to mapSeamoff

>>> Allan Taylor in my Blog <<<

Download from icerbox.com: