Subcategories

Allan Taylor - There Was A Time (2016) {Hybrid SACD}

Posted By: popsakov
Allan Taylor - There Was A Time (2016) {Hybrid SACD}

Allan Taylor - There Was A Time (2016)
EAC Rip | FLAC (Img) + Cue + Log ~ 302 Mb | MP3 CBR320 ~ 137 Mb
Scans (JPG, 600 dpi) ~ 183 Mb | RAR 5% Recovery
Folk, World, Orchestral | Stockfisch Records #SFR 357.9015.2

For 40 years Allan Taylor, born in Brighton in 1945, has been considered as the consummate performer, a writer of literary gracefulness whose troubadour chronicles encapsulate the realism of otherwise unsung heroes, otherwise uncharted lives. His songs are written from a lifetime of travelling; always the observer passing through, each song is a vignette of life, like a story told over a drink in a bar. Each has an integrity that tells you it comes from something real; characters come to life like people you know and places become as familiar as if you had been there.

Stockfisch Records again produced a special project including a symphony orchestra: We speak about the 2016 production with the grandseigneur of songwriting, Allan Taylor! The SACD will be titled: "There Was a Time".

Here is the story behind: Allan had played on the FOLKEST festival every two or three years, usually on the stage in the Piazza Castello of Spilimbergo, a delightful small town near the North Italian city of Udine. The plan arose, that Valter Sivilotti, an Italian composer, arranger and conductor, would make arrangements of a selection of Allan's songs and conduct the orchestra for the concert. This concert took place in July, 2013.

When Günter Pauler of Stockfisch Records heard the demo live-recordings he enthusiasticly suggested to produce a SACD: Allan together with a symphony orchestra! Pauler hired the "Göttinger Symphonie Orchester" with their agile conductor Christoph-Mathias Mueller; Valter Sivilotti and Allan Taylor joined the recordings in Göttingen, and a very successful session was performed. Available from May 2016 as Multichannel-SACD-Hybrid!

Allan Taylor writes about this record: "What you hear on this SACD is the product of great technical and artistic expertise on the part of Stockfisch Records. I wrote some of these songs many years ago, but I hope you enjoy the experience of hearing them in an orchestral setting. Certainly, Valter Sivilotti’s empathy with my songs has created some wonderful settings, and it was a privilege to work with such a creative and empathetic musician."
~ Stockfisch Records


Allan Taylor - There Was A Time (2016) {Hybrid SACD}

Allan Taylor is one of England's most-respected singer/songwriters. His songs have been covered by artists on both sides of the Atlantic, including Don Williams, Frankie Miller, Fairport Convention, Dick Gaughan, the McCalmans, the Fureys, the Clancy Brothers, and De Dannan. Folk Roots praised him for his "ability to crystallize a mood and evoke an era with the ease of a computer memory access, crafting perfect songs with dramatic changes in the spirit of Brecht, Bikel, and Brel." The Oxford Book of Traditional Verse felt as strongly, writing that Taylor was "one of the most literate and sensitive of contemporary songwriters in terms of words and music and one who is capable of exploring more complex subjects than most of his contemporaries." Inspired by the folk revival that swept the United Kingdom in the mid-'60s, Taylor left school at the age of 16 to run a local folk club. Stepping out as a professional musician five years later, he was greatly supported by members of Fairport Convention. Their friendship was cemented when he toured as opening act for the group's national tour. His 1971 debut album, Sometimes, featured instrumental accompaniment from Fairport's drummer Dave Mattacks, fiddler Dave Swarbrick, and bassist Dave Pegg. Moving to New York in 1972, Taylor recorded The American Album with Nashville and Los Angeles session players. He remained in the United States through 1974. Returning to England, Taylor formed a group, Cajun Moon, featuring fiddler Brian Golbey and keyboard player Jon Gillaspie, to perform American folk and roots music. Signed by Chrysalis in May 1976 following a tour with Steeleye Span, the future seemed secure for Taylor and the group. Their dreams faded, however, when Taylor damaged his vocal cords and was forced to rest for three months. The hiatus put an end to the band's momentum. By the time he had healed from surgery and was ready to return, the group had folded. Resuming his solo career, Taylor signed a publishing deal with Chrysalis and a recording deal with Rubber Records. His first new album, The Traveller, featured instrumental backing by melodeon and accordion player John Kirkpatrick. The album received the Grand Prix du Disque de Montreux for Best European Folk Album in 1980. Taylor spent much of the '80s and early '90s as a student. Although he continued to record, much of his focus was devoted to his studies. He received a bachelor's degree from Leeds University in 1983, a master's from Lancaster University in 1985, and a doctorate from Queens University in Belfast in 1993. His thesis explored the creative process and the power and aesthetics of song.
~ Craig Harris, All Music

Allan Taylor - There Was A Time (2016) {Hybrid SACD}


***************

Allan Taylor - There Was A Time (2016) {Hybrid SACD}

Track List:

01. Chimes At Midnight [04:59]
02. For Those We Knew [03:53]
03. Down The Years I Travelled… [04:56]
04. For What It's Worth [04:44]
05. The Merlin Cafe [06:05]
06. Provence [04:25]
07. There Was A Time [04:29]
08. Joseph [04:33]
09. Win Or Lose [05:54]
10. Winter [05:15]
11. Red On Green [03:47]
12. The Beggar [04:11]

Musicians:

Allan Taylor - vocal and guitar
Göttinger Symphonie Orchester - Christoph-Mathias Mueller, conductor
Lutz Möller - piano
Hans-Jörg Maucksch - fretless bass

Exact Audio Copy V1.1 from 23. June 2015

EAC extraction logfile from 19. June 2016, 14:51

Allan Taylor / There Was a Time

Used drive : HL-DT-STDVDRAM GUE1N Adapter: 1 ID: 0

Read mode : Secure
Utilize accurate stream : Yes
Defeat audio cache : Yes
Make use of C2 pointers : No

Read offset correction : 6
Overread into Lead-In and Lead-Out : No
Fill up missing offset samples with silence : Yes
Delete leading and trailing silent blocks : No
Null samples used in CRC calculations : Yes
Used interface : Native Win32 interface for Win NT & 2000

Used output format : User Defined Encoder
Selected bitrate : 768 kBit/s
Quality : High
Add ID3 tag : No
Command line compressor : C:\Program Files (x86)\Exact Audio Copy\Flac\flac.exe
Additional command line options : -V -8 -T "Date=%year%" -T "Genre=%genre%" %source%


TOC of the extracted CD

Track | Start | Length | Start sector | End sector
––––––––––––––––––––––––––––-
1 | 0:00.00 | 4:58.73 | 0 | 22422
2 | 4:58.73 | 3:52.55 | 22423 | 39877
3 | 8:51.53 | 4:55.32 | 39878 | 62034
4 | 13:47.10 | 4:43.20 | 62035 | 83279
5 | 18:30.30 | 6:04.11 | 83280 | 110590
6 | 24:34.41 | 4:24.05 | 110591 | 130395
7 | 28:58.46 | 4:28.25 | 130396 | 150520
8 | 33:26.71 | 4:32.57 | 150521 | 170977
9 | 37:59.53 | 5:53.30 | 170978 | 197482
10 | 43:53.08 | 5:14.04 | 197483 | 221036
11 | 49:07.12 | 3:46.67 | 221037 | 238053
12 | 52:54.04 | 4:10.49 | 238054 | 256852


Range status and errors

Selected range

Filename D:\Music\Allan Taylor\FLAC\2016 - There Was a Time\Allan Taylor - There Was a Time.wav

Peak level 92.5 %
Extraction speed 1.7 X
Range quality 100.0 %
Test CRC 8A97B36C
Copy CRC 8A97B36C
Copy OK

No errors occurred


AccurateRip summary

Track 1 not present in database
Track 2 not present in database
Track 3 not present in database
Track 4 not present in database
Track 5 not present in database
Track 6 not present in database
Track 7 not present in database
Track 8 not present in database
Track 9 not present in database
Track 10 not present in database
Track 11 not present in database
Track 12 not present in database

None of the tracks are present in the AccurateRip database

End of status report

==== Log checksum FD7AC1BE7FF0DD8C66CDE89584B6930391ABD14124F391FA8DAF977BA7AFF0CF ====

foobar2000 1.2.6 / Dynamic Range Meter 1.1.1
log date: 2016-06-22 14:55:20

––––––––––––––––––––––––––––––––––––––––
Analyzed: Allan Taylor / There Was A Time
––––––––––––––––––––––––––––––––––––––––

DR Peak RMS Duration Track
––––––––––––––––––––––––––––––––––––––––
DR7 -0.69 dB -10.19 dB 4:59 01-Chimes At Midnight
DR7 -0.68 dB -11.93 dB 3:53 02-For Those We Knew
DR8 -0.68 dB -11.77 dB 4:55 03-Down The Years I Travelled…
DR8 -0.67 dB -11.16 dB 4:43 04-For What It's Worth
DR8 -0.68 dB -12.48 dB 6:04 05-The Merlin Cafe
DR8 -0.68 dB -11.60 dB 4:24 06-Provence
DR8 -0.67 dB -13.02 dB 4:28 07-There Was A Time
DR8 -0.67 dB -11.45 dB 4:33 08-Joseph
DR7 -0.69 dB -11.24 dB 5:53 09-Win Or Lose
DR9 -0.68 dB -12.95 dB 5:14 10-Winter
DR8 -0.69 dB -11.90 dB 3:47 11-Red On Green
DR5 -0.69 dB -10.01 dB 4:11 12-The Beggar
––––––––––––––––––––––––––––––––––––––––

Number of tracks: 12
Official DR value: DR8

Samplerate: 44100 Hz
Channels: 2
Bits per sample: 16
Bitrate: 703 kbps
Codec: FLAC
================================================================================

[CUETools log; Date: 22.06.2016 14:55:22; Version: 2.1.5]
[CTDB TOCID: SAIg1ucYcjGN.JTmu6e.MbDyABw-] found.
Track | CTDB Status
1 | (2/2) Accurately ripped
2 | (2/2) Accurately ripped
3 | (2/2) Accurately ripped
4 | (2/2) Accurately ripped
5 | (2/2) Accurately ripped
6 | (2/2) Accurately ripped
7 | (2/2) Accurately ripped
8 | (2/2) Accurately ripped
9 | (2/2) Accurately ripped
10 | (2/2) Accurately ripped
11 | (2/2) Accurately ripped
12 | (2/2) Accurately ripped
[AccurateRip ID: 0019b049-00f0548b-960d600c] disk not present in database.

Track Peak [ CRC32 ] [W/O NULL] [ LOG ]
– 92,5 [8A97B36C] [A02F0A59] CRC32
01 92,4 [19FDC08D] [BA3A8173]
02 92,4 [D86C1FC3] [E6705C4C]
03 92,4 [390045F8] [F60A73E9]
04 92,5 [F43FD9EB] [0B8839DF]
05 92,4 [4440BD8B] [AC13C2FA]
06 92,4 [925BC061] [96BDB4D2]
07 92,5 [387B925E] [CE90CA80]
08 92,5 [6B132C9E] [0FB2F202]
09 92,3 [924D25B2] [C047900F]
10 92,5 [2C57AAF2] [05072B01]
11 92,3 [CCBF9F95] [12DC8024]
12 92,3 [B5B03F0D] [21CCC78A]

Allan Taylor - There Was A Time (2016) {Hybrid SACD}

Allan Taylor - There Was A Time (2016) {Hybrid SACD}

See also:
Allan Taylor - The Traveller (1978) {1999, Reissue}
Allan Taylor - Out Of Time (1991) {2002, Reissue, Remastered}
Allan Taylor - Looking For You (1996)
Allan Taylor - Colour To The Moon (2000)
Allan Taylor - Down The Years I Travelled … (2012)
Allan Taylor - All Is One (2013) [Hybrid SACD]
Hannes Wader & Allan Taylor - Old Friends In Concert (2013)

All thanks go to Camerado / mapSeamoff

Visit my blog!

Download:
Nitroflare: FLAC-part 1 | FLAC-part 2 | Scans | mp3
FileJoker: FLAC-part 1 | FLAC-part 2 | Scans | mp3