Allan Holdsworth - The Man Who Changed Guitar Forever! (12CD Box Set) (2017)

Posted By: Pisulik
Allan Holdsworth - The Man Who Changed Guitar Forever! (12CD Box Set) (2017)

Allan Holdsworth - The Man Who Changed Guitar Forever! (12CD Box Set) (2017)
EAC Rip | FLAC (Tracks) + cue, m3u, log - 3.12 GB | MP3 CBR 320 kbps - 1.12 GB | 08:39:39
Jazz, Fusion, Progressive Rock | Label: Manifesto Records | Release Year: 2017

Twelve CD box set collection featuring all of Allan Holdsworth's solo albums from 1982-2003. That title is no hyperbole-it was a proclamation that ran on the cover of Guitar Player Magazine in 2008, and is a feeling shared by fans and guitarists all around the world. Still, though, Holdsworth remains largely under-rated; many who admire his most famous work have overlooked dozens of fascinating finds to be made on his decades of recordings. This collection is a treasure trove of such discoveries, as it brings you all 11 of his albums as a solo artist, producer and group leader since 1980 plus the live-in-Tokyo album Then.

TRACKLIST

CD1 I.O.U

01. The Things You See
02. Where Is One
03. Checking Out
04. Letter Of Marquee
05. Out From Under
06. Temporary Fault
07. Shallow Sea
08. White Line

Exact Audio Copy V1.3 from 2. September 2016

EAC extraction logfile from 4. May 2017, 16:20

Allan Holdsworth / I.O.U.

Used drive : ATAPI DVD A DH16ABSH Adapter: 1 ID: 0

Read mode : Secure
Utilize accurate stream : Yes
Defeat audio cache : Yes
Make use of C2 pointers : No

Read offset correction : 6
Overread into Lead-In and Lead-Out : No
Fill up missing offset samples with silence : Yes
Delete leading and trailing silent blocks : No
Null samples used in CRC calculations : Yes
Used interface : Native Win32 interface for Win NT & 2000
Gap handling : Appended to previous track

Used output format : User Defined Encoder
Selected bitrate : 1024 kBit/s
Quality : High
Add ID3 tag : No
Command line compressor : C:\Program Files (x86)\Exact Audio Copy\Flac\flac.exe
Additional command line options : -8 -e -p -V -T "ARTIST=%artist%" -T "TITLE=%title%" -T "ALBUM=%albumtitle%" -T "DATE=%year%" -T "TRACKNUMBER=%tracknr%" -T "GENRE=%genre%" -T "PERFORMER=%albuminterpret%" -T "COMPOSER=%composer%" %haslyrics%–tag-from-file=LYRICS="%lyricsfile%"%haslyrics% -T "ALBUMARTIST=%albumartist%" -T "DISCNUMBER=%cdnumber%" -T "TOTALDISCS=%totalcds%" -T "TOTALTRACKS=%numtracks%" -T "COMMENT=%comment%" %source% -o %dest%


TOC of the extracted CD

Track | Start | Length | Start sector | End sector
––––––––––––––––––––––––––––-
1 | 0:00.00 | 5:51.65 | 0 | 26389
2 | 5:51.65 | 5:38.27 | 26390 | 51766
3 | 11:30.17 | 3:39.42 | 51767 | 68233
4 | 15:09.59 | 7:02.63 | 68234 | 99946
5 | 22:12.47 | 3:34.36 | 99947 | 116032
6 | 25:47.08 | 3:17.55 | 116033 | 130862
7 | 29:04.63 | 6:04.33 | 130863 | 158195
8 | 35:09.21 | 4:41.47 | 158196 | 179317


Track 1

Filename A:\EAC Rips\Allan Holdsworth - The Man Who Changed Guitar Forever! (The Allan Holdsworth Collection) (2017) [FLAC] {MFO 46502-46514}\Disc 1 - I.O.U\01 - The Things You See.wav

Pre-gap length 0:00:02.00

Peak level 87.0 %
Extraction speed 2.0 X
Track quality 100.0 %
Test CRC BB3BBDF7
Copy CRC BB3BBDF7
Track not present in AccurateRip database
Copy OK

Track 2

Filename A:\EAC Rips\Allan Holdsworth - The Man Who Changed Guitar Forever! (The Allan Holdsworth Collection) (2017) [FLAC] {MFO 46502-46514}\Disc 1 - I.O.U\02 - Where Is One.wav

Peak level 83.6 %
Extraction speed 2.3 X
Track quality 100.0 %
Test CRC 2507A171
Copy CRC 2507A171
Track not present in AccurateRip database
Copy OK

Track 3

Filename A:\EAC Rips\Allan Holdsworth - The Man Who Changed Guitar Forever! (The Allan Holdsworth Collection) (2017) [FLAC] {MFO 46502-46514}\Disc 1 - I.O.U\03 - Checking Out.wav

Pre-gap length 0:00:03.46

Peak level 84.8 %
Extraction speed 2.4 X
Track quality 100.0 %
Test CRC A3FA9170
Copy CRC A3FA9170
Track not present in AccurateRip database
Copy OK

Track 4

Filename A:\EAC Rips\Allan Holdsworth - The Man Who Changed Guitar Forever! (The Allan Holdsworth Collection) (2017) [FLAC] {MFO 46502-46514}\Disc 1 - I.O.U\04 - Letter Of Marquee.wav

Pre-gap length 0:00:03.33

Peak level 84.6 %
Extraction speed 2.8 X
Track quality 100.0 %
Test CRC 5304A986
Copy CRC 5304A986
Track not present in AccurateRip database
Copy OK

Track 5

Filename A:\EAC Rips\Allan Holdsworth - The Man Who Changed Guitar Forever! (The Allan Holdsworth Collection) (2017) [FLAC] {MFO 46502-46514}\Disc 1 - I.O.U\05 - Out From Under.wav

Pre-gap length 0:00:03.98

Peak level 87.8 %
Extraction speed 1.9 X
Track quality 99.9 %
Test CRC 710A65F4
Copy CRC 710A65F4
Track not present in AccurateRip database
Copy OK

Track 6

Filename A:\EAC Rips\Allan Holdsworth - The Man Who Changed Guitar Forever! (The Allan Holdsworth Collection) (2017) [FLAC] {MFO 46502-46514}\Disc 1 - I.O.U\06 - Temporary Fault.wav

Pre-gap length 0:00:03.42

Peak level 83.6 %
Extraction speed 2.9 X
Track quality 100.0 %
Test CRC 045C3D0B
Copy CRC 045C3D0B
Track not present in AccurateRip database
Copy OK

Track 7

Filename A:\EAC Rips\Allan Holdsworth - The Man Who Changed Guitar Forever! (The Allan Holdsworth Collection) (2017) [FLAC] {MFO 46502-46514}\Disc 1 - I.O.U\07 - Shallow Sea.wav

Pre-gap length 0:00:00.36

Peak level 85.5 %
Extraction speed 3.3 X
Track quality 100.0 %
Test CRC 58CCE87E
Copy CRC 58CCE87E
Track not present in AccurateRip database
Copy OK

Track 8

Filename A:\EAC Rips\Allan Holdsworth - The Man Who Changed Guitar Forever! (The Allan Holdsworth Collection) (2017) [FLAC] {MFO 46502-46514}\Disc 1 - I.O.U\08 - White Line.wav

Pre-gap length 0:00:04.42

Peak level 90.9 %
Extraction speed 3.3 X
Track quality 100.0 %
Test CRC 7D45D36B
Copy CRC 7D45D36B
Track not present in AccurateRip database
Copy OK


None of the tracks are present in the AccurateRip database

No errors occurred

End of status report

–– CUETools DB Plugin V2.1.6

[CTDB TOCID: t.iTbOZuxyC1dttZFLBoS9m9jLg-] found
Submit result: t.iTbOZuxyC1dttZFLBoS9m9jLg- has been confirmed
Track | CTDB Status
1 | (9/9) Accurately ripped
2 | (9/9) Accurately ripped
3 | (9/9) Accurately ripped
4 | (9/9) Accurately ripped
5 | (9/9) Accurately ripped
6 | (9/9) Accurately ripped
7 | (9/9) Accurately ripped
8 | (9/9) Accurately ripped


==== Log checksum 54729C531C7C7493029077F9D0EE7029897E7EDA05D1335194216B5B3E5DBB17 ====


CD2 Road Games

01. Three Sheets To The Wind
02. Road Games
03. Water On the Brain Pt ll
04. Tokyo Dream
05. Was There
06. Material Real

Exact Audio Copy V1.3 from 2. September 2016

EAC extraction logfile from 4. May 2017, 17:00

Allan Holdsworth / Road Games

Used drive : ATAPI DVD A DH16ABSH Adapter: 1 ID: 0

Read mode : Secure
Utilize accurate stream : Yes
Defeat audio cache : Yes
Make use of C2 pointers : No

Read offset correction : 6
Overread into Lead-In and Lead-Out : No
Fill up missing offset samples with silence : Yes
Delete leading and trailing silent blocks : No
Null samples used in CRC calculations : Yes
Used interface : Native Win32 interface for Win NT & 2000
Gap handling : Appended to previous track

Used output format : User Defined Encoder
Selected bitrate : 1024 kBit/s
Quality : High
Add ID3 tag : No
Command line compressor : C:\Program Files (x86)\Exact Audio Copy\Flac\flac.exe
Additional command line options : -8 -e -p -V -T "ARTIST=%artist%" -T "TITLE=%title%" -T "ALBUM=%albumtitle%" -T "DATE=%year%" -T "TRACKNUMBER=%tracknr%" -T "GENRE=%genre%" -T "PERFORMER=%albuminterpret%" -T "COMPOSER=%composer%" %haslyrics%–tag-from-file=LYRICS="%lyricsfile%"%haslyrics% -T "ALBUMARTIST=%albumartist%" -T "DISCNUMBER=%cdnumber%" -T "TOTALDISCS=%totalcds%" -T "TOTALTRACKS=%numtracks%" -T "COMMENT=%comment%" %source% -o %dest%


TOC of the extracted CD

Track | Start | Length | Start sector | End sector
––––––––––––––––––––––––––––-
1 | 0:00.00 | 4:14.30 | 0 | 19079
2 | 4:14.30 | 4:14.08 | 19080 | 38137
3 | 8:28.38 | 2:48.04 | 38138 | 50741
4 | 11:16.42 | 4:03.70 | 50742 | 69036
5 | 15:20.37 | 4:09.40 | 69037 | 87751
6 | 19:30.02 | 4:40.69 | 87752 | 108820


Track 1

Filename A:\EAC Rips\Allan Holdsworth - The Man Who Changed Guitar Forever! (The Allan Holdsworth Collection) (2017) [FLAC] {MFO 46502-46514}\Disc 2 - Road Games\01 - Three Sheets To The Wind.wav

Pre-gap length 0:00:02.00

Peak level 85.1 %
Extraction speed 1.9 X
Track quality 100.0 %
Test CRC 5BE8F2A5
Copy CRC 5BE8F2A5
Track not present in AccurateRip database
Copy OK

Track 2

Filename A:\EAC Rips\Allan Holdsworth - The Man Who Changed Guitar Forever! (The Allan Holdsworth Collection) (2017) [FLAC] {MFO 46502-46514}\Disc 2 - Road Games\02 - Road Games.wav

Pre-gap length 0:00:03.10

Peak level 84.9 %
Extraction speed 2.1 X
Track quality 100.0 %
Test CRC E12AAA33
Copy CRC E12AAA33
Track not present in AccurateRip database
Copy OK

Track 3

Filename A:\EAC Rips\Allan Holdsworth - The Man Who Changed Guitar Forever! (The Allan Holdsworth Collection) (2017) [FLAC] {MFO 46502-46514}\Disc 2 - Road Games\03 - Water On the Brain Pt ll.wav

Pre-gap length 0:00:03.50

Peak level 88.9 %
Extraction speed 2.1 X
Track quality 100.0 %
Test CRC E7C40AFE
Copy CRC E7C40AFE
Track not present in AccurateRip database
Copy OK

Track 4

Filename A:\EAC Rips\Allan Holdsworth - The Man Who Changed Guitar Forever! (The Allan Holdsworth Collection) (2017) [FLAC] {MFO 46502-46514}\Disc 2 - Road Games\04 - Tokyo Dream.wav

Pre-gap length 0:00:02.74

Peak level 83.9 %
Extraction speed 2.4 X
Track quality 100.0 %
Test CRC 7818484D
Copy CRC 7818484D
Track not present in AccurateRip database
Copy OK

Track 5

Filename A:\EAC Rips\Allan Holdsworth - The Man Who Changed Guitar Forever! (The Allan Holdsworth Collection) (2017) [FLAC] {MFO 46502-46514}\Disc 2 - Road Games\05 - Was There.wav

Pre-gap length 0:00:02.72

Peak level 81.7 %
Extraction speed 2.6 X
Track quality 100.0 %
Test CRC 7B16FDF9
Copy CRC 7B16FDF9
Track not present in AccurateRip database
Copy OK

Track 6

Filename A:\EAC Rips\Allan Holdsworth - The Man Who Changed Guitar Forever! (The Allan Holdsworth Collection) (2017) [FLAC] {MFO 46502-46514}\Disc 2 - Road Games\06 - Material Real.wav

Pre-gap length 0:00:04.90

Peak level 83.0 %
Extraction speed 2.8 X
Track quality 100.0 %
Test CRC A584ED99
Copy CRC A584ED99
Track not present in AccurateRip database
Copy OK


None of the tracks are present in the AccurateRip database

No errors occurred

End of status report

–– CUETools DB Plugin V2.1.6

[CTDB TOCID: MbjLPUlPpMmdXtXdE1FD1OAE2Iw-] found
Submit result: MbjLPUlPpMmdXtXdE1FD1OAE2Iw- has been confirmed
Track | CTDB Status
1 | (11/11) Accurately ripped
2 | (11/11) Accurately ripped
3 | (11/11) Accurately ripped
4 | (11/11) Accurately ripped
5 | (11/11) Accurately ripped
6 | (11/11) Accurately ripped


==== Log checksum 4AE821897A422960257AA5D102EAC1467D351FC92F19546BEA4EBE56DB9274F5 ====


CD3 Metal Fatigue

01. Metal Fatigue
02. Home
03. Devil Take The Hindmost
04. Panic Station
05. The Un Merry Go Round
06. In The Mystery

Exact Audio Copy V1.3 from 2. September 2016

EAC extraction logfile from 4. May 2017, 17:43

Allan Holdsworth / Metal Fatigue

Used drive : ATAPI DVD A DH16ABSH Adapter: 1 ID: 0

Read mode : Secure
Utilize accurate stream : Yes
Defeat audio cache : Yes
Make use of C2 pointers : No

Read offset correction : 6
Overread into Lead-In and Lead-Out : No
Fill up missing offset samples with silence : Yes
Delete leading and trailing silent blocks : No
Null samples used in CRC calculations : Yes
Used interface : Native Win32 interface for Win NT & 2000
Gap handling : Appended to previous track

Used output format : User Defined Encoder
Selected bitrate : 1024 kBit/s
Quality : High
Add ID3 tag : No
Command line compressor : C:\Program Files (x86)\Exact Audio Copy\Flac\flac.exe
Additional command line options : -8 -e -p -V -T "ARTIST=%artist%" -T "TITLE=%title%" -T "ALBUM=%albumtitle%" -T "DATE=%year%" -T "TRACKNUMBER=%tracknr%" -T "GENRE=%genre%" -T "PERFORMER=%albuminterpret%" -T "COMPOSER=%composer%" %haslyrics%–tag-from-file=LYRICS="%lyricsfile%"%haslyrics% -T "ALBUMARTIST=%albumartist%" -T "DISCNUMBER=%cdnumber%" -T "TOTALDISCS=%totalcds%" -T "TOTALTRACKS=%numtracks%" -T "COMMENT=%comment%" %source% -o %dest%


TOC of the extracted CD

Track | Start | Length | Start sector | End sector
––––––––––––––––––––––––––––-
1 | 0:00.00 | 4:56.00 | 0 | 22199
2 | 4:56.00 | 5:33.27 | 22200 | 47201
3 | 10:29.27 | 5:36.55 | 47202 | 72456
4 | 16:06.07 | 3:36.50 | 72457 | 88706
5 | 19:42.57 | 14:08.66 | 88707 | 152372
6 | 33:51.48 | 3:46.55 | 152373 | 169377


Track 1

Filename A:\EAC Rips\Allan Holdsworth - The Man Who Changed Guitar Forever! (The Allan Holdsworth Collection) (2017) [FLAC] {MFO 46502-46514}\Disc 3 - Metal Fatigue\01 - Metal Fatigue.wav

Pre-gap length 0:00:02.00

Peak level 86.5 %
Extraction speed 2.0 X
Track quality 100.0 %
Test CRC B4F3EB80
Copy CRC B4F3EB80
Track not present in AccurateRip database
Copy OK

Track 2

Filename A:\EAC Rips\Allan Holdsworth - The Man Who Changed Guitar Forever! (The Allan Holdsworth Collection) (2017) [FLAC] {MFO 46502-46514}\Disc 3 - Metal Fatigue\02 - Home.wav

Peak level 80.5 %
Extraction speed 2.3 X
Track quality 100.0 %
Test CRC F23AA18C
Copy CRC F23AA18C
Track not present in AccurateRip database
Copy OK

Track 3

Filename A:\EAC Rips\Allan Holdsworth - The Man Who Changed Guitar Forever! (The Allan Holdsworth Collection) (2017) [FLAC] {MFO 46502-46514}\Disc 3 - Metal Fatigue\03 - Devil Take The Hindmost.wav

Pre-gap length 0:00:02.60

Peak level 80.5 %
Extraction speed 2.5 X
Track quality 100.0 %
Test CRC 258C7EA5
Copy CRC 258C7EA5
Track not present in AccurateRip database
Copy OK

Track 4

Filename A:\EAC Rips\Allan Holdsworth - The Man Who Changed Guitar Forever! (The Allan Holdsworth Collection) (2017) [FLAC] {MFO 46502-46514}\Disc 3 - Metal Fatigue\04 - Panic Station.wav

Peak level 84.6 %
Extraction speed 2.5 X
Track quality 100.0 %
Test CRC 4206DF50
Copy CRC 4206DF50
Track not present in AccurateRip database
Copy OK

Track 5

Filename A:\EAC Rips\Allan Holdsworth - The Man Who Changed Guitar Forever! (The Allan Holdsworth Collection) (2017) [FLAC] {MFO 46502-46514}\Disc 3 - Metal Fatigue\05 - The Un Merry Go Round.wav

Pre-gap length 0:00:02.25

Peak level 90.6 %
Extraction speed 3.2 X
Track quality 100.0 %
Test CRC 18538B00
Copy CRC 18538B00
Track not present in AccurateRip database
Copy OK

Track 6

Filename A:\EAC Rips\Allan Holdsworth - The Man Who Changed Guitar Forever! (The Allan Holdsworth Collection) (2017) [FLAC] {MFO 46502-46514}\Disc 3 - Metal Fatigue\06 - In The Mystery.wav

Pre-gap length 0:00:01.45

Peak level 82.9 %
Extraction speed 2.8 X
Track quality 99.9 %
Test CRC 9F297174
Copy CRC 9F297174
Track not present in AccurateRip database
Copy OK


None of the tracks are present in the AccurateRip database

No errors occurred

End of status report

–– CUETools DB Plugin V2.1.6

[CTDB TOCID: BNKEfypRS5m04uNwCP8CF2gCS20-] found
Submit result: BNKEfypRS5m04uNwCP8CF2gCS20- has been confirmed
Track | CTDB Status
1 | (11/11) Accurately ripped
2 | (11/11) Accurately ripped
3 | (11/11) Accurately ripped
4 | (11/11) Accurately ripped
5 | (11/11) Accurately ripped
6 | (11/11) Accurately ripped


==== Log checksum 05D39293AF1D93B9A92C3AD00833E16D56175289DDA52AD7C60DCFBE693E9706 ====


CD4 Atavachron

01. Non Brewed Condiment
02. Funnels
03. The Dominant Plague
04. Atavachron
05. Looking Glass
06. Mr. Berwell
07. All Our Yesterdays

Exact Audio Copy V1.3 from 2. September 2016

EAC extraction logfile from 4. May 2017, 18:37

Allan Holdsworth / Atavachron

Used drive : ASUS DRW-24B1ST j Adapter: 1 ID: 0

Read mode : Secure
Utilize accurate stream : Yes
Defeat audio cache : Yes
Make use of C2 pointers : No

Read offset correction : 6
Overread into Lead-In and Lead-Out : No
Fill up missing offset samples with silence : Yes
Delete leading and trailing silent blocks : No
Null samples used in CRC calculations : Yes
Used interface : Native Win32 interface for Win NT & 2000
Gap handling : Appended to previous track

Used output format : User Defined Encoder
Selected bitrate : 1024 kBit/s
Quality : High
Add ID3 tag : No
Command line compressor : C:\Program Files (x86)\Exact Audio Copy\Flac\flac.exe
Additional command line options : -8 -e -p -V -T "ARTIST=%artist%" -T "TITLE=%title%" -T "ALBUM=%albumtitle%" -T "DATE=%year%" -T "TRACKNUMBER=%tracknr%" -T "GENRE=%genre%" -T "PERFORMER=%albuminterpret%" -T "COMPOSER=%composer%" %haslyrics%–tag-from-file=LYRICS="%lyricsfile%"%haslyrics% -T "ALBUMARTIST=%albumartist%" -T "DISCNUMBER=%cdnumber%" -T "TOTALDISCS=%totalcds%" -T "TOTALTRACKS=%numtracks%" -T "COMMENT=%comment%" %source% -o %dest%


TOC of the extracted CD

Track | Start | Length | Start sector | End sector
––––––––––––––––––––––––––––-
1 | 0:00.00 | 3:40.73 | 0 | 16572
2 | 3:40.73 | 6:13.59 | 16573 | 44606
3 | 9:54.57 | 5:44.21 | 44607 | 70427
4 | 15:39.03 | 4:44.48 | 70428 | 91775
5 | 20:23.51 | 4:35.74 | 91776 | 112474
6 | 24:59.50 | 6:24.53 | 112475 | 141327
7 | 31:24.28 | 5:22.37 | 141328 | 165514


Track 1

Filename I:\Dropbox\EAC\4\01 - Non Brewed Condiment.wav

Pre-gap length 0:00:02.00

Peak level 87.3 %
Extraction speed 5.3 X
Track quality 100.0 %
Test CRC E9DB7DD3
Copy CRC E9DB7DD3
Track not present in AccurateRip database
Copy OK

Track 2

Filename I:\Dropbox\EAC\4\02 - Funnels.wav

Pre-gap length 0:00:00.76

Peak level 98.8 %
Extraction speed 5.6 X
Track quality 99.9 %
Test CRC 06C57E7F
Copy CRC 06C57E7F
Track not present in AccurateRip database
Copy OK

Track 3

Filename I:\Dropbox\EAC\4\03 - The Dominant Plague.wav

Pre-gap length 0:00:01.12

Peak level 83.8 %
Extraction speed 6.1 X
Track quality 99.9 %
Test CRC EC429B1C
Copy CRC EC429B1C
Track not present in AccurateRip database
Copy OK

Track 4

Filename I:\Dropbox\EAC\4\04 - Atavachron.wav

Pre-gap length 0:00:01.93

Peak level 79.8 %
Extraction speed 7.6 X
Track quality 100.0 %
Test CRC B1B5C9AD
Copy CRC B1B5C9AD
Track not present in AccurateRip database
Copy OK

Track 5

Filename I:\Dropbox\EAC\4\05 - Looking Glass.wav

Pre-gap length 0:00:00.96

Peak level 75.9 %
Extraction speed 8.1 X
Track quality 100.0 %
Test CRC 1A9B2FDF
Copy CRC 1A9B2FDF
Track not present in AccurateRip database
Copy OK

Track 6

Filename I:\Dropbox\EAC\4\06 - Mr. Berwell.wav

Peak level 81.0 %
Extraction speed 8.9 X
Track quality 100.0 %
Test CRC CA5AE1F3
Copy CRC CA5AE1F3
Track not present in AccurateRip database
Copy OK

Track 7

Filename I:\Dropbox\EAC\4\07 - All Our Yesterdays.wav

Peak level 83.6 %
Extraction speed 9.3 X
Track quality 100.0 %
Test CRC 144E4682
Copy CRC 144E4682
Track not present in AccurateRip database
Copy OK


None of the tracks are present in the AccurateRip database

No errors occurred

End of status report

–– CUETools DB Plugin V2.1.6

[CTDB TOCID: KS918attw1efStSgS0xEg95OMJA-] found
Submit result: already submitted
Track | CTDB Status
1 | (10/10) Accurately ripped
2 | (10/10) Accurately ripped
3 | (10/10) Accurately ripped
4 | (10/10) Accurately ripped
5 | (10/10) Accurately ripped
6 | (10/10) Accurately ripped
7 | (10/10) Accurately ripped


==== Log checksum 0C9C4EEBCA207C9DDD3B8DB6777A7FD5FB291BD339AD154BD712D8C6E03B26D1 ====


CD5 Sand

01. Sand
02. Distance Vs. Desire
03. Pud Wud
04. Clown
05. The 415 Bradford Executive
06. Macman

Exact Audio Copy V1.3 from 2. September 2016

EAC extraction logfile from 4. May 2017, 18:21

Allan Holdsworth / Sand

Used drive : ATAPI DVD A DH16ABSH Adapter: 1 ID: 0

Read mode : Secure
Utilize accurate stream : Yes
Defeat audio cache : Yes
Make use of C2 pointers : No

Read offset correction : 6
Overread into Lead-In and Lead-Out : No
Fill up missing offset samples with silence : Yes
Delete leading and trailing silent blocks : No
Null samples used in CRC calculations : Yes
Used interface : Native Win32 interface for Win NT & 2000
Gap handling : Appended to previous track

Used output format : User Defined Encoder
Selected bitrate : 1024 kBit/s
Quality : High
Add ID3 tag : No
Command line compressor : C:\Program Files (x86)\Exact Audio Copy\Flac\flac.exe
Additional command line options : -8 -e -p -V -T "ARTIST=%artist%" -T "TITLE=%title%" -T "ALBUM=%albumtitle%" -T "DATE=%year%" -T "TRACKNUMBER=%tracknr%" -T "GENRE=%genre%" -T "PERFORMER=%albuminterpret%" -T "COMPOSER=%composer%" %haslyrics%–tag-from-file=LYRICS="%lyricsfile%"%haslyrics% -T "ALBUMARTIST=%albumartist%" -T "DISCNUMBER=%cdnumber%" -T "TOTALDISCS=%totalcds%" -T "TOTALTRACKS=%numtracks%" -T "COMMENT=%comment%" %source% -o %dest%


TOC of the extracted CD

Track | Start | Length | Start sector | End sector
––––––––––––––––––––––––––––-
1 | 0:00.00 | 5:25.13 | 0 | 24387
2 | 5:25.13 | 5:17.73 | 24388 | 48235
3 | 10:43.11 | 6:43.60 | 48236 | 78520
4 | 17:26.71 | 5:13.10 | 78521 | 102005
5 | 22:40.06 | 8:28.54 | 102006 | 140159
6 | 31:08.60 | 4:00.43 | 140160 | 158202


Track 1

Filename A:\EAC Rips\Allan Holdsworth - The Man Who Changed Guitar Forever! (The Allan Holdsworth Album Collection) (2017) [FLAC] {MFO 46502-46514}\Disc 5 - Sand\01 - Sand.wav

Pre-gap length 0:00:02.00

Peak level 91.2 %
Extraction speed 2.0 X
Track quality 100.0 %
Test CRC FD04091B
Copy CRC FD04091B
Track not present in AccurateRip database
Copy OK

Track 2

Filename A:\EAC Rips\Allan Holdsworth - The Man Who Changed Guitar Forever! (The Allan Holdsworth Album Collection) (2017) [FLAC] {MFO 46502-46514}\Disc 5 - Sand\02 - Distance Vs. Desire.wav

Pre-gap length 0:00:01.92

Peak level 81.5 %
Extraction speed 2.3 X
Track quality 100.0 %
Test CRC 65D2C95C
Copy CRC 65D2C95C
Track not present in AccurateRip database
Copy OK

Track 3

Filename A:\EAC Rips\Allan Holdsworth - The Man Who Changed Guitar Forever! (The Allan Holdsworth Album Collection) (2017) [FLAC] {MFO 46502-46514}\Disc 5 - Sand\03 - Pud Wud.wav

Pre-gap length 0:00:02.98

Peak level 91.9 %
Extraction speed 2.6 X
Track quality 100.0 %
Test CRC A97BA444
Copy CRC A97BA444
Track not present in AccurateRip database
Copy OK

Track 4

Filename A:\EAC Rips\Allan Holdsworth - The Man Who Changed Guitar Forever! (The Allan Holdsworth Album Collection) (2017) [FLAC] {MFO 46502-46514}\Disc 5 - Sand\04 - Clown.wav

Pre-gap length 0:00:02.88

Peak level 89.2 %
Extraction speed 2.8 X
Track quality 100.0 %
Test CRC DB7865BC
Copy CRC DB7865BC
Track not present in AccurateRip database
Copy OK

Track 5

Filename A:\EAC Rips\Allan Holdsworth - The Man Who Changed Guitar Forever! (The Allan Holdsworth Album Collection) (2017) [FLAC] {MFO 46502-46514}\Disc 5 - Sand\05 - The 415 Bradford Executive.wav

Peak level 90.0 %
Extraction speed 3.2 X
Track quality 100.0 %
Test CRC 141ECB83
Copy CRC 141ECB83
Track not present in AccurateRip database
Copy OK

Track 6

Filename A:\EAC Rips\Allan Holdsworth - The Man Who Changed Guitar Forever! (The Allan Holdsworth Album Collection) (2017) [FLAC] {MFO 46502-46514}\Disc 5 - Sand\06 - Macman.wav

Pre-gap length 0:00:01.80

Peak level 90.1 %
Extraction speed 3.1 X
Track quality 100.0 %
Test CRC D7CC7451
Copy CRC D7CC7451
Track not present in AccurateRip database
Copy OK


None of the tracks are present in the AccurateRip database

No errors occurred

End of status report

–– CUETools DB Plugin V2.1.6

[CTDB TOCID: XdZNvD5RlcEweBJboZEIISYphVk-] found
Submit result: XdZNvD5RlcEweBJboZEIISYphVk- has been confirmed
Track | CTDB Status
1 | (10/10) Accurately ripped
2 | (10/10) Accurately ripped
3 | (10/10) Accurately ripped
4 | (10/10) Accurately ripped
5 | (10/10) Accurately ripped
6 | (10/10) Accurately ripped


==== Log checksum 18F52372B5D434623D10D646BEA54CEA11128EBA680646AA847B928528AD16C2 ====


CD6 Secrets

01. City Nights
02. Secrets
03. 54 Duncan Terrace
04. Joshua
05. Spokes
06. Maid Marion
07. Peril Premonition
08. Endomorph

Exact Audio Copy V1.3 from 2. September 2016

EAC extraction logfile from 4. May 2017, 19:00

Allan Holdsworth / Secrets

Used drive : ASUS DRW-24B1ST j Adapter: 1 ID: 0

Read mode : Secure
Utilize accurate stream : Yes
Defeat audio cache : Yes
Make use of C2 pointers : No

Read offset correction : 6
Overread into Lead-In and Lead-Out : No
Fill up missing offset samples with silence : Yes
Delete leading and trailing silent blocks : No
Null samples used in CRC calculations : Yes
Used interface : Native Win32 interface for Win NT & 2000
Gap handling : Appended to previous track

Used output format : User Defined Encoder
Selected bitrate : 1024 kBit/s
Quality : High
Add ID3 tag : No
Command line compressor : C:\Program Files (x86)\Exact Audio Copy\Flac\flac.exe
Additional command line options : -8 -e -p -V -T "ARTIST=%artist%" -T "TITLE=%title%" -T "ALBUM=%albumtitle%" -T "DATE=%year%" -T "TRACKNUMBER=%tracknr%" -T "GENRE=%genre%" -T "PERFORMER=%albuminterpret%" -T "COMPOSER=%composer%" %haslyrics%–tag-from-file=LYRICS="%lyricsfile%"%haslyrics% -T "ALBUMARTIST=%albumartist%" -T "DISCNUMBER=%cdnumber%" -T "TOTALDISCS=%totalcds%" -T "TOTALTRACKS=%numtracks%" -T "COMMENT=%comment%" %source% -o %dest%


TOC of the extracted CD

Track | Start | Length | Start sector | End sector
––––––––––––––––––––––––––––-
1 | 0:00.00 | 2:33.13 | 0 | 11487
2 | 2:33.13 | 4:21.74 | 11488 | 31136
3 | 6:55.12 | 4:35.14 | 31137 | 51775
4 | 11:30.26 | 5:59.01 | 51776 | 78701
5 | 17:29.27 | 3:32.50 | 78702 | 94651
6 | 21:02.02 | 7:17.09 | 94652 | 127435
7 | 28:19.11 | 4:45.11 | 127436 | 148821
8 | 33:04.22 | 4:18.72 | 148822 | 168243


Track 1

Filename I:\Dropbox\EAC\6\01 - City Nights.wav

Pre-gap length 0:00:02.00

Peak level 93.1 %
Extraction speed 4.9 X
Track quality 100.0 %
Test CRC F30978FA
Copy CRC F30978FA
Track not present in AccurateRip database
Copy OK

Track 2

Filename I:\Dropbox\EAC\6\02 - Secrets.wav

Pre-gap length 0:00:00.41

Peak level 89.5 %
Extraction speed 5.9 X
Track quality 100.0 %
Test CRC 075F78AC
Copy CRC 075F78AC
Track not present in AccurateRip database
Copy OK

Track 3

Filename I:\Dropbox\EAC\6\03 - 54 Duncan Terrace.wav

Pre-gap length 0:00:00.98

Peak level 92.5 %
Extraction speed 5.1 X
Track quality 99.9 %
Test CRC 2944A819
Copy CRC 2944A819
Track not present in AccurateRip database
Copy OK

Track 4

Filename I:\Dropbox\EAC\6\04 - Joshua.wav

Pre-gap length 0:00:01.40

Peak level 92.0 %
Extraction speed 7.4 X
Track quality 100.0 %
Test CRC A4CEE533
Copy CRC A4CEE533
Track not present in AccurateRip database
Copy OK

Track 5

Filename I:\Dropbox\EAC\6\05 - Spokes.wav

Pre-gap length 0:00:03.88

Peak level 90.4 %
Extraction speed 7.5 X
Track quality 100.0 %
Test CRC 6CD6EB87
Copy CRC 6CD6EB87
Track not present in AccurateRip database
Copy OK

Track 6

Filename I:\Dropbox\EAC\6\06 - Maid Marion.wav

Pre-gap length 0:00:03.01

Peak level 92.8 %
Extraction speed 8.7 X
Track quality 100.0 %
Test CRC 776FA345
Copy CRC 776FA345
Track not present in AccurateRip database
Copy OK

Track 7

Filename I:\Dropbox\EAC\6\07 - Peril Premonition.wav

Pre-gap length 0:00:00.98

Peak level 95.0 %
Extraction speed 8.9 X
Track quality 100.0 %
Test CRC 0B4D39AD
Copy CRC 0B4D39AD
Track not present in AccurateRip database
Copy OK

Track 8

Filename I:\Dropbox\EAC\6\08 - Endomorph.wav

Pre-gap length 0:00:01.10

Peak level 78.1 %
Extraction speed 7.5 X
Track quality 99.9 %
Test CRC 84EFEE7A
Copy CRC 84EFEE7A
Track not present in AccurateRip database
Copy OK


None of the tracks are present in the AccurateRip database

No errors occurred

End of status report

–– CUETools DB Plugin V2.1.6

[CTDB TOCID: Z4szW8SGu8QwkhFAi1D7uVcQyxM-] found
Submit result: already submitted
Track | CTDB Status
1 | (10/10) Accurately ripped
2 | (10/10) Accurately ripped
3 | (10/10) Accurately ripped
4 | (10/10) Accurately ripped
5 | (10/10) Accurately ripped
6 | (10/10) Accurately ripped
7 | (10/10) Accurately ripped
8 | (10/10) Accurately ripped


==== Log checksum C3E9463EA3947DDD43DA546F1EA3FAD265095B54270944D78AEFF94049967774 ====


CD7 Wardenclyffe Towe

01. 5 To 10
02. Sphere Of Influence
03. Wardenclyffe Tower
04. Dodgy Boat
05. Zarabeth
06. Against the Clock
07. Questions
08. Oneric Moor
09. Tokyo Dream
10. The Un-Merry Go Round Pt 4
11. The Un-Merry Go Round Pt 5

Exact Audio Copy V1.3 from 2. September 2016

EAC extraction logfile from 4. May 2017, 19:22

Allan Holdsworth / Wardenclyffe Tower

Used drive : ATAPI DVD A DH16ABSH Adapter: 1 ID: 0

Read mode : Secure
Utilize accurate stream : Yes
Defeat audio cache : Yes
Make use of C2 pointers : No

Read offset correction : 6
Overread into Lead-In and Lead-Out : No
Fill up missing offset samples with silence : Yes
Delete leading and trailing silent blocks : No
Null samples used in CRC calculations : Yes
Used interface : Native Win32 interface for Win NT & 2000
Gap handling : Appended to previous track

Used output format : User Defined Encoder
Selected bitrate : 1024 kBit/s
Quality : High
Add ID3 tag : No
Command line compressor : C:\Program Files (x86)\Exact Audio Copy\Flac\flac.exe
Additional command line options : -8 -e -p -V -T "ARTIST=%artist%" -T "TITLE=%title%" -T "ALBUM=%albumtitle%" -T "DATE=%year%" -T "TRACKNUMBER=%tracknr%" -T "GENRE=%genre%" -T "PERFORMER=%albuminterpret%" -T "COMPOSER=%composer%" %haslyrics%–tag-from-file=LYRICS="%lyricsfile%"%haslyrics% -T "ALBUMARTIST=%albumartist%" -T "DISCNUMBER=%cdnumber%" -T "TOTALDISCS=%totalcds%" -T "TOTALTRACKS=%numtracks%" -T "COMMENT=%comment%" %source% -o %dest%


TOC of the extracted CD

Track | Start | Length | Start sector | End sector
––––––––––––––––––––––––––––-
1 | 0:00.00 | 5:36.26 | 0 | 25225
2 | 5:36.26 | 5:58.63 | 25226 | 52138
3 | 11:35.14 | 8:44.60 | 52139 | 91498
4 | 20:19.74 | 5:37.73 | 91499 | 116846
5 | 25:57.72 | 6:31.64 | 116847 | 146235
6 | 32:29.61 | 4:58.17 | 146236 | 168602
7 | 37:28.03 | 4:07.24 | 168603 | 187151
8 | 41:35.27 | 1:42.54 | 187152 | 194855
9 | 43:18.06 | 5:05.47 | 194856 | 217777
10 | 48:23.53 | 3:01.32 | 217778 | 231384
11 | 51:25.10 | 1:58.49 | 231385 | 240283


Track 1

Filename A:\EAC Rips\Allan Holdsworth - The Man Who Changed Guitar Forever! (The Allan Holdsworth Album Collection) (2017) [FLAC] {MFO 46502-46514}\Disc 7 - Wardenclyffe Tower\01 - 5 To 10.wav

Pre-gap length 0:00:02.00

Peak level 93.2 %
Extraction speed 2.0 X
Track quality 100.0 %
Test CRC E5465D9A
Copy CRC E5465D9A
Track not present in AccurateRip database
Copy OK

Track 2

Filename A:\EAC Rips\Allan Holdsworth - The Man Who Changed Guitar Forever! (The Allan Holdsworth Album Collection) (2017) [FLAC] {MFO 46502-46514}\Disc 7 - Wardenclyffe Tower\02 - Sphere Of Influence.wav

Pre-gap length 0:00:01.92

Peak level 92.0 %
Extraction speed 2.3 X
Track quality 100.0 %
Test CRC 21C7CF2E
Copy CRC 21C7CF2E
Track not present in AccurateRip database
Copy OK

Track 3

Filename A:\EAC Rips\Allan Holdsworth - The Man Who Changed Guitar Forever! (The Allan Holdsworth Album Collection) (2017) [FLAC] {MFO 46502-46514}\Disc 7 - Wardenclyffe Tower\03 - Wardenclyffe Tower.wav

Pre-gap length 0:00:01.66

Peak level 91.5 %
Extraction speed 2.7 X
Track quality 100.0 %
Test CRC 76EA8BD2
Copy CRC 76EA8BD2
Track not present in AccurateRip database
Copy OK

Track 4

Filename A:\EAC Rips\Allan Holdsworth - The Man Who Changed Guitar Forever! (The Allan Holdsworth Album Collection) (2017) [FLAC] {MFO 46502-46514}\Disc 7 - Wardenclyffe Tower\04 - Dodgy Boat.wav

Pre-gap length 0:00:01.86

Peak level 89.2 %
Extraction speed 2.6 X
Track quality 99.9 %
Test CRC 671C7042
Copy CRC 671C7042
Track not present in AccurateRip database
Copy OK

Track 5

Filename A:\EAC Rips\Allan Holdsworth - The Man Who Changed Guitar Forever! (The Allan Holdsworth Album Collection) (2017) [FLAC] {MFO 46502-46514}\Disc 7 - Wardenclyffe Tower\05 - Zarabeth.wav

Pre-gap length 0:00:02.77

Peak level 88.7 %
Extraction speed 3.2 X
Track quality 100.0 %
Test CRC EE89233B
Copy CRC EE89233B
Track not present in AccurateRip database
Copy OK

Track 6

Filename A:\EAC Rips\Allan Holdsworth - The Man Who Changed Guitar Forever! (The Allan Holdsworth Album Collection) (2017) [FLAC] {MFO 46502-46514}\Disc 7 - Wardenclyffe Tower\06 - Against the Clock.wav

Pre-gap length 0:00:01.97

Peak level 93.2 %
Extraction speed 3.3 X
Track quality 100.0 %
Test CRC F6662855
Copy CRC F6662855
Track not present in AccurateRip database
Copy OK

Track 7

Filename A:\EAC Rips\Allan Holdsworth - The Man Who Changed Guitar Forever! (The Allan Holdsworth Album Collection) (2017) [FLAC] {MFO 46502-46514}\Disc 7 - Wardenclyffe Tower\07 - Questions.wav

Pre-gap length 0:00:02.38

Peak level 98.8 %
Extraction speed 2.9 X
Track quality 99.9 %
Test CRC 1C2C8B7B
Copy CRC 1C2C8B7B
Track not present in AccurateRip database
Copy OK

Track 8

Filename A:\EAC Rips\Allan Holdsworth - The Man Who Changed Guitar Forever! (The Allan Holdsworth Album Collection) (2017) [FLAC] {MFO 46502-46514}\Disc 7 - Wardenclyffe Tower\08 - Oneric Moor.wav

Pre-gap length 0:00:01.65

Peak level 68.8 %
Extraction speed 2.8 X
Track quality 100.0 %
Test CRC A24697BF
Copy CRC A24697BF
Track not present in AccurateRip database
Copy OK

Track 9

Filename A:\EAC Rips\Allan Holdsworth - The Man Who Changed Guitar Forever! (The Allan Holdsworth Album Collection) (2017) [FLAC] {MFO 46502-46514}\Disc 7 - Wardenclyffe Tower\09 - Tokyo Dream.wav

Pre-gap length 0:00:01.97

Peak level 90.5 %
Extraction speed 3.6 X
Track quality 100.0 %
Test CRC 82A5A109
Copy CRC 82A5A109
Track not present in AccurateRip database
Copy OK

Track 10

Filename A:\EAC Rips\Allan Holdsworth - The Man Who Changed Guitar Forever! (The Allan Holdsworth Album Collection) (2017) [FLAC] {MFO 46502-46514}\Disc 7 - Wardenclyffe Tower\10 - The Un-Merry Go Round Pt 4.wav

Pre-gap length 0:00:02.01

Peak level 91.0 %
Extraction speed 3.4 X
Track quality 100.0 %
Test CRC 8A10479F
Copy CRC 8A10479F
Track not present in AccurateRip database
Copy OK

Track 11

Filename A:\EAC Rips\Allan Holdsworth - The Man Who Changed Guitar Forever! (The Allan Holdsworth Album Collection) (2017) [FLAC] {MFO 46502-46514}\Disc 7 - Wardenclyffe Tower\11 - The Un-Merry Go Round Pt 5.wav

Pre-gap length 0:00:01.34

Peak level 84.1 %
Extraction speed 3.2 X
Track quality 100.0 %
Test CRC E2642461
Copy CRC E2642461
Track not present in AccurateRip database
Copy OK


None of the tracks are present in the AccurateRip database

No errors occurred

End of status report

–– CUETools DB Plugin V2.1.6

[CTDB TOCID: Sl1mC92HCCKChVjivNXWE_X8w80-] found
Submit result: Sl1mC92HCCKChVjivNXWE_X8w80- has been confirmed
Track | CTDB Status
1 | (8/8) Accurately ripped
2 | (8/8) Accurately ripped
3 | (8/8) Accurately ripped
4 | (8/8) Accurately ripped
5 | (8/8) Accurately ripped
6 | (8/8) Accurately ripped
7 | (8/8) Accurately ripped
8 | (8/8) Accurately ripped
9 | (8/8) Accurately ripped
10 | (8/8) Accurately ripped
11 | (8/8) Accurately ripped


==== Log checksum B14BD1C1D5075B0ED9DBE50BB7129963B33E88A43CD224CF3591C056094AB890 ====


CD8 Hard Hat Area

01. Prelude
02. Ruhukah
03. Low Level, High Stakes
04. Hard Hat Area
05. Tullio
06. House Of Mirrors
07. Postlude

Exact Audio Copy V1.3 from 2. September 2016

EAC extraction logfile from 4. May 2017, 19:18

Allan Holdsworth / Hard Hat Area

Used drive : ASUS DRW-24B1ST j Adapter: 1 ID: 0

Read mode : Secure
Utilize accurate stream : Yes
Defeat audio cache : Yes
Make use of C2 pointers : No

Read offset correction : 6
Overread into Lead-In and Lead-Out : No
Fill up missing offset samples with silence : Yes
Delete leading and trailing silent blocks : No
Null samples used in CRC calculations : Yes
Used interface : Native Win32 interface for Win NT & 2000
Gap handling : Appended to previous track

Used output format : User Defined Encoder
Selected bitrate : 1024 kBit/s
Quality : High
Add ID3 tag : No
Command line compressor : C:\Program Files (x86)\Exact Audio Copy\Flac\flac.exe
Additional command line options : -8 -e -p -V -T "ARTIST=%artist%" -T "TITLE=%title%" -T "ALBUM=%albumtitle%" -T "DATE=%year%" -T "TRACKNUMBER=%tracknr%" -T "GENRE=%genre%" -T "PERFORMER=%albuminterpret%" -T "COMPOSER=%composer%" %haslyrics%–tag-from-file=LYRICS="%lyricsfile%"%haslyrics% -T "ALBUMARTIST=%albumartist%" -T "DISCNUMBER=%cdnumber%" -T "TOTALDISCS=%totalcds%" -T "TOTALTRACKS=%numtracks%" -T "COMMENT=%comment%" %source% -o %dest%


TOC of the extracted CD

Track | Start | Length | Start sector | End sector
––––––––––––––––––––––––––––-
1 | 0:00.00 | 1:35.21 | 0 | 7145
2 | 1:35.21 | 5:34.28 | 7146 | 32223
3 | 7:09.49 | 9:05.08 | 32224 | 73106
4 | 16:14.57 | 6:06.35 | 73107 | 100591
5 | 22:21.17 | 6:02.25 | 100592 | 127766
6 | 28:23.42 | 7:47.33 | 127767 | 162824
7 | 36:11.00 | 5:29.10 | 162825 | 187509


Track 1

Filename I:\Dropbox\EAC\8\01 - Prelude.wav

Pre-gap length 0:00:02.00

Peak level 68.2 %
Extraction speed 3.0 X
Track quality 99.8 %
Test CRC F2287CED
Copy CRC F2287CED
Track not present in AccurateRip database
Copy OK

Track 2

Filename I:\Dropbox\EAC\8\02 - Ruhukah.wav

Peak level 98.8 %
Extraction speed 6.0 X
Track quality 100.0 %
Test CRC D8FF03AE
Copy CRC D8FF03AE
Track not present in AccurateRip database
Copy OK

Track 3

Filename I:\Dropbox\EAC\8\03 - Low Level, High Stakes.wav

Peak level 90.5 %
Extraction speed 6.6 X
Track quality 99.9 %
Test CRC 1CE5EC6F
Copy CRC 1CE5EC6F
Track not present in AccurateRip database
Copy OK

Track 4

Filename I:\Dropbox\EAC\8\04 - Hard Hat Area.wav

Peak level 86.5 %
Extraction speed 7.9 X
Track quality 100.0 %
Test CRC 0BFEEC57
Copy CRC 0BFEEC57
Track not present in AccurateRip database
Copy OK

Track 5

Filename I:\Dropbox\EAC\8\05 - Tullio.wav

Peak level 88.4 %
Extraction speed 8.6 X
Track quality 100.0 %
Test CRC 1C03D3B0
Copy CRC 1C03D3B0
Track not present in AccurateRip database
Copy OK

Track 6

Filename I:\Dropbox\EAC\8\06 - House Of Mirrors.wav

Peak level 91.9 %
Extraction speed 8.4 X
Track quality 99.9 %
Test CRC F437272D
Copy CRC F437272D
Track not present in AccurateRip database
Copy OK

Track 7

Filename I:\Dropbox\EAC\8\07 - Postlude.wav

Peak level 91.9 %
Extraction speed 9.7 X
Track quality 100.0 %
Test CRC 88B28FE3
Copy CRC 88B28FE3
Track not present in AccurateRip database
Copy OK


None of the tracks are present in the AccurateRip database

No errors occurred

End of status report

–– CUETools DB Plugin V2.1.6

[CTDB TOCID: dTaNckKf_N8mbh.IVr0bppjCJg0-] found
Submit result: dTaNckKf_N8mbh.IVr0bppjCJg0- has been confirmed
Track | CTDB Status
1 | (10/10) Accurately ripped
2 | (10/10) Accurately ripped
3 | (10/10) Accurately ripped
4 | (10/10) Accurately ripped
5 | (10/10) Accurately ripped
6 | (10/10) Accurately ripped
7 | (10/10) Accurately ripped


==== Log checksum C7BC05E2AC0C0BA4051AFF8FDE4C92D7C95464CF40C46AA0C4F9C22632FDA779 ====


CD9 None Too Soon

01. Countdown
02. Nuages
03. How Deep Is The Ocean
04. Isotope
05. None Too Soon (Part 1)
06. Norwegian Wood
07. Very Early
08. San Marcos
09. Inner Urge

Exact Audio Copy V1.3 from 2. September 2016

EAC extraction logfile from 4. May 2017, 20:14

Allan Holdsworth / None Too Soon

Used drive : ATAPI DVD A DH16ABSH Adapter: 1 ID: 0

Read mode : Secure
Utilize accurate stream : Yes
Defeat audio cache : Yes
Make use of C2 pointers : No

Read offset correction : 6
Overread into Lead-In and Lead-Out : No
Fill up missing offset samples with silence : Yes
Delete leading and trailing silent blocks : No
Null samples used in CRC calculations : Yes
Used interface : Native Win32 interface for Win NT & 2000
Gap handling : Appended to previous track

Used output format : User Defined Encoder
Selected bitrate : 1024 kBit/s
Quality : High
Add ID3 tag : No
Command line compressor : C:\Program Files (x86)\Exact Audio Copy\Flac\flac.exe
Additional command line options : -8 -e -p -V -T "ARTIST=%artist%" -T "TITLE=%title%" -T "ALBUM=%albumtitle%" -T "DATE=%year%" -T "TRACKNUMBER=%tracknr%" -T "GENRE=%genre%" -T "PERFORMER=%albuminterpret%" -T "COMPOSER=%composer%" %haslyrics%–tag-from-file=LYRICS="%lyricsfile%"%haslyrics% -T "ALBUMARTIST=%albumartist%" -T "DISCNUMBER=%cdnumber%" -T "TOTALDISCS=%totalcds%" -T "TOTALTRACKS=%numtracks%" -T "COMMENT=%comment%" %source% -o %dest%


TOC of the extracted CD

Track | Start | Length | Start sector | End sector
––––––––––––––––––––––––––––-
1 | 0:00.00 | 3:11.00 | 0 | 14324
2 | 3:11.00 | 5:41.19 | 14325 | 39918
3 | 8:52.19 | 5:29.20 | 39919 | 64613
4 | 14:21.39 | 5:42.02 | 64614 | 90265
5 | 20:03.41 | 7:44.00 | 90266 | 125065
6 | 27:47.41 | 5:55.24 | 125066 | 151714
7 | 33:42.65 | 7:41.74 | 151715 | 186363
8 | 41:24.64 | 3:24.24 | 186364 | 201687
9 | 44:49.13 | 6:12.28 | 201688 | 229615


Track 1

Filename A:\EAC Rips\Allan Holdsworth - The Man Who Changed Guitar Forever! (The Allan Holdsworth Album Collection) (2017) [FLAC] {MFO 46502-46514}\Disc 9 - None Too Soon\01 - Countdown.wav

Pre-gap length 0:00:02.00

Peak level 94.7 %
Extraction speed 1.8 X
Track quality 100.0 %
Test CRC 457E8E47
Copy CRC 457E8E47
Track not present in AccurateRip database
Copy OK

Track 2

Filename A:\EAC Rips\Allan Holdsworth - The Man Who Changed Guitar Forever! (The Allan Holdsworth Album Collection) (2017) [FLAC] {MFO 46502-46514}\Disc 9 - None Too Soon\02 - Nuages.wav

Pre-gap length 0:00:02.90

Peak level 80.9 %
Extraction speed 1.7 X
Track quality 99.9 %
Test CRC 9C60C4E7
Copy CRC 9C60C4E7
Track not present in AccurateRip database
Copy OK

Track 3

Filename A:\EAC Rips\Allan Holdsworth - The Man Who Changed Guitar Forever! (The Allan Holdsworth Album Collection) (2017) [FLAC] {MFO 46502-46514}\Disc 9 - None Too Soon\03 - How Deep Is The Ocean.wav

Pre-gap length 0:00:02.16

Peak level 87.2 %
Extraction speed 2.4 X
Track quality 100.0 %
Test CRC 8ED1225C
Copy CRC 8ED1225C
Track not present in AccurateRip database
Copy OK

Track 4

Filename A:\EAC Rips\Allan Holdsworth - The Man Who Changed Guitar Forever! (The Allan Holdsworth Album Collection) (2017) [FLAC] {MFO 46502-46514}\Disc 9 - None Too Soon\04 - Isotope.wav

Pre-gap length 0:00:02.01

Peak level 86.6 %
Extraction speed 2.7 X
Track quality 100.0 %
Test CRC 7C66B7B4
Copy CRC 7C66B7B4
Track not present in AccurateRip database
Copy OK

Track 5

Filename A:\EAC Rips\Allan Holdsworth - The Man Who Changed Guitar Forever! (The Allan Holdsworth Album Collection) (2017) [FLAC] {MFO 46502-46514}\Disc 9 - None Too Soon\05 - None Too Soon (Part 1).wav

Peak level 86.5 %
Extraction speed 3.0 X
Track quality 100.0 %
Test CRC 7F82902D
Copy CRC 7F82902D
Track not present in AccurateRip database
Copy OK

Track 6

Filename A:\EAC Rips\Allan Holdsworth - The Man Who Changed Guitar Forever! (The Allan Holdsworth Album Collection) (2017) [FLAC] {MFO 46502-46514}\Disc 9 - None Too Soon\06 - Norwegian Wood.wav

Pre-gap length 0:00:03.08

Peak level 83.8 %
Extraction speed 3.2 X
Track quality 100.0 %
Test CRC 3536930C
Copy CRC 3536930C
Track not present in AccurateRip database
Copy OK

Track 7

Filename A:\EAC Rips\Allan Holdsworth - The Man Who Changed Guitar Forever! (The Allan Holdsworth Album Collection) (2017) [FLAC] {MFO 46502-46514}\Disc 9 - None Too Soon\07 - Very Early.wav

Pre-gap length 0:00:01.29

Peak level 82.9 %
Extraction speed 3.5 X
Track quality 100.0 %
Test CRC 2B4DA279
Copy CRC 2B4DA279
Track not present in AccurateRip database
Copy OK

Track 8

Filename A:\EAC Rips\Allan Holdsworth - The Man Who Changed Guitar Forever! (The Allan Holdsworth Album Collection) (2017) [FLAC] {MFO 46502-46514}\Disc 9 - None Too Soon\08 - San Marcos.wav

Pre-gap length 0:00:02.61

Peak level 85.7 %
Extraction speed 3.3 X
Track quality 100.0 %
Test CRC D1C11BEA
Copy CRC D1C11BEA
Track not present in AccurateRip database
Copy OK

Track 9

Filename A:\EAC Rips\Allan Holdsworth - The Man Who Changed Guitar Forever! (The Allan Holdsworth Album Collection) (2017) [FLAC] {MFO 46502-46514}\Disc 9 - None Too Soon\09 - Inner Urge.wav

Pre-gap length 0:00:02.82

Peak level 83.0 %
Extraction speed 3.7 X
Track quality 100.0 %
Test CRC 44DF86CD
Copy CRC 44DF86CD
Track not present in AccurateRip database
Copy OK


None of the tracks are present in the AccurateRip database

No errors occurred

End of status report

–– CUETools DB Plugin V2.1.6

[CTDB TOCID: pt7bkgepL.Dz1blEVEp25OOe_hA-] found
Submit result: pt7bkgepL.Dz1blEVEp25OOe_hA- has been confirmed
Track | CTDB Status
1 | (10/10) Accurately ripped
2 | (10/10) Accurately ripped
3 | (10/10) Accurately ripped
4 | (10/10) Accurately ripped
5 | (10/10) Accurately ripped
6 | (10/10) Accurately ripped
7 | (10/10) Accurately ripped
8 | (10/10) Accurately ripped
9 | (10/10) Accurately ripped


==== Log checksum 692B5F1DC49C5A9AC3466DCBC252CCD881AE1D228EABC429466E7EE07B5A06C5 ====


CD10 The Sixteen Men of Tain

01. San Onofre
02. 0274
03. The Sixteen Men Of Tain
04. Above And Below
05. The Drums Were Yellow
06. Texas
07. Downside Up
08. Eidolan
09. Above And Below (Reprise)
10. Material Unreal

Exact Audio Copy V1.3 from 2. September 2016

EAC extraction logfile from 4. May 2017, 21:45

Allan Holdsworth / Sixteen Men Of Tain

Used drive : ASUS DRW-24B1ST j Adapter: 1 ID: 0

Read mode : Secure
Utilize accurate stream : Yes
Defeat audio cache : Yes
Make use of C2 pointers : No

Read offset correction : 6
Overread into Lead-In and Lead-Out : No
Fill up missing offset samples with silence : Yes
Delete leading and trailing silent blocks : No
Null samples used in CRC calculations : Yes
Used interface : Native Win32 interface for Win NT & 2000
Gap handling : Appended to previous track

Used output format : User Defined Encoder
Selected bitrate : 1024 kBit/s
Quality : High
Add ID3 tag : No
Command line compressor : C:\Program Files (x86)\Exact Audio Copy\Flac\flac.exe
Additional command line options : -8 -e -p -V -T "ARTIST=%artist%" -T "TITLE=%title%" -T "ALBUM=%albumtitle%" -T "DATE=%year%" -T "TRACKNUMBER=%tracknr%" -T "GENRE=%genre%" -T "PERFORMER=%albuminterpret%" -T "COMPOSER=%composer%" %haslyrics%–tag-from-file=LYRICS="%lyricsfile%"%haslyrics% -T "ALBUMARTIST=%albumartist%" -T "DISCNUMBER=%cdnumber%" -T "TOTALDISCS=%totalcds%" -T "TOTALTRACKS=%numtracks%" -T "COMMENT=%comment%" %source% -o %dest%


TOC of the extracted CD

Track | Start | Length | Start sector | End sector
––––––––––––––––––––––––––––-
1 | 0:00.00 | 5:48.06 | 0 | 26105
2 | 5:48.06 | 7:45.11 | 26106 | 60991
3 | 13:33.17 | 6:26.00 | 60992 | 89941
4 | 19:59.17 | 3:08.51 | 89942 | 104092
5 | 23:07.68 | 5:57.58 | 104093 | 130925
6 | 29:05.51 | 5:44.66 | 130926 | 156791
7 | 34:50.42 | 7:06.58 | 156792 | 188799
8 | 41:57.25 | 4:36.61 | 188800 | 209560
9 | 46:34.11 | 4:08.66 | 209561 | 228226
10 | 50:43.02 | 2:13.36 | 228227 | 238237


Track 1

Filename I:\Dropbox\eac\01 - San Onofre.wav

Pre-gap length 0:00:02.00

Peak level 91.8 %
Extraction speed 5.8 X
Track quality 100.0 %
Test CRC 078FC0D6
Copy CRC 078FC0D6
Track not present in AccurateRip database
Copy OK

Track 2

Filename I:\Dropbox\eac\02 - 0274.wav

Peak level 84.2 %
Extraction speed 6.3 X
Track quality 99.9 %
Test CRC 389CDB27
Copy CRC 389CDB27
Track not present in AccurateRip database
Copy OK

Track 3

Filename I:\Dropbox\eac\03 - The Sixteen Men Of Tain.wav

Peak level 89.1 %
Extraction speed 7.7 X
Track quality 100.0 %
Test CRC 31AD6B59
Copy CRC 31AD6B59
Track not present in AccurateRip database
Copy OK

Track 4

Filename I:\Dropbox\eac\04 - Above And Below.wav

Peak level 84.2 %
Extraction speed 7.6 X
Track quality 100.0 %
Test CRC 338D2E90
Copy CRC 338D2E90
Track not present in AccurateRip database
Copy OK

Track 5

Filename I:\Dropbox\eac\05 - The Drums Were Yellow.wav

Peak level 85.8 %
Extraction speed 8.7 X
Track quality 100.0 %
Test CRC 71ACBE86
Copy CRC 71ACBE86
Track not present in AccurateRip database
Copy OK

Track 6

Filename I:\Dropbox\eac\06 - Texas.wav

Peak level 86.6 %
Extraction speed 9.2 X
Track quality 100.0 %
Test CRC 65EDC063
Copy CRC 65EDC063
Track not present in AccurateRip database
Copy OK

Track 7

Filename I:\Dropbox\eac\07 - Downside Up.wav

Peak level 95.3 %
Extraction speed 9.9 X
Track quality 100.0 %
Test CRC FB19838A
Copy CRC FB19838A
Track not present in AccurateRip database
Copy OK

Track 8

Filename I:\Dropbox\eac\08 - Eidolan.wav

Peak level 85.9 %
Extraction speed 10.0 X
Track quality 100.0 %
Test CRC 5AEF1B43
Copy CRC 5AEF1B43
Track not present in AccurateRip database
Copy OK

Track 9

Filename I:\Dropbox\eac\09 - Above And Below (Reprise).wav

Peak level 82.8 %
Extraction speed 3.0 X
Track quality 99.7 %
Test CRC C34F6035
Copy CRC C34F6035
Track not present in AccurateRip database
Copy OK

Track 10

Filename I:\Dropbox\eac\10 - Material Unreal.wav

Peak level 94.8 %
Extraction speed 2.5 X
Track quality 99.8 %
Test CRC 6085C854
Copy CRC 6085C854
Track not present in AccurateRip database
Copy OK


None of the tracks are present in the AccurateRip database

No errors occurred

End of status report

–– CUETools DB Plugin V2.1.6

[CTDB TOCID: 97mTBUnpzLQ4el0fLF6dcOJDk0U-] found
Submit result: already submitted
Track | CTDB Status
1 | (9/9) Accurately ripped
2 | (9/9) Accurately ripped
3 | (9/9) Accurately ripped
4 | (9/9) Accurately ripped
5 | (9/9) Accurately ripped
6 | (9/9) Accurately ripped
7 | (9/9) Accurately ripped
8 | (9/9) Accurately ripped
9 | (9/9) Accurately ripped
10 | (9/9) Accurately ripped


==== Log checksum D516CE93C9D1BF472A17A7F18AA4792CE865FB18C606074E69A7D91A2B79E95E ====


CD11 Flat Tire

01. The Duplicate Man (Intro)
02. The Duplicate Man
03. Eeny Meeny
04. Please Hold On
05. Snow Moon
06. Curves
07. So Long
08. Bo Peep
09. Don't You Know

Exact Audio Copy V1.3 from 2. September 2016

EAC extraction logfile from 4. May 2017, 19:58

Allan Holdsworth / Flat Tire

Used drive : ASUS DRW-24B1ST j Adapter: 1 ID: 0

Read mode : Secure
Utilize accurate stream : Yes
Defeat audio cache : Yes
Make use of C2 pointers : No

Read offset correction : 6
Overread into Lead-In and Lead-Out : No
Fill up missing offset samples with silence : Yes
Delete leading and trailing silent blocks : No
Null samples used in CRC calculations : Yes
Used interface : Native Win32 interface for Win NT & 2000
Gap handling : Appended to previous track

Used output format : User Defined Encoder
Selected bitrate : 1024 kBit/s
Quality : High
Add ID3 tag : No
Command line compressor : C:\Program Files (x86)\Exact Audio Copy\Flac\flac.exe
Additional command line options : -8 -e -p -V -T "ARTIST=%artist%" -T "TITLE=%title%" -T "ALBUM=%albumtitle%" -T "DATE=%year%" -T "TRACKNUMBER=%tracknr%" -T "GENRE=%genre%" -T "PERFORMER=%albuminterpret%" -T "COMPOSER=%composer%" %haslyrics%–tag-from-file=LYRICS="%lyricsfile%"%haslyrics% -T "ALBUMARTIST=%albumartist%" -T "DISCNUMBER=%cdnumber%" -T "TOTALDISCS=%totalcds%" -T "TOTALTRACKS=%numtracks%" -T "COMMENT=%comment%" %source% -o %dest%


TOC of the extracted CD

Track | Start | Length | Start sector | End sector
––––––––––––––––––––––––––––-
1 | 0:00.00 | 1:51.47 | 0 | 8371
2 | 1:51.47 | 4:41.64 | 8372 | 29510
3 | 6:33.36 | 4:48.31 | 29511 | 51141
4 | 11:21.67 | 3:59.63 | 51142 | 69129
5 | 15:21.55 | 8:04.24 | 69130 | 105453
6 | 23:26.04 | 5:35.46 | 105454 | 130624
7 | 29:01.50 | 5:31.34 | 130625 | 155483
8 | 34:33.09 | 3:46.51 | 155484 | 172484
9 | 38:19.60 | 9:11.49 | 172485 | 213858


Track 1

Filename I:\Dropbox\EAC\11\01 - The Duplicate Man (Intro).wav

Pre-gap length 0:00:02.00

Peak level 79.4 %
Extraction speed 4.6 X
Track quality 100.0 %
Test CRC 7F0923B0
Copy CRC 7F0923B0
Track not present in AccurateRip database
Copy OK

Track 2

Filename I:\Dropbox\EAC\11\02 - The Duplicate Man.wav

Peak level 83.7 %
Extraction speed 4.9 X
Track quality 99.9 %
Test CRC BFD00858
Copy CRC BFD00858
Track not present in AccurateRip database
Copy OK

Track 3

Filename I:\Dropbox\EAC\11\03 - Eeny Meeny.wav

Peak level 80.3 %
Extraction speed 6.5 X
Track quality 100.0 %
Test CRC E0850212
Copy CRC E0850212
Track not present in AccurateRip database
Copy OK

Track 4

Filename I:\Dropbox\EAC\11\04 - Please Hold On.wav

Peak level 70.8 %
Extraction speed 6.9 X
Track quality 100.0 %
Test CRC 44D8BF4E
Copy CRC 44D8BF4E
Track not present in AccurateRip database
Copy OK

Track 5

Filename I:\Dropbox\EAC\11\05 - Snow Moon.wav

Peak level 81.6 %
Extraction speed 8.2 X
Track quality 100.0 %
Test CRC 74EDB72C
Copy CRC 74EDB72C
Track not present in AccurateRip database
Copy OK

Track 6

Filename I:\Dropbox\EAC\11\06 - Curves.wav

Peak level 81.6 %
Extraction speed 7.4 X
Track quality 99.9 %
Test CRC 4456D081
Copy CRC 4456D081
Track not present in AccurateRip database
Copy OK

Track 7

Filename I:\Dropbox\EAC\11\07 - So Long.wav

Peak level 76.5 %
Extraction speed 9.2 X
Track quality 100.0 %
Test CRC 1CA5F951
Copy CRC 1CA5F951
Track not present in AccurateRip database
Copy OK

Track 8

Filename I:\Dropbox\EAC\11\08 - Bo Peep.wav

Peak level 82.0 %
Extraction speed 9.1 X
Track quality 100.0 %
Test CRC 9FBEF58B
Copy CRC 9FBEF58B
Track not present in AccurateRip database
Copy OK

Track 9

Filename I:\Dropbox\EAC\11\09 - Don't You Know.wav

Peak level 81.1 %
Extraction speed 10.5 X
Track quality 100.0 %
Test CRC 34E3C7F0
Copy CRC 34E3C7F0
Track not present in AccurateRip database
Copy OK


None of the tracks are present in the AccurateRip database

No errors occurred

End of status report

–– CUETools DB Plugin V2.1.6

[CTDB TOCID: nw3MnLUbrFT8gj3tjbMwhjO.fEI-] found
Submit result: nw3MnLUbrFT8gj3tjbMwhjO.fEI- has been confirmed
Track | CTDB Status
1 | (11/11) Accurately ripped
2 | (11/11) Accurately ripped
3 | (11/11) Accurately ripped
4 | (11/11) Accurately ripped
5 | (11/11) Accurately ripped
6 | (11/11) Accurately ripped
7 | (11/11) Accurately ripped
8 | (11/11) Accurately ripped
9 | (11/11) Accurately ripped


==== Log checksum C1D29C73EF768DA5D2C2D253857C949A8B21D2C501D5284D13D7D18D385374C6 ====


CD12 Then!

01. Zone 1
02. Proto Cosmos
03. White Line
04. Atavachron
05. Zone ll
06. Pud Wud
07. House Of Mirrors
08. Non Brewed Condiment
09. Zone lll
10. Funnels

Exact Audio Copy V1.3 from 2. September 2016

EAC extraction logfile from 4. May 2017, 20:22

Allan Holdsworth / Then!

Used drive : ASUS DRW-24B1ST j Adapter: 1 ID: 0

Read mode : Secure
Utilize accurate stream : Yes
Defeat audio cache : Yes
Make use of C2 pointers : No

Read offset correction : 6
Overread into Lead-In and Lead-Out : No
Fill up missing offset samples with silence : Yes
Delete leading and trailing silent blocks : No
Null samples used in CRC calculations : Yes
Used interface : Native Win32 interface for Win NT & 2000
Gap handling : Appended to previous track

Used output format : User Defined Encoder
Selected bitrate : 1024 kBit/s
Quality : High
Add ID3 tag : No
Command line compressor : C:\Program Files (x86)\Exact Audio Copy\Flac\flac.exe
Additional command line options : -8 -e -p -V -T "ARTIST=%artist%" -T "TITLE=%title%" -T "ALBUM=%albumtitle%" -T "DATE=%year%" -T "TRACKNUMBER=%tracknr%" -T "GENRE=%genre%" -T "PERFORMER=%albuminterpret%" -T "COMPOSER=%composer%" %haslyrics%–tag-from-file=LYRICS="%lyricsfile%"%haslyrics% -T "ALBUMARTIST=%albumartist%" -T "DISCNUMBER=%cdnumber%" -T "TOTALDISCS=%totalcds%" -T "TOTALTRACKS=%numtracks%" -T "COMMENT=%comment%" %source% -o %dest%


TOC of the extracted CD

Track | Start | Length | Start sector | End sector
––––––––––––––––––––––––––––-
1 | 0:00.00 | 4:08.17 | 0 | 18616
2 | 4:08.17 | 5:42.63 | 18617 | 44329
3 | 9:51.05 | 9:39.31 | 44330 | 87785
4 | 19:30.36 | 4:42.67 | 87786 | 109002
5 | 24:13.28 | 5:30.42 | 109003 | 133794
6 | 29:43.70 | 8:05.51 | 133795 | 170220
7 | 37:49.46 | 4:26.69 | 170221 | 190239
8 | 42:16.40 | 5:46.36 | 190240 | 216225
9 | 48:03.01 | 7:40.53 | 216226 | 250778
10 | 55:43.54 | 7:11.38 | 250779 | 283141


Track 1

Filename I:\Dropbox\EAC\12\01 - Zone 1.wav

Pre-gap length 0:00:02.00

Peak level 91.8 %
Extraction speed 5.5 X
Track quality 100.0 %
Test CRC 693CCF4B
Copy CRC 693CCF4B
Track not present in AccurateRip database
Copy OK

Track 2

Filename I:\Dropbox\EAC\12\02 - Proto Cosmos.wav

Pre-gap length 0:00:01.50

Peak level 91.6 %
Extraction speed 6.4 X
Track quality 100.0 %
Test CRC A28B5CA3
Copy CRC A28B5CA3
Track not present in AccurateRip database
Copy OK

Track 3

Filename I:\Dropbox\EAC\12\03 - White Line.wav

Pre-gap length 0:00:00.98

Peak level 93.1 %
Extraction speed 7.6 X
Track quality 100.0 %
Test CRC 5C8F19D6
Copy CRC 5C8F19D6
Track not present in AccurateRip database
Copy OK

Track 4

Filename I:\Dropbox\EAC\12\04 - Atavachron.wav

Peak level 94.4 %
Extraction speed 7.9 X
Track quality 100.0 %
Test CRC C9CF1E91
Copy CRC C9CF1E91
Track not present in AccurateRip database
Copy OK

Track 5

Filename I:\Dropbox\EAC\12\05 - Zone ll.wav

Peak level 87.2 %
Extraction speed 8.6 X
Track quality 100.0 %
Test CRC F2DEA121
Copy CRC F2DEA121
Track not present in AccurateRip database
Copy OK

Track 6

Filename I:\Dropbox\EAC\12\06 - Pud Wud.wav

Pre-gap length 0:00:01.62

Peak level 93.8 %
Extraction speed 8.5 X
Track quality 99.9 %
Test CRC D5F194D8
Copy CRC D5F194D8
Track not present in AccurateRip database
Copy OK

Track 7

Filename I:\Dropbox\EAC\12\07 - House Of Mirrors.wav

Pre-gap length 0:00:01.68

Peak level 85.2 %
Extraction speed 8.0 X
Track quality 99.9 %
Test CRC 608CA487
Copy CRC 608CA487
Track not present in AccurateRip database
Copy OK

Track 8

Filename I:\Dropbox\EAC\12\08 - Non Brewed Condiment.wav

Pre-gap length 0:00:00.94

Peak level 93.9 %
Extraction speed 10.2 X
Track quality 100.0 %
Test CRC 5010C9AE
Copy CRC 5010C9AE
Track not present in AccurateRip database
Copy OK

Track 9

Filename I:\Dropbox\EAC\12\09 - Zone lll.wav

Peak level 88.3 %
Extraction speed 11.1 X
Track quality 100.0 %
Test CRC EA8EC16D
Copy CRC EA8EC16D
Track not present in AccurateRip database
Copy OK

Track 10

Filename I:\Dropbox\EAC\12\10 - Funnels.wav

Pre-gap length 0:00:02.12

Peak level 89.9 %
Extraction speed 11.6 X
Track quality 100.0 %
Test CRC 3B5381C5
Copy CRC 3B5381C5
Track not present in AccurateRip database
Copy OK


None of the tracks are present in the AccurateRip database

No errors occurred

End of status report

–– CUETools DB Plugin V2.1.6

[CTDB TOCID: w4KB8ODa1xAupwcaXdEDMVCS2uo-] found
Submit result: w4KB8ODa1xAupwcaXdEDMVCS2uo- has been confirmed
Track | CTDB Status
1 | (9/9) Accurately ripped
2 | (9/9) Accurately ripped
3 | (9/9) Accurately ripped
4 | (9/9) Accurately ripped
5 | (9/9) Accurately ripped
6 | (9/9) Accurately ripped
7 | (9/9) Accurately ripped
8 | (9/9) Accurately ripped
9 | (9/9) Accurately ripped
10 | (9/9) Accurately ripped


==== Log checksum 543AFCECEAF53EB31E11CCEA1353EBF43745C442F4670ACF4880BC397DF4BABC ====


All thanks go to the original releaser