Subcategories

Almost Brothers Band - A Band Of Roadies (2014)

Posted By: popsakov
Almost Brothers Band - A Band Of Roadies (2014)

Almost Brothers Band - A Band Of Roadies (2014)
EAC Rip | FLAC (Img) + Cue + Log ~ 321 Mb | MP3 CBR320 ~ 121 Mb
Full Scans | 00:40:47 | RAR 5% Recovery
Southern Rock, Blues Rock | Buddy Thornton / Almost Brothers Band #888295149471

The Almost Brothers name came from Allman Brothers pianist Chuck Leavell. The doors to venues would open while the Almost Brothers were playing and they were mistaken for an opening act. The band recorded a few tunes at Capricorn Studios, Macon, Ga.

Back in "The Day", when the Allman Brothers Band had recorded the "Brothers and Sisters" album and we were riding high with the LP reaching No. 1 on the Billboard Album Charts and the song "Rambling Man" reaching No. 2 on the Singles chart, our road crew were riding high with us. They were all very talented in their respective positions, and all very dedicated to us, and to the fans that came to see us. They were recognized by our peers and theirs as being the best road crew in the world, and in my opinion that was certainly the case. As we began to tour behind the release of the record in 1973, there were times when for various reasons the band wouldn't or couldn't make sound checks. Our crew would sometimes do them for us, which was a great help and ensured that we would be comfortable when we hit the stage. As time went on, they began to play more on their own, adding in some other players that were in the Macon, Ga. area at the time. The result of this was The Almost Brothers. I can remember them rehearsing quite a lot, working up some cover tunes and writing some of their own. They were all having a great time, and were honing in their musical skills. They became very popular around town, and created a reputation for themselves, playing in some clubs and various other settings. Fortunately, they also recorded some of their material, and after all these years, our then house sound engineer, Buddy Thornton, has uncovered those two track tapes, cleaned them up as much as possible with his expert skills, and herein is the result. Listening to these recordings bring back some great memories for me, and all the musicians involved put their hearts and souls into the Almost Brothers. They were all great folks to work with and I am so glad that we have this recording to document this piece of history. You can hear the fun they were having and the passion they put into their own band…so, listen and enjoy!

Chuck Leavell

***************

Almost Brothers Band - A Band Of Roadies (2014)

Track List:

01. Driving Wheel [04:01]
02. Knurled Knob [03:00]
03. Love You (Like A Man) [04:34]
04. Stepping Out [02:23]
05. Modular Motion/Drifting [05:35]
06. Complicated Shoes [02:43]
07. Fever [03:55]
08. Rainbow Chase [05:14]
09. Is It Wrong [04:46]
10. Compactor [04:41]

Exact Audio Copy V1.0 beta 3 from 29. August 2011

Отчёт EAC об извлечении, выполненном 11. февраля 2015, 18:57

Almost Brothers / A Band of Roadies

Дисковод: PLEXTOR DVDR PX-880SA Adapter: 1 ID: 0

Режим чтения : Достоверность
Использование точного потока : Да
Отключение кэша аудио : Да
Использование указателей C2 : Нет

Коррекция смещения при чтении : 6
Способность читать области Lead-in и Lead-out : Нет
Заполнение пропущенных сэмплов тишиной : Да
Удаление блоков с тишиной в начале и конце : Нет
При вычислениях CRC использовались нулевые сэмплы : Да
Интерфейс : Установленный внешний ASPI-интерфейс

Выходной формат : Пользовательский кодировщик
Выбранный битрейт : 1024 kBit/s
Качество : Высокий
Добавление ID3-тега : Нет
Утилита сжатия : C:\Program Files\Exact Audio Copy\FLAC\FLAC.EXE
Дополнительные параметры : -10 -V -T "ARTIST=%artist%" -T "ALBUM=%albumtitle%" -T "DATE=%year%" -T "GENRE=%genre%" -T "COMMENT=ripped by izia1956" %source%


TOC извлечённого CD

Трек | Старт | Длительность | Начальный сектор | Конечный сектор
––––––––––––––––––––––––––––––––––-
1 | 0:00.00 | 4:00.45 | 0 | 18044
2 | 4:00.45 | 2:59.31 | 18045 | 31500
3 | 7:00.01 | 4:33.29 | 31501 | 52004
4 | 11:33.30 | 2:22.34 | 52005 | 62688
5 | 13:55.64 | 5:34.24 | 62689 | 87762
6 | 19:30.13 | 2:42.49 | 87763 | 99961
7 | 22:12.62 | 3:54.06 | 99962 | 117517
8 | 26:06.68 | 5:13.33 | 117518 | 141025
9 | 31:20.26 | 4:45.48 | 141026 | 162448
10 | 36:05.74 | 4:40.09 | 162449 | 183457


Характеристики диапазона извлечения и сообщения об ошибках

Выбранный диапазон

Имя файла D:\BitComet\Almost Brothers Band - A Band Of Roadies (2014)\Almost Brothers - A Band of Roadies.wav

Пиковый уровень 96.4 %
Скорость извлечения 2.8 X
Качество диапазона 100.0 %
CRC теста FDC147D0
CRC копии FDC147D0
Копирование… OK

Ошибок не произошло


AccurateRip: сводка

Трек 1 отсутствует в базе данных
Трек 2 отсутствует в базе данных
Трек 3 отсутствует в базе данных
Трек 4 отсутствует в базе данных
Трек 5 отсутствует в базе данных
Трек 6 отсутствует в базе данных
Трек 7 отсутствует в базе данных
Трек 8 отсутствует в базе данных
Трек 9 отсутствует в базе данных
Трек 10 отсутствует в базе данных

Ни одного трека нет в базе AccurateRip

Конец отчёта

==== Контрольная сумма отчёта D63698F83D8248E9EFBD08F2B9ED622C508B4B91C9C9B732CBC4A5EAD332E043 ====

foobar2000 1.2.6 / Dynamic Range Meter 1.1.1
log date: 2015-02-16 11:36:17

––––––––––––––––––––––––––––––––––––––––
Analyzed: Almost Brothers / A Band of Roadies
––––––––––––––––––––––––––––––––––––––––

DR Peak RMS Duration Track
––––––––––––––––––––––––––––––––––––––––
DR8 -0.31 dB -10.95 dB 4:01 01-Driving Wheel
DR8 -0.31 dB -10.43 dB 2:59 02-Knurled Knob
DR9 -0.31 dB -11.24 dB 4:33 03-Love You (Like A Man)
DR8 -0.31 dB -10.91 dB 2:22 04-Stepping Out
DR8 -0.31 dB -11.14 dB 5:34 05-Modular Motion/Drifting
DR8 -0.31 dB -11.04 dB 2:43 06-Complicated Shoes
DR11 -0.31 dB -13.33 dB 3:54 07-Fever
DR8 -0.31 dB -10.65 dB 5:13 08-Rainbow Chase
DR9 -0.31 dB -10.77 dB 4:46 09-Is It Wrong
DR9 -0.31 dB -11.35 dB 4:40 10-Compactor
––––––––––––––––––––––––––––––––––––––––

Number of tracks: 10
Official DR value: DR9

Samplerate: 44100 Hz
Channels: 2
Bits per sample: 16
Bitrate: 973 kbps
Codec: FLAC
================================================================================

[CUETools log; Date: 26.03.2020 14:37:52; Version: 2.1.6]
[CTDB TOCID: rN7CkBjUYc1bTQQ_IFHjWR_Ul94-] found.
Track | CTDB Status
1 | (1/1) Accurately ripped
2 | (1/1) Accurately ripped
3 | (1/1) Accurately ripped
4 | (1/1) Accurately ripped
5 | (1/1) Accurately ripped
6 | (1/1) Accurately ripped
7 | (1/1) Accurately ripped
8 | (1/1) Accurately ripped
9 | (1/1) Accurately ripped
10 | (1/1) Accurately ripped
[AccurateRip ID: 000e9800-0075f465-85098e0a] found.
Track [ CRC | V2 ] Status
01 [0c5ede65|c9bc39ed] (0+2/2) Accurately ripped
02 [fb6d5093|20700b9f] (0+2/2) Accurately ripped
03 [0c39e1b8|906e3ce5] (0+2/2) Accurately ripped
04 [63a16bda|62b97ef7] (0+2/2) Accurately ripped
05 [91bd1c75|7d312600] (0+2/2) Accurately ripped
06 [e9134884|b02ff26e] (0+2/2) Accurately ripped
07 [53621b27|7e0da234] (0+2/2) Accurately ripped
08 [1b2484fa|51dc42f3] (0+2/2) Accurately ripped
09 [2f33257a|d469c669] (0+2/2) Accurately ripped
10 [9bfe0c9c|484eb06c] (0+2/2) Accurately ripped

Track Peak [ CRC32 ] [W/O NULL] [ LOG ]
– 96,4 [FDC147D0] [0F2FBE79] CRC32
01 96,4 [6DC6CD0F] [38B65BDD]
02 96,4 [EE935D4F] [1CFFAD00]
03 96,4 [CAFFB733] [3A995AE2]
04 96,4 [2AC4D33E] [5CC8E2E5]
05 96,4 [97B5AFC1] [6E8FC002]
06 96,4 [B1251874] [C87B56B7]
07 96,4 [D7F747FE] [006713D0]
08 96,4 [94C43D21] [76CB5920]
09 96,4 [9FBB4E6F] [991DC916]
10 96,4 [C32CAB0A] [CE8F6B70]

Almost Brothers Band - A Band Of Roadies (2014)


All thanks go to izia1956

>>> My Blog <<<

DOWNLOAD: