Tags
Language
Tags

Althea Rene - No Restrictions (2008) {Red Cat}

Posted By: tiburon
Althea Rene - No Restrictions (2008) {Red Cat}

Althea Rene - No Restrictions (2008) {Red Cat}
EAC 0.95b3 | FLAC tracks level 8 | Cue+Log+M3U | Full Scans 300dpi | 270MB + 5% Recovery
Genre: Jazz-Funk, Smooth Jazz

Despite this track record, most likely the reason that the majority of genre fans didn’t know her is because mainstream smooth jazz radio has been flute-resistant for years. They say it doesn’t test well in their demographic research, but anyone who saw Rene electrify the crowd could attest that this is wrongheaded thinking. Given the chance, considering her formidable composing and playing skills, charismatic presence and dynamite looks, she could be a star on the level of Mindi Abair and Candy Dulfer, who makes a memorable guest appearance on one of “No Restrictions” coolest and most melodic midtempo tracks, “Ladies Night Out.
Track List
01. No Restrictions
02. I Love Your Smile
03. Ladies Nite Out
04. Wishing On A Star
05. Come My Way
06. Do Ya Like Dat
07. Never Givin Up
08. Island Breeze
09. Summertime

musicians
Althea Rene - vocals, flute, alto flute
Tamara Jones - vocals
Darrell Crooks - guitar, bass
Tom Hemby, Freddie Fox - guitars
Kendall Duffie - guitars, Fender Rhodes piano, synthesizer, Moog synthesizer, drum programming
Candy Dulfer - saxophone
Monte Moir - piano
Rex Rideout - keyboards, programming
Mike Broening - keyboards
Mel Brown , Barry Jackson, Rhonda Smith - bass
Kirk Johnson, Michael White , Mark Simmons - drums
Dyson Jerry, Deshan Jones, Demonica Fly - background vocals

Produced by Mike Broening, Rex Rideout, Chance Howard, Kendall Duffie and Darrell Laveigne


EAC extraction logfile from 19. September 2008, 20:55 for CD
Althea Rene / No Restrictions

Used drive : TSSTcorpCD/DVDW SH-S182M Adapter: 0 ID: 1
Read mode : Secure with NO C2, accurate stream, disable cache
Read offset correction : 6
Overread into Lead-In and Lead-Out : No

Used output format : C:\EAC\flac-1.1.2-win\bin\flac.exe (User Defined Encoder)
320 kBit/s
Additional command line options : -8 -V -T "artist=%a" -T "title=%t" -T "album=%g" -T "date=%y" -T "tracknumber=%n" -T "genre=%m" -T "comment=Exact Audio Copy 0.95 b3 Secure Mode / FLAC q8 v. 1.1.2" %s

Other options :
Fill up missing offset samples with silence : Yes
Delete leading and trailing silent blocks : No
Installed external ASPI interface


Track 1
Filename D:\Althea Rene - No Restrictions (2008) [FLAC]\01 - No Restrictions.wav

Pre-gap length 0:00:02.00

Peak level 98.6 %
Track quality 100.0 %
Test CRC 5C3FC6AC
Copy CRC 5C3FC6AC
Copy OK

Track 2
Filename D:\Althea Rene - No Restrictions (2008) [FLAC]\02 - I Love Your Smile.wav

Peak level 98.7 %
Track quality 100.0 %
Test CRC 069CBF9C
Copy CRC 069CBF9C
Copy OK

Track 3
Filename D:\Althea Rene - No Restrictions (2008) [FLAC]\03 - Ladies Nite Out.wav

Pre-gap length 0:00:01.04

Peak level 98.6 %
Track quality 100.0 %
Test CRC F8F56305
Copy CRC F8F56305
Copy OK

Track 4
Filename D:\Althea Rene - No Restrictions (2008) [FLAC]\04 - Wishing On A Star.wav

Peak level 98.7 %
Track quality 100.0 %
Test CRC 4630D7B8
Copy CRC 4630D7B8
Copy OK

Track 5
Filename D:\Althea Rene - No Restrictions (2008) [FLAC]\05 - Come My Way.wav

Pre-gap length 0:00:01.10

Peak level 98.6 %
Track quality 100.0 %
Test CRC 1B87BE5E
Copy CRC 1B87BE5E
Copy OK

Track 6
Filename D:\Althea Rene - No Restrictions (2008) [FLAC]\06 - Do Ya Like Dat.wav

Pre-gap length 0:00:01.53

Peak level 98.6 %
Track quality 99.9 %
Test CRC E96F63F1
Copy CRC E96F63F1
Copy OK

Track 7
Filename D:\Althea Rene - No Restrictions (2008) [FLAC]\07 - Never Givin Up-.wav

Peak level 98.7 %
Track quality 100.0 %
Test CRC F4AC9D80
Copy CRC F4AC9D80
Copy OK

Track 8
Filename D:\Althea Rene - No Restrictions (2008) [FLAC]\08 - Island Breeze.wav

Peak level 98.6 %
Track quality 100.0 %
Test CRC C719EAB2
Copy CRC C719EAB2
Copy OK

Track 9
Filename D:\Althea Rene - No Restrictions (2008) [FLAC]\09 - Summertime.wav

Pre-gap length 0:00:01.68

Peak level 98.6 %
Track quality 100.0 %
Test CRC 30D78379
Copy CRC 30D78379
Copy OK

No errors occured


End of status report


––––––––––––––––––––––––––––––––––––––––
Analyzed: Althea Rene / No Restrictions
––––––––––––––––––––––––––––––––––––––––

DR Peak RMS Duration Track
––––––––––––––––––––––––––––––––––––––––
DR8 -0.12 dB -8.70 dB 4:15 01-No Restrictions
DR9 -0.11 dB -10.40 dB 3:59 02-I Love Your Smile
DR8 -0.12 dB -9.38 dB 4:38 03-Ladies Nite Out
DR8 -0.11 dB -10.18 dB 5:09 04-Wishing On A Star
DR9 -0.12 dB -10.28 dB 4:38 05-Come My Way
DR8 -0.12 dB -9.98 dB 4:22 06-Do Ya Like Dat
DR8 -0.11 dB -10.36 dB 3:45 07-Never Givin Up-
DR7 -0.12 dB -9.43 dB 4:26 08-Island Breeze
DR9 -0.12 dB -10.92 dB 5:31 09-Summertime
––––––––––––––––––––––––––––––––––––––––

Number of tracks: 9
Official DR value: DR8

Samplerate: 44100 Hz
Channels: 2
Bits per sample: 16
Bitrate: 817 kbps
Codec: FLAC
================================================================================

Althea Rene - No Restrictions (2008) {Red Cat}
Althea Rene - No Restrictions (2008) {Red Cat}
Althea Rene - No Restrictions (2008) {Red Cat}


Thanks to the original ripper