Subcategories

Alun Francis - Offenbach: Christopher Columbus (1992)

Posted By: tirexiss
Alun Francis - Offenbach: Christopher Columbus (1992)

Alun Francis - Offenbach: Christopher Columbus (1992)
EAC | FLAC (image+.cue, log) | Covers Included | 123:52 | 572 MB
Genre: Classical, Opera | Label: Opera Rara | Catalog: ORC2

Alun Francis is one of the most respected conductors on the international scene, and is particularly admired for his efforts in bringing international recognition to several great tonal symphonists active in the post-World War II years, and for other efforts on behalf of 20th century music.
His "native" instrument is the French horn. He continued his studies on that instrument and took conducting while attending the Royal Manchester College of Music from 1960 to 1963. His first professional jobs were as an orchestral horn player with the Hallé Orchestra in Manchester under Sir John Barbirolli's leadership, and with the Bournemouth Symphony Orchestra, with Constantin Silvestri as conductor.
He began looking for conducting opportunities at this time and by 1966 began an association with the Ulster Orchestra in Belfast, rising from short appointments as assistant conductor and associate conductor to becoming music director in 1969. While there, he became a conductor and artistic director of the Northern Ireland Opera, serving in that post from 1974 to 1984.
He ended these associations in 1970 after 10 years, becoming music director of the Northwest Chamber Orchestra in Seattle, Washington, from 1980 to 1985. Following that, he was conductor and music advisor to the Overiijssels Philharmonic Orchestra and the Opera Forum of Netherlands from 1985 to 1987.
Francis was principal conductor and general music director of the North West German Philharmonic and in 1989 received the appointment as principal conductor of the Berlin Symphony Orchestra. Following a contract extension in 1996, he remained with the Berlin Symphony through 2000. Meanwhile, he became principal conductor of the Orchestra Sinfonica Haydn of Bolzano, Italy, and in 1996 was appointed artistic director of the Orchestra Sinfonica de Milano "Giuseppe Verdi." Since 2008, he has led Mexico City's Orquesta Filarmonica de la UNAM.
Among the orchestras with which he has guest conducted are the BBC Philharmonic, the Philharmonia, the five major orchestras of London, and the rest of the major orchestras of Britain, the RAI (Italian Radio) Orchestra of Torino, the Cologne RSO, the Deutsches Symphonie-Orchester Berlin, the Frankfurt RSO, the Rotterdam Philharmonic, and several other major European and American orchestras.
Francis' 20th century performances include the avant-garde composers such as Stockhausen and Berio as well as major and once-neglected symphonic composers of the post-War era such as Ernst Toch, Allan Pettersson, Darius Milhaud, Ermanno Wolf-Ferrari, and Casella. He received the MIDEM 2000 "Premiere Prize" at the Cannes Classical Awards for recording the complete symphonies of Milhaud on the cpo label.
While known as a proponent of 20th century orchestral music, as an active opera conductor he prefers to focus on the bel canto era (roughly the time from Rossini's debut through the early works of Verdi). He has 50 bel canto operas in his repertory, and in 1978 led the world premiere of the Donizetti opera Gabriella di Vergy. He records opera for the label Opera Rara, and for them and other companies he has taped recordings of Donizetti's Maria Padilla and Ugo, conte di Parigi and Offenbach's operettas Christopher Columbus and Robinson Crusoe. Another notable operatic engagement was his conducting Verdi's Rigoletto in staging directed by Roman Polanski.
In all, Francis estimates that he has conducted more than 150 orchestras and opera companies in 26 different companies so far in his conducting career. – Joseph Stevenson

Alun Francis - Offenbach: Christopher Columbus (1992)

Track List:

CD 1:
[1] Overture 2’45
[2] The Castanet Quartet 2’23
[3] Beatriz’s Ideals Song 2’45
[4] Song of the Peaches (Columbus) 3’22
[5] Entry of the Three Wives 2’29
[6] Fleurette’s Song 3’43
[7] Rosa’s Aria 4’29
[8] Gretel’s Tyrolienne 5’12
[9] The World is Round (Luis) 2’28
[10] Take Pity on a Married Man Duet (Columbus, Luis) 2’45
[11] The War on Crime (Chief of Police) 3’13
[12] Under Arrest: Finale 3’51

ACT II
[13] Courtiers’ Chorus 0’56
[14] Isabella’s Hangover Song 3’54
[15] Ensemble of the Prisoners 1’50
[16] Columbus’s Plea 3’11
[17] Love Duet (Isabella, Columbus) 6’50
[18] Ferdinand’s Lament 4’30
[19] Isabella’s Jewel Song 3’05
[20] Off to Sea! Finale 6’16

Exact Audio Copy V1.3 from 2. September 2016

EAC extraction logfile from 21. April 2018, 10:31

Jacques Offenbach, Don White; London Mozart Players; Alun Francis / Christopher Columbus

Used drive : TSSTcorpDVDWBD SE-406AB Adapter: 1 ID: 2

Read mode : Secure
Utilize accurate stream : Yes
Defeat audio cache : Yes
Make use of C2 pointers : No

Read offset correction : 6
Overread into Lead-In and Lead-Out : No
Fill up missing offset samples with silence : Yes
Delete leading and trailing silent blocks : No
Null samples used in CRC calculations : Yes
Used interface : Native Win32 interface for Win NT & 2000

Used output format : User Defined Encoder
Selected bitrate : 768 kBit/s
Quality : High
Add ID3 tag : No
Command line compressor : C:\Program Files (x86)\Exact Audio Copy\FLAC\FLAC.EXE
Additional command line options : -8 -e -p -V -T "ARTIST=%artist%" -T "TITLE=%title%" -T "ALBUM=%albumtitle%" -T "DATE=%year%" -T "TRACKNUMBER=%tracknr%" -T "GENRE=%genre%" -T "PERFORMER=%albuminterpret%" -T "COMPOSER=%composer%" %haslyrics%–tag-from-file=LYRICS="%lyricsfile%"%haslyrics% -T "ALBUMARTIST=%albumartist%" -T "DISCNUMBER=%cdnumber%" -T "TOTALDISCS=%totalcds%" -T "TOTALTRACKS=%numtracks%" -T "COMMENT=%comment%" %source% -o %dest%


TOC of the extracted CD

Track | Start | Length | Start sector | End sector
––––––––––––––––––––––––––––-
1 | 0:00.27 | 2:45.63 | 27 | 12464
2 | 2:46.15 | 2:23.70 | 12465 | 23259
3 | 5:10.10 | 2:45.40 | 23260 | 35674
4 | 7:55.50 | 3:22.12 | 35675 | 50836
5 | 11:17.62 | 2:29.38 | 50837 | 62049
6 | 13:47.25 | 3:43.70 | 62050 | 78844
7 | 17:31.20 | 4:29.50 | 78845 | 99069
8 | 22:00.70 | 5:12.37 | 99070 | 122506
9 | 27:13.32 | 2:28.63 | 122507 | 133669
10 | 29:42.20 | 2:45.62 | 133670 | 146106
11 | 32:28.07 | 3:13.63 | 146107 | 160644
12 | 35:41.70 | 3:51.05 | 160645 | 177974
13 | 39:33.00 | 0:56.40 | 177975 | 182214
14 | 40:29.40 | 3:54.02 | 182215 | 199766
15 | 44:23.42 | 1:50.30 | 199767 | 208046
16 | 46:13.72 | 3:11.05 | 208047 | 222376
17 | 49:25.02 | 6:50.00 | 222377 | 253126
18 | 56:15.02 | 4:30.70 | 253127 | 273446
19 | 60:45.72 | 3:05.50 | 273447 | 287371
20 | 63:51.47 | 6:16.55 | 287372 | 315626


Range status and errors

Selected range

Filename K:\Rips\Offenbach - Christopher Columbus - Francis\CD1\Offenbach - Alun Francis - Christopher Columbus CD1.wav

Peak level 99.7 %
Extraction speed 1.9 X
Range quality 99.9 %
Test CRC B56932D6
Copy CRC B56932D6
Copy OK

No errors occurred


AccurateRip summary

Track 1 cannot be verified as accurate (confidence 1) [4046BFDD], AccurateRip returned [01E64F32] (AR v2)
Track 2 cannot be verified as accurate (confidence 1) [4153FB6F], AccurateRip returned [1B972A18] (AR v2)
Track 3 cannot be verified as accurate (confidence 1) [5295FCBF], AccurateRip returned [762B2B8C] (AR v2)
Track 4 cannot be verified as accurate (confidence 1) [4DFA77A9], AccurateRip returned [95E6FFA2] (AR v2)
Track 5 cannot be verified as accurate (confidence 1) [04D7BAA5], AccurateRip returned [8AFA02CC] (AR v2)
Track 6 cannot be verified as accurate (confidence 1) [4E5EA6A3], AccurateRip returned [BCBD6949] (AR v2)
Track 7 cannot be verified as accurate (confidence 1) [2315B84C], AccurateRip returned [F3038F54] (AR v2)
Track 8 cannot be verified as accurate (confidence 1) [34A34A83], AccurateRip returned [9251CFC0] (AR v2)
Track 9 cannot be verified as accurate (confidence 1) [F9275595], AccurateRip returned [C5412065] (AR v2)
Track 10 cannot be verified as accurate (confidence 1) [8072C643], AccurateRip returned [95B96A3A] (AR v2)
Track 11 cannot be verified as accurate (confidence 1) [1D22298A], AccurateRip returned [E16893DA] (AR v2)
Track 12 cannot be verified as accurate (confidence 1) [6CDB8972], AccurateRip returned [E2F5F88B] (AR v2)
Track 13 cannot be verified as accurate (confidence 1) [5047C8CA], AccurateRip returned [DBCEE8F2] (AR v2)
Track 14 cannot be verified as accurate (confidence 1) [8E8FB668], AccurateRip returned [84873BC0] (AR v2)
Track 15 cannot be verified as accurate (confidence 1) [BB5CAABC], AccurateRip returned [3B7015D0] (AR v2)
Track 16 cannot be verified as accurate (confidence 1) [B0E86D28], AccurateRip returned [231F7506] (AR v2)
Track 17 cannot be verified as accurate (confidence 1) [4E329A87], AccurateRip returned [3C076C9A] (AR v2)
Track 18 cannot be verified as accurate (confidence 1) [1A5EA3CE], AccurateRip returned [C345FA3C] (AR v2)
Track 19 cannot be verified as accurate (confidence 1) [030C90A6], AccurateRip returned [4CD6E86D] (AR v2)
Track 20 cannot be verified as accurate (confidence 1) [D3278844], AccurateRip returned [B997595C] (AR v2)

No tracks could be verified as accurate
You may have a different pressing from the one(s) in the database

End of status report

–– CUETools DB Plugin V2.1.6

[CTDB TOCID: I0j2M1W1LeFgRKkguLfr7ex.DVc-] found
Submit result: I0j2M1W1LeFgRKkguLfr7ex.DVc- has been confirmed
Track | CTDB Status
1 | (7/7) Accurately ripped
2 | (7/7) Accurately ripped
3 | (7/7) Accurately ripped
4 | (7/7) Accurately ripped
5 | (7/7) Accurately ripped
6 | (7/7) Accurately ripped
7 | (7/7) Accurately ripped
8 | (7/7) Accurately ripped
9 | (7/7) Accurately ripped
10 | (7/7) Accurately ripped
11 | (7/7) Accurately ripped
12 | (7/7) Accurately ripped
13 | (7/7) Accurately ripped
14 | (7/7) Accurately ripped
15 | (7/7) Accurately ripped
16 | (7/7) Accurately ripped
17 | (7/7) Accurately ripped
18 | (7/7) Accurately ripped
19 | (7/7) Accurately ripped
20 | (7/7) Accurately ripped


==== Log checksum 3DACCC10E8F452BD1809C5D8BFC53D7C7426CA7DBF51DE6D7F3CE75DB7F0BE0D ====

[CUETools log; Date: 22.04.2018 10:32:33; Version: 2.1.5]
Pregap length 00:00:27.
[CTDB TOCID: I0j2M1W1LeFgRKkguLfr7ex.DVc-] found.
Track | CTDB Status
1 | (8/8) Accurately ripped
2 | (8/8) Accurately ripped
3 | (8/8) Accurately ripped
4 | (8/8) Accurately ripped
5 | (8/8) Accurately ripped
6 | (8/8) Accurately ripped
7 | (8/8) Accurately ripped
8 | (8/8) Accurately ripped
9 | (8/8) Accurately ripped
10 | (8/8) Accurately ripped
11 | (8/8) Accurately ripped
12 | (8/8) Accurately ripped
13 | (8/8) Accurately ripped
14 | (8/8) Accurately ripped
15 | (8/8) Accurately ripped
16 | (8/8) Accurately ripped
17 | (8/8) Accurately ripped
18 | (8/8) Accurately ripped
19 | (8/8) Accurately ripped
20 | (8/8) Accurately ripped
[AccurateRip ID: 002e76f8-02b2ec3a-34107014] found.
Track [ CRC | V2 ] Status
01 [856a3766|4046bfdd] (0+0/3) No match
02 [2ac14e58|4153fb6f] (0+0/3) No match
03 [74049c9e|5295fcbf] (0+0/3) No match
04 [f0d0d401|4dfa77a9] (0+0/3) No match
05 [250984ab|04d7baa5] (0+0/3) No match
06 [c47616c5|4e5ea6a3] (0+0/3) No match
07 [9d6d894a|2315b84c] (0+0/3) No match
08 [da369407|34a34a83] (0+0/3) No match
09 [db3d05b6|f9275595] (0+0/3) No match
10 [191d711c|8072c643] (0+0/3) No match
11 [ab006db1|1d22298a] (0+0/3) No match
12 [f5c32c83|6cdb8972] (0+0/3) No match
13 [9e8a91e8|5047c8ca] (0+0/3) No match
14 [93875d14|8e8fb668] (0+0/3) No match
15 [0a97e736|bb5caabc] (0+0/3) No match
16 [9d512925|b0e86d28] (0+0/3) No match
17 [a4e5af16|4e329a87] (0+0/3) No match
18 [3c0f72cc|1a5ea3ce] (0+0/3) No match
19 [4bddb7d3|030c90a6] (0+0/3) No match
20 [b7c8b7f9|d3278844] (0+0/3) No match

Track Peak [ CRC32 ] [W/O NULL] [ LOG ]
– 99,7 [B56932D6] [B03BEA98] CRC32
01 63,9 [F0869A57] [1DF46E5E]
02 64,5 [DC9CF665] [2E794195]
03 54,4 [618E8389] [08532137]
04 87,1 [EE1C3E60] [118CFB4E]
05 65,0 [BBD1FE03] [D29F7D8C]
06 75,7 [9BFDB96C] [2669E113]
07 52,6 [CFB2FACB] [B1705D11]
08 80,1 [5CB10294] [160688B1]
09 65,7 [2694CE7C] [F350DB2D]
10 75,3 [6671408D] [2370A843]
11 77,7 [D03995F2] [01BF7414]
12 80,6 [5BA96494] [8A1BC2D1]
13 84,5 [4F36F0B3] [2D9E365E]
14 62,6 [A552DA1F] [5FC93C9B]
15 99,7 [1312D4CC] [114F99A2]
16 73,0 [FDA7BB3E] [C31BD35F]
17 91,6 [3E66822A] [1529499B]
18 62,2 [3CBAD199] [E9B6AE4B]
19 54,3 [87136402] [74809971]
20 89,6 [31F95006] [B7AB1A63]

CD 2:
ACT III
[1] Barcarolle (Luis, Chorus) 2’08
[2] Columbus’s Seasick Song 4’16
[3] Lovely Night Ensemble 3’13
[4] The Storm 5’16
[5] Off the Map 4’55
[6] Overboard Ensemble 3’55
[7] Beatriz’s Plea 3’20
[8] Take Me Back Home Again: Finale 4’07

ACT IV
[9] Entr’acte 2’24
[10] The Indies Trio 4’27
[11] Luis’s Love Song 5’40
[12] The Coca-Cola Song (Columbus) 2’29
[13] We’ll Go Down in History Ensemble 3’57
[14] America: Finale 3’36

Exact Audio Copy V1.3 from 2. September 2016

EAC extraction logfile from 21. April 2018, 14:17

Jacques Offenbach, Don White; London Mozart Players; Alun Francis / Christopher Columbus

Used drive : TSSTcorpDVDWBD SE-406AB Adapter: 1 ID: 2

Read mode : Secure
Utilize accurate stream : Yes
Defeat audio cache : Yes
Make use of C2 pointers : No

Read offset correction : 6
Overread into Lead-In and Lead-Out : No
Fill up missing offset samples with silence : Yes
Delete leading and trailing silent blocks : No
Null samples used in CRC calculations : Yes
Used interface : Native Win32 interface for Win NT & 2000

Used output format : User Defined Encoder
Selected bitrate : 768 kBit/s
Quality : High
Add ID3 tag : No
Command line compressor : C:\Program Files (x86)\Exact Audio Copy\FLAC\FLAC.EXE
Additional command line options : -8 -e -p -V -T "ARTIST=%artist%" -T "TITLE=%title%" -T "ALBUM=%albumtitle%" -T "DATE=%year%" -T "TRACKNUMBER=%tracknr%" -T "GENRE=%genre%" -T "PERFORMER=%albuminterpret%" -T "COMPOSER=%composer%" %haslyrics%–tag-from-file=LYRICS="%lyricsfile%"%haslyrics% -T "ALBUMARTIST=%albumartist%" -T "DISCNUMBER=%cdnumber%" -T "TOTALDISCS=%totalcds%" -T "TOTALTRACKS=%numtracks%" -T "COMMENT=%comment%" %source% -o %dest%


TOC of the extracted CD

Track | Start | Length | Start sector | End sector
––––––––––––––––––––––––––––-
1 | 0:00.00 | 2:08.60 | 0 | 9659
2 | 2:08.60 | 4:16.27 | 9660 | 28886
3 | 6:25.12 | 3:13.63 | 28887 | 43424
4 | 9:39.00 | 5:16.57 | 43425 | 67181
5 | 14:55.57 | 4:55.05 | 67182 | 89311
6 | 19:50.62 | 3:55.43 | 89312 | 106979
7 | 23:46.30 | 3:20.25 | 106980 | 122004
8 | 27:06.55 | 4:07.10 | 122005 | 140539
9 | 31:13.65 | 2:24.05 | 140540 | 151344
10 | 33:37.70 | 4:27.70 | 151345 | 171439
11 | 38:05.65 | 5:40.50 | 171440 | 196989
12 | 43:46.40 | 2:29.57 | 196990 | 208221
13 | 46:16.22 | 3:57.70 | 208222 | 226066
14 | 50:14.17 | 3:36.58 | 226067 | 242324


Range status and errors

Selected range

Filename K:\Rips\Offenbach - Christopher Columbus - Francis\CD2\Jacques Offenbach - Alun Francis - Christopher Columbus CD2.wav

Peak level 76.7 %
Extraction speed 1.9 X
Range quality 99.9 %
Test CRC A1D5B1BE
Copy CRC A1D5B1BE
Copy OK

No errors occurred


AccurateRip summary

Track 1 cannot be verified as accurate (confidence 1) [23E50139], AccurateRip returned [06134796] (AR v2)
Track 2 cannot be verified as accurate (confidence 1) [680B8681], AccurateRip returned [9EA5C1B5] (AR v2)
Track 3 cannot be verified as accurate (confidence 1) [3C67504D], AccurateRip returned [5302D41D] (AR v2)
Track 4 cannot be verified as accurate (confidence 1) [F3EF8F2E], AccurateRip returned [649C4B4C] (AR v2)
Track 5 cannot be verified as accurate (confidence 1) [90A34740], AccurateRip returned [DAA76827] (AR v2)
Track 6 cannot be verified as accurate (confidence 1) [EC3CC89D], AccurateRip returned [09B19CCA] (AR v2)
Track 7 cannot be verified as accurate (confidence 1) [6243EF42], AccurateRip returned [6582A2B5] (AR v2)
Track 8 cannot be verified as accurate (confidence 1) [E03BCF66], AccurateRip returned [4D27430D] (AR v2)
Track 9 cannot be verified as accurate (confidence 1) [CD0D86F8], AccurateRip returned [6F77199C] (AR v2)
Track 10 cannot be verified as accurate (confidence 1) [1183C79D], AccurateRip returned [2917C5FB] (AR v2)
Track 11 cannot be verified as accurate (confidence 1) [DB12DDDF], AccurateRip returned [9F4AEF58] (AR v2)
Track 12 cannot be verified as accurate (confidence 1) [676FC053], AccurateRip returned [FAD97B20] (AR v2)
Track 13 cannot be verified as accurate (confidence 1) [F8DD3669], AccurateRip returned [2CA2F082] (AR v2)
Track 14 cannot be verified as accurate (confidence 1) [745EB7EA], AccurateRip returned [51C22B5C] (AR v2)

No tracks could be verified as accurate
You may have a different pressing from the one(s) in the database

End of status report

–– CUETools DB Plugin V2.1.6

[CTDB TOCID: c5AjJ.VjnXIJ7ZjxTnvmFpYHA8E-] found
Submit result: c5AjJ.VjnXIJ7ZjxTnvmFpYHA8E- has been confirmed
Track | CTDB Status
1 | (9/9) Accurately ripped
2 | (9/9) Accurately ripped
3 | (9/9) Accurately ripped
4 | (9/9) Accurately ripped
5 | (9/9) Accurately ripped
6 | (8/9) Accurately ripped
7 | (9/9) Accurately ripped
8 | (9/9) Accurately ripped
9 | (9/9) Accurately ripped
10 | (9/9) Accurately ripped
11 | (9/9) Accurately ripped
12 | (9/9) Accurately ripped
13 | (9/9) Accurately ripped
14 | (9/9) Accurately ripped


==== Log checksum 9BC908EB60C1E66FE4B650E24561F98AEC87C4FF7A5DBE6689A78BEE1FDC8328 ====

[CUETools log; Date: 22.04.2018 10:32:56; Version: 2.1.5]
[CTDB TOCID: c5AjJ.VjnXIJ7ZjxTnvmFpYHA8E-] found.
Track | CTDB Status
1 | (10/10) Accurately ripped
2 | (10/10) Accurately ripped
3 | (10/10) Accurately ripped
4 | (10/10) Accurately ripped
5 | (10/10) Accurately ripped
6 | ( 9/10) Accurately ripped
7 | (10/10) Accurately ripped
8 | (10/10) Accurately ripped
9 | (10/10) Accurately ripped
10 | (10/10) Accurately ripped
11 | (10/10) Accurately ripped
12 | (10/10) Accurately ripped
13 | (10/10) Accurately ripped
14 | (10/10) Accurately ripped
[AccurateRip ID: 001b885c-01283095-d30c9f0e] found.
Track [ CRC | V2 ] Status
01 [69a16a8d|23e50139] (0+0/3) No match
02 [5da05502|680b8681] (0+0/3) No match
03 [ca7e1c6c|3c67504d] (0+0/3) No match
04 [982b372d|f3ef8f2e] (0+0/3) No match
05 [6583432a|90a34740] (0+0/3) No match
06 [dec18971|ec3cc89d] (0+0/3) No match
07 [4b5545b7|6243ef42] (0+0/3) No match
08 [f2f10544|e03bcf66] (0+0/3) No match
09 [6186f7d5|cd0d86f8] (0+0/3) No match
10 [e82accae|1183c79d] (0+0/3) No match
11 [21e6c2ab|db12dddf] (0+0/3) No match
12 [33c9362b|676fc053] (0+0/3) No match
13 [a3b64afe|f8dd3669] (0+0/3) No match
14 [bd23f118|745eb7ea] (0+0/3) No match

Track Peak [ CRC32 ] [W/O NULL] [ LOG ]
– 76,7 [A1D5B1BE] [6033BDD5] CRC32
01 59,4 [E4883ECC] [02173248]
02 61,3 [F6465429] [29BEB02D]
03 60,0 [9E6802CB] [9104C262]
04 76,7 [FFE57FA7] [D2DC2114]
05 65,7 [EADD062B] [B95B6920]
06 59,9 [D4F23086] [AABE1253]
07 57,2 [1DD6DD75] [18660E01]
08 74,6 [1562EE48] [F63CD335]
09 25,6 [D6B3F2CD] [9ABE9687]
10 63,2 [447B4E20] [CE51ED1D]
11 64,1 [C35E69AB] [D4CCB058]
12 73,5 [EEBE162C] [785438DD]
13 68,9 [C135055D] [AC7AAF39]
14 67,2 [A2018EC3] [8CCD03ED]

Performers:
Christopher Columbus - Maurice Arthur
Beatriz, his fiancée - Joy Roberts
Rosa Columbus - Johanna Peters
Fleurette Columbus - Lissa Gray
Gretel Columbus - Marilyn Hill Smith
Luis de Torres, president of the Round Earth Society - Christian du Plessis
The Chief of Police - Alan Opie
Queen Isabella - Anna Dawson
King Ferdinand - Alec Bregonzi
A tourist - Clive Harré
A waiter - John Duxbury
Princess Minnehaha Columbus - Rosemary Ashe
Esperanza - Rosemary Ashe
Carmelita - Celia Kite
Manuela - Kathleen Smales
Valencia - Amilia Dixey

Townspeople, policemen, courtiers, Red Indians, etc
Geoffrey Mitchell Choir
Geoffrey Mitchell, chorus master
London Mozart Players
Alun Francis, conductor
Thanks to the Original ripper (unknown)!

Download: