Subcategories

Amanda Lear - Amanda '98 - Follow Me Back In My Arms (1998)

Posted By: v3122
Amanda Lear - Amanda '98 - Follow Me Back In My Arms (1998)

Amanda Lear - Amanda '98 - Follow Me Back In My Arms (1998)
EAC | Flac(Image) + Cue + Log & MP3 CBR 320Kbps
BMG, 74321 61421 2 | ~ 410 or 134 Mb | Scans Included
House, Disco

Amanda Lear first surfaced in the early '70s as a fetishistically clothed album-cover model for Roxy Music. She was said to be a transsexual but, as she told Interview magazine, that was just a ruse dreamed up by her sponsor, David Bowie, to draw attention. Her importance to disco fans, however, began in 1977, when she recorded I Am a Photograph in Germany with production help from Tony Monn. I Am a Photograph is the first of six sleazy, hard-to-find albums in which she flaunts a voice so heavy with low notes it makes one wonder if she really isn't a man after all. But Lear's slow notes are simply an exaggeration of the whiskey-voiced sultriness created by Marlene Dietrich. That isn't to say, however, that Lear's lyrics – or the music's inverted proportions – don't exploit her mythology as a kinky concoction to the bursting point.

by Michael Freedberg, AMG
Amanda Lear - Amanda '98 - Follow Me Back In My Arms (1998)


Amanda Lear - Amanda '98 - Follow Me Back In My Arms (1998):

Amanda Lear - Amanda '98 - Follow Me Back In My Arms (1998)

Tracklist:

01. Follow Me (9T8 Remake)
02. Blood & Honey (New Remix Version)
03. I'll Miss You (Love Version)
04. Never Trust A Pretty Face
05. Angel Love (Radio Mix)
06. Blue Tango
07. Queen Of Chinatown (Opium Dense Mix)
08. Lilli Marleen
09. These Boots Are Made For Walking (Bang!Mix)
10. Mother, Look What They've Done To Me
11. Muscle Man (Heartbeat Version)
12. The Lady In Black
13. Gold
14. Tomorrow ('98 Radio Version)

Exact Audio Copy V0.99 prebeta 5 from 4. May 2009

Отчёт EAC об извлечении, выполненном 10. февраля 2010, 20:45

Amanda Lear / Amanda '98 - Follow Me Back In My Arms

Дисковод: Optiarc DVD RW AD-7203A Adapter: 1 ID: 1

Режим чтения : Достоверность
Использование точного потока : Да
Отключение кэша аудио : Да
Использование указателей C2 : Нет

Коррекция смещения при чтении : 48
Способность читать области Lead-in и Lead-out : Нет
Заполнение пропущенных сэмплов тишиной : Да
Удаление блоков с тишиной в начале и конце : Нет
При вычислениях CRC использовались нулевые сэмплы : Да
Интерфейс : Установленный внешний ASPI-интерфейс

Выходной формат : Внутренние WAV-операции
Формат сэмплов : 44.100 Гц; 16 бит; стерео


TOC извлечённого CD

Трек | Старт | Длительность | Начальный сектор | Конечный сектор
––––––––––––––––––––––––––––––––––-
1 | 0:00.32 | 4:02.25 | 32 | 18206
2 | 4:02.57 | 4:01.13 | 18207 | 36294
3 | 8:03.70 | 3:30.62 | 36295 | 52106
4 | 11:34.57 | 4:48.25 | 52107 | 73731
5 | 16:23.07 | 3:46.00 | 73732 | 90681
6 | 20:09.07 | 2:45.50 | 90682 | 103106
7 | 22:54.57 | 3:59.38 | 103107 | 121069
8 | 26:54.20 | 4:45.40 | 121070 | 142484
9 | 31:39.60 | 4:11.42 | 142485 | 161351
10 | 35:51.27 | 4:31.20 | 161352 | 181696
11 | 40:22.47 | 3:40.10 | 181697 | 198206
12 | 44:02.57 | 3:39.50 | 198207 | 214681
13 | 47:42.32 | 3:48.63 | 214682 | 231844
14 | 51:31.20 | 4:04.37 | 231845 | 250181


Характеристики диапазона извлечения и сообщения об ошибках

Выбранный диапазон

Имя файла E:\LOSSLESS\Amanda Lear\15. Amanda '98 - Follow Me Back In My Arms\Amanda Lear - Amanda '98 - Follow Me Back In My Arms.wav

Пиковый уровень 99.0 %
Качество диапазона 100.0 %
CRC копии 683C191B
Копирование… OK

Ошибок не произошло


AccurateRip: сводка

Трек 1 точное извлечение (доверие 1) [469C013D]
Трек 2 точное извлечение (доверие 1) [BBF459BA]
Трек 3 точное извлечение (доверие 1) [8210FE10]
Трек 4 точное извлечение (доверие 1) [96C6B7E4]
Трек 5 точное извлечение (доверие 1) [22E9C7DD]
Трек 6 точное извлечение (доверие 1) [C028422A]
Трек 7 точное извлечение (доверие 1) [897C7765]
Трек 8 точное извлечение (доверие 1) [755277D5]
Трек 9 точное извлечение (доверие 1) [CE798E37]
Трек 10 точное извлечение (доверие 1) [94771997]
Трек 11 точное извлечение (доверие 1) [756A7401]
Трек 12 точное извлечение (доверие 1) [FBCA4BE7]
Трек 13 точное извлечение (доверие 1) [40214DD5]
Трек 14 точность не определена (достоверность 1) [326CC879], AccurateRip вернул [D1DF6B62]

13 трек(и) скопированы точно
1 трек(и) не удалось проверить на точность

Некоторые треки не прошли проверку на точность

Конец отчёта

foobar2000 1.2.9 / Dynamic Range Meter 1.1.1
log date: 2016-07-30 11:21:40

––––––––––––––––––––––––––––––––––––––––
Analyzed: Amanda Lear / Amanda '98 - Follow Me Back In My Arms
––––––––––––––––––––––––––––––––––––––––

DR Peak RMS Duration Track
––––––––––––––––––––––––––––––––––––––––
DR9 -0.08 dB -10.85 dB 4:02 01-Follow Me (9T8 Remake)
DR9 -0.08 dB -10.54 dB 4:01 02-Blood & Honey (New Remix Version)
DR11 -0.08 dB -13.48 dB 3:31 03-I'll Miss You (Love Version)
DR10 -0.08 dB -12.08 dB 4:48 04-Never Trust A Pretty Face
DR10 -0.08 dB -11.22 dB 3:46 05-Angel Love (Radio Mix)
DR10 -0.08 dB -12.01 dB 2:46 06-Blue Tango
DR8 -0.08 dB -9.69 dB 4:00 07-Queen Of Chinatown (Opium Dense Mix)
DR10 -0.08 dB -11.81 dB 4:46 08-Lilli Marleen
DR10 -0.08 dB -10.87 dB 4:12 09-These Boots Are Made For Walking (Bang!Mix)
DR10 -0.08 dB -11.93 dB 4:31 10-Mother, Look What They've Done To Me
DR10 -0.08 dB -11.68 dB 3:40 11-Muscle Man (Heartbeat Version)
DR10 -0.08 dB -12.16 dB 3:40 12-The Lady In Black
DR9 -0.08 dB -11.67 dB 3:49 13-Gold
DR9 -0.08 dB -10.09 dB 4:04 14-Tomorrow ('98 Radio Version)
––––––––––––––––––––––––––––––––––––––––

Number of tracks: 14
Official DR value: DR10

Samplerate: 44100 Hz
Channels: 2
Bits per sample: 16
Bitrate: 979 kbps
Codec: FLAC

[CUETools log; Date: 30.07.2016 11:21:28; Version: 2.1.4]
Pregap length 00:00:32.
[CTDB TOCID: 8r9iJENs1liCDBPw2zUVRZ7y.HI-] found.
Track | CTDB Status
1 | (4/4) Accurately ripped
2 | (4/4) Accurately ripped
3 | (4/4) Accurately ripped
4 | (4/4) Accurately ripped
5 | (4/4) Accurately ripped
6 | (4/4) Accurately ripped
7 | (4/4) Accurately ripped
8 | (4/4) Accurately ripped
9 | (4/4) Accurately ripped
10 | (4/4) Accurately ripped
11 | (4/4) Accurately ripped
12 | (4/4) Accurately ripped
13 | (4/4) Accurately ripped
14 | (4/4) Accurately ripped
[AccurateRip ID: 001c9ee2-01317852-c10d070e] found.
Track [ CRC | V2 ] Status
01 [469c013d|551ba0ba] (1+1/3) Accurately ripped
02 [bbf459ba|c338df2f] (1+1/3) Accurately ripped
03 [8210fe10|d59e4da9] (1+1/3) Accurately ripped
04 [96c6b7e4|4b4ae649] (1+1/3) Accurately ripped
05 [22e9c7dd|fbf4c37a] (1+1/3) Accurately ripped
06 [c028422a|9918c41e] (1+1/3) Accurately ripped
07 [897c7765|810260fa] (1+1/3) Accurately ripped
08 [755277d5|b1f2306a] (1+1/3) Accurately ripped
09 [ce798e37|0ecdab85] (1+1/3) Accurately ripped
10 [94771997|1a02c7b9] (1+1/3) Accurately ripped
11 [756a7401|51089782] (1+1/3) Accurately ripped
12 [fbca4be7|d8d785b6] (1+1/3) Accurately ripped
13 [40214dd5|91b3dc8a] (1+1/3) Accurately ripped
14 [326cc879|af7e062c] (0+1/3) Accurately ripped

Track Peak [ CRC32 ] [W/O NULL] [ LOG ]
– 99,0 [683C191B] [7726B65D] CRC32
01 99,0 [4118C816] [CAAA2B28]
02 99,0 [601EDCDC] [B5F89BE5]
03 99,0 [35B96074] [C179DFE9]
04 99,0 [3136D5EE] [AC810BB4]
05 99,0 [058C15A9] [F2B3C528]
06 99,0 [1920F9C3] [41EA9B6E]
07 99,0 [3C0AFFE2] [65D47559]
08 99,0 [392ACE79] [4F43A1AD]
09 99,0 [C2FDA0FD] [8B6CD7BE]
10 99,0 [A7332747] [82EF660F]
11 99,0 [6EF74A12] [8F2F83DD]
12 99,0 [3C918B88] [C2F4539C]
13 99,0 [A6621EAC] [F9637B16]
14 99,0 [6FC6137E] [8062EB19]

Amanda Lear - Amanda '98 - Follow Me Back In My Arms (1998)

All thanks go to megaboroda70

Amanda Lear in my Blog

Download Amanda Lear - Amanda '98 - Follow Me Back In My Arms (1998):