Subcategories

Amanda Lear - Brand New Love Affair (2009)

Posted By: v3122
Amanda Lear - Brand New Love Affair (2009)

Amanda Lear - Brand New Love Affair (2009)
EAC | Flac(Image) + Cue + Log & MP3 CBR 320Kbps
Edina Music, EANT21038 | ~ 352 or 113 Mb | Scans Included
Deep House, Euro House, Disco

~ Brand New Love Affair is an EP by French singer Amanda Lear, released in 2009 by Edina Music ~

Brand New Love Affair comprises three original songs, two covers, two remixes, and a megamix medley of the EP's tracks. It followed Lear's previous studio album Brief Encounters, released only six weeks earlier in Italy, and focused on more dance-oriented repertoire.

Lear worked with Australian producers Peter Wilson and Chris Richards, who produced the majority of the EP's material, including their original songs "Brand New Love Affair" and "C'est la vie", originally intended for Brief Encounters, but eventually pulled from that album. Wilson has revealed that he wrote "Brand New Love Affair" especially for Amanda, as a tribute to her classic sound, and has described "C'est la vie" as influenced by Kate Ryan and ABBA.

The EP was promoted simultaneously with the Brief Encounters trilogy. "Brand New Love Affair (In the Mix)" was released as the first single, accompanied by animated music video. The 'TV Final Mix' of "I Am What I Am" was released in May 2010, following Lear's performance of the song on French television. "I'm Coming Up" was released as the remix maxi-single in June.

~ wiki
Amanda Lear - Brand New Love Affair (2009)


Amanda Lear - Brand New Love Affair (2009):

Amanda Lear - Brand New Love Affair (2009)

Tracklist:

1. Brand New Love Affair (In The Mix) 4:03
2. I'm Coming Up 3:30
3. I Am What I Am 2:33
4. C'est la vie 3:53
5. Kiss Me, Honey, Honey, Kiss Me (Miguelito Loveless Remix) 10:17
6. C'est la vie (Part 2) 3:41
7. Brand New Love Affair Symphony 5:51
8. T1 Love Suite 11:25

Exact Audio Copy V0.99 prebeta 5 from 4. May 2009

Отчёт EAC об извлечении, выполненном 10. февраля 2010, 23:28

Amanda Lear / Brand New Love Affair

Дисковод: Optiarc DVD RW AD-7203A Adapter: 1 ID: 1

Режим чтения : Достоверность
Использование точного потока : Да
Отключение кэша аудио : Да
Использование указателей C2 : Нет

Коррекция смещения при чтении : 48
Способность читать области Lead-in и Lead-out : Нет
Заполнение пропущенных сэмплов тишиной : Да
Удаление блоков с тишиной в начале и конце : Нет
При вычислениях CRC использовались нулевые сэмплы : Да
Интерфейс : Установленный внешний ASPI-интерфейс

Выходной формат : Внутренние WAV-операции
Формат сэмплов : 44.100 Гц; 16 бит; стерео


TOC извлечённого CD

Трек | Старт | Длительность | Начальный сектор | Конечный сектор
––––––––––––––––––––––––––––––––––-
1 | 0:00.00 | 4:03.51 | 0 | 18275
2 | 4:03.51 | 3:30.21 | 18276 | 34046
3 | 7:33.72 | 2:33.70 | 34047 | 45591
4 | 10:07.67 | 3:53.33 | 45592 | 63099
5 | 14:01.25 | 10:17.56 | 63100 | 109430
6 | 24:19.06 | 3:41.21 | 109431 | 126026
7 | 28:00.27 | 5:51.34 | 126027 | 152385
8 | 33:51.61 | 11:25.33 | 152386 | 203793


Характеристики диапазона извлечения и сообщения об ошибках

Выбранный диапазон

Имя файла E:\LOSSLESS\Amanda Lear\25. A Brand New Love Affair (2009)\Amanda Lear - Brand New Love Affair.wav

Пиковый уровень 98.8 %
Качество диапазона 99.9 %
CRC копии 53FF8983
Копирование… OK

Ошибок не произошло


AccurateRip: сводка

Трек 1 нет в базе данных
Трек 2 нет в базе данных
Трек 3 нет в базе данных
Трек 4 нет в базе данных
Трек 5 нет в базе данных
Трек 6 нет в базе данных
Трек 7 нет в базе данных
Трек 8 нет в базе данных

Ни одного трека нет в базе AccurateRip

Конец отчёта

Amanda Lear - Brand New Love Affair (2009)

All thanks go to megaboroda70

Amanda Lear in my Blog

Download Amanda Lear - Brand New Love Affair (2009):