Subcategories

Amanda Lear: Collection (1978 - 1986) [Vinyl Rip 16/44 & mp3-320]

Posted By: v3122
Amanda Lear: Collection (1978 - 1986) [Vinyl Rip 16/44 & mp3-320]

Amanda Lear: Collection (1978 - 1986) [Vinyl Rip 16/44 & mp3-320]
6 x Vinyl Rip 16/44 | Flac(Image + Cue) > 1464 Mb
MP3 CBR 320Kbps > 514 Mb | Artwork(jpg) > 348 Mb
Pop, Funk / Soul, Electronic, Disco

Amanda Lear first surfaced in the early '70s as a fetishistically clothed album-cover model for Roxy Music. She was said to be a transsexual but, as she told Interview magazine, that was just a ruse dreamed up by her sponsor, David Bowie, to draw attention. Her importance to disco fans, however, began in 1977, when she recorded I Am a Photograph in Germany with production help from Tony Monn. I Am a Photograph is the first of six sleazy, hard-to-find albums in which she flaunts a voice so heavy with low notes it makes one wonder if she really isn't a man after all. But Lear's slow notes are simply an exaggeration of the whiskey-voiced sultriness created by Marlene Dietrich. That isn't to say, however, that Lear's lyrics – or the music's inverted proportions – don't exploit her mythology as a kinky concoction to the bursting point.

by Michael Freedberg, allmusic
Amanda Lear: Collection (1978 - 1986) [Vinyl Rip 16/44 & mp3-320]


Amanda Lear: Collection (1978 - 1986) [Vinyl Rip 16/44 & mp3-320]:

Amanda Lear: Collection (1978 - 1986) [Vinyl Rip 16/44 & mp3-320]

Tracklist VNL01 - Sweet Revenge:


01. A1. Follow Me [03:51]
02. A2. Gold [03:44]
03. A3. Mother, Look What They've Done To Me [04:33]
04. A4. Run Baby Run [03:43]
05. A5. Follow Me (Reprise) [03:52]
06. B1. Comics [03:45]
07. B2. Enigma [05:13]
08. B3. The Stud [04:07]
09. B4. Hollywood Flashback [04:35]

foobar2000 1.1.18 / Dynamic Range Meter 1.1.1
log date: 2016-04-03 17:52:58

––––––––––––––––––––––––––––––––––––––––
Analyzed: AMANDA LEAR / Sweet Revenge
––––––––––––––––––––––––––––––––––––––––

DR Peak RMS Duration Track
––––––––––––––––––––––––––––––––––––––––
DR13 -1.01 dB -16.68 dB 3:52 01-A1. Follow Me
DR13 -1.20 dB -16.67 dB 3:45 02-A2. Gold
DR14 -1.18 dB -17.45 dB 4:33 03-A3. Mother, Look What They've Done To Me
DR13 -2.21 dB -17.62 dB 3:44 04-A4. Run Baby Run
DR13 -1.59 dB -16.89 dB 3:52 05-A5. Follow Me (Reprise)
DR13 -3.26 dB -19.41 dB 3:45 06-B1. Comics
DR14 -2.50 dB -19.10 dB 5:13 07-B2. Enigma
DR13 -1.63 dB -17.47 dB 4:07 08-B3. The Stud
DR14 -2.15 dB -18.75 dB 4:36 09-B4. Hollywood Flashback
––––––––––––––––––––––––––––––––––––––––

Number of tracks: 9
Official DR value: DR13

Samplerate: 44100 Hz
Channels: 2
Bits per sample: 16
Bitrate: 921 kbps
Codec: FLAC

Amanda Lear: Collection (1978 - 1986) [Vinyl Rip 16/44 & mp3-320]

Tracklist VNL02 - I Am A Photograph:
JP LP 1978 Nippon Columbia Co., Ltd, YX-7215-K

01. A1. Blood And Honey [04:54]
02. A2. Alphabet (Prelude In C By J. S. Bach) [04:02]
03. A3. These Boots Are Made For Walkin' [03:11]
04. A4. Tomorrow [04:13]
05. A5. Pretty Boys [02:57]
06. B1. Queen Of China-Town [04:16]
07. B2. Alligator [04:34]
08. B3. The Lady In Black [03:43]
09. B4. I Am A Photograph [04:27]
10. B5. Blue Tango [02:44]

foobar2000 1.1.18 / Dynamic Range Meter 1.1.1
log date: 2016-04-03 17:53:11

––––––––––––––––––––––––––––––––––––––––
Analyzed: AMANDA LEAR / I Am A Photograph
––––––––––––––––––––––––––––––––––––––––

DR Peak RMS Duration Track
––––––––––––––––––––––––––––––––––––––––
DR12 -1.87 dB -14.97 dB 4:54 01-A1. Blood And Honey
DR13 -1.09 dB -16.44 dB 4:02 02-A2. Alphabet (Prelude In C By J. S. Bach)
DR13 -1.01 dB -16.15 dB 3:11 03-A3. These Boots Are Made For Walkin'
DR13 -0.99 dB -17.04 dB 4:14 04-A4. Tomorrow
DR14 -1.01 dB -17.34 dB 2:57 05-A5. Pretty Boys
DR12 -0.45 dB -14.23 dB 4:17 06-B1. Queen Of China-Town
DR13 -0.90 dB -16.75 dB 4:35 07-B2. Alligator
DR14 -0.59 dB -16.77 dB 3:43 08-B3. The Lady In Black
DR13 -1.06 dB -16.85 dB 4:27 09-B4. I Am A Photograph
DR12 -0.87 dB -15.65 dB 2:45 10-B5. Blue Tango
––––––––––––––––––––––––––––––––––––––––

Number of tracks: 10
Official DR value: DR13

Samplerate: 44100 Hz
Channels: 2
Bits per sample: 16
Bitrate: 926 kbps
Codec: FLAC

Amanda Lear: Collection (1978 - 1986) [Vinyl Rip 16/44 & mp3-320]

Tracklist VNL03 - Diamonds for Breakfast:
DE LP 1980 Ariola-Eurodisc GmbH, 201 265

01. A1. Rockin' Rollin' (I Hear You Nagging) [03:06]
02. A2. I Need A Man [03:40]
03. A3. It's A Better Life [04:30]
04. A4. Oh Boy [04:30]
05. A5. Insomnia [03:16]
06. B1. Diamonds [04:57]
07. B2. Japan [03:14]
08. B3. Fabulous [05:29]
09. B4. Ho Fatto L'amore Con Me [03:17]
10. B5. When [03:29]

foobar2000 1.1.18 / Dynamic Range Meter 1.1.1
log date: 2016-04-03 17:53:34

––––––––––––––––––––––––––––––––––––––––
Analyzed: AMANDA LEAR / Diamonds For Breakfast
––––––––––––––––––––––––––––––––––––––––

DR Peak RMS Duration Track
––––––––––––––––––––––––––––––––––––––––
DR13 -1.39 dB -16.17 dB 3:06 01-A1. Rockin' Rollin' (I Hear You Nagging)
DR13 -1.46 dB -16.57 dB 3:41 02-A2. I Need A Man
DR12 -1.01 dB -15.67 dB 4:31 03-A3. It's A Better Life
DR14 -1.57 dB -17.94 dB 4:31 04-A4. Oh Boy
DR15 -2.08 dB -20.70 dB 3:17 05-A5. Insomnia
DR13 -1.08 dB -15.60 dB 4:58 06-B1. Diamonds
DR14 -1.18 dB -17.68 dB 3:15 07-B2. Japan
DR13 -1.21 dB -15.80 dB 5:29 08-B3. Fabulous
DR13 -1.46 dB -16.83 dB 3:18 09-B4. Ho Fatto L'amore Con Me
DR11 -3.28 dB -16.63 dB 3:30 10-B5. When
––––––––––––––––––––––––––––––––––––––––

Number of tracks: 10
Official DR value: DR13

Samplerate: 44100 Hz
Channels: 2
Bits per sample: 16
Bitrate: 870 kbps
Codec: FLAC

Amanda Lear: Collection (1978 - 1986) [Vinyl Rip 16/44 & mp3-320]

Tracklist VNL04 - Incognito:
DE LP 1981 Ariola-Eurodisc GmbH • 203 450

01. A1. Laziness: 'Hollywood Is Just A Dream When You're Seventeen' [04:51]
02. A2. Indifference: 'Love Amnesia' [03:52]
03. A3. Bureaucracy: 'Red Tape' [03:48]
04. A4. Fear: 'New York' [04:41]
05. B1. Pride: 'Egal' [04:11]
06. B2. Nostalgia: 'Berlin Lady' [03:25]
07. B3. Greed: 'Nymphomania' [03:30]
08. B4. Envy: 'If Was A Boy' [04:12]
09. B5. Anger: 'Made In France' [02:13]

foobar2000 1.1.18 / Dynamic Range Meter 1.1.1
log date: 2016-04-03 17:53:45

––––––––––––––––––––––––––––––––––––––––
Analyzed: AMANDA LEAR / Incognito
––––––––––––––––––––––––––––––––––––––––

DR Peak RMS Duration Track
––––––––––––––––––––––––––––––––––––––––
DR10 -1.88 dB -14.02 dB 4:51 01-A1. Laziness: 'Hollywood Is Just A Dream When You're Seventeen'
DR12 -1.46 dB -15.83 dB 3:52 02-A2. Indifference: 'Love Amnesia'
DR12 -0.49 dB -15.08 dB 3:49 03-A3. Bureaucracy: 'Red Tape'
DR12 -2.16 dB -16.19 dB 4:41 04-A4. Fear: 'New York'
DR12 -1.71 dB -16.75 dB 4:11 05-B1. Pride: 'Egal'
DR13 -1.56 dB -16.65 dB 3:26 06-B2. Nostalgia: 'Berlin Lady'
DR11 -0.49 dB -13.56 dB 3:30 07-B3. Greed: 'Nymphomania'
DR11 -1.56 dB -14.42 dB 4:12 08-B4. Envy: 'If Was A Boy'
DR11 -1.44 dB -14.66 dB 2:13 09-B5. Anger: 'Made In France'
––––––––––––––––––––––––––––––––––––––––

Number of tracks: 9
Official DR value: DR12

Samplerate: 44100 Hz
Channels: 2
Bits per sample: 16
Bitrate: 903 kbps
Codec: FLAC

Amanda Lear: Collection (1978 - 1986) [Vinyl Rip 16/44 & mp3-320]

Tracklist VNL05 - Tam-Tam:
DE LP 1983 Ariola-Eurodisc GmbH, 205 895

01. A1. Tam-Tam [03:34]
02. A2. Bewitched [04:31]
03. A3. Wicked lady [04:27]
04. A4. No Regrets [04:26]
05. B1. Magic [04:18]
06. B2. It's All Over [03:39]
07. B3. Gipsy Man [04:27]
08. B4. Music Is [03:32]

foobar2000 1.1.18 / Dynamic Range Meter 1.1.1
log date: 2016-04-03 17:53:54

––––––––––––––––––––––––––––––––––––––––
Analyzed: AMANDA LEAR / Tam-Tam
––––––––––––––––––––––––––––––––––––––––

DR Peak RMS Duration Track
––––––––––––––––––––––––––––––––––––––––
DR14 -0.24 dB -16.06 dB 3:34 01-A1. Tam-Tam
DR13 -1.58 dB -16.94 dB 4:31 02-A2. Bewitched
DR15 -0.85 dB -18.21 dB 4:27 03-A3. Wicked lady
DR14 -1.12 dB -17.53 dB 4:26 04-A4. No Regrets
DR14 -1.64 dB -17.36 dB 4:18 05-B1. Magic
DR13 -1.34 dB -18.09 dB 3:40 06-B2. It's All Over
DR13 -0.77 dB -16.26 dB 4:27 07-B3. Gipsy Man
DR14 -1.00 dB -15.95 dB 3:33 08-B4. Music Is
––––––––––––––––––––––––––––––––––––––––

Number of tracks: 8
Official DR value: DR14

Samplerate: 44100 Hz
Channels: 2
Bits per sample: 16
Bitrate: 925 kbps
Codec: FLAC

Amanda Lear: Collection (1978 - 1986) [Vinyl Rip 16/44 & mp3-320]

Tracklist VNL06 - Secret Passion:
FR LP 1986 Ibach Distribution CARRERE, 66. 408

01. A1. Desire [04:22]
02. A2. Wild Thing [03:39]
03. A3. I Want My Name On A Billboard [04:30]
04. A4. She Wolf [04:19]
05. B1. Mannequin [03:33]
06. B2. I'm A Mistery [04:37]
07. B3. Aphrodisiac [03:50]
08. B4. Times Up [04:57]

foobar2000 1.1.18 / Dynamic Range Meter 1.1.1
log date: 2016-04-03 17:54:05

––––––––––––––––––––––––––––––––––––––––
Analyzed: AMANDA LEAR / Secret Passion
––––––––––––––––––––––––––––––––––––––––

DR Peak RMS Duration Track
––––––––––––––––––––––––––––––––––––––––
DR11 -0.60 dB -15.30 dB 4:22 01-A1. Desire
DR12 -0.44 dB -14.21 dB 3:39 02-A2. Wild Thing
DR12 -0.93 dB -15.00 dB 4:30 03-A3. I Want My Name On A Billboard
DR11 -2.06 dB -16.40 dB 4:19 04-A4. She Wolf
DR12 -0.89 dB -15.81 dB 3:33 05-B1. Mannequin
DR12 -1.19 dB -15.20 dB 4:38 06-B2. I'm A Mistery
DR12 -1.27 dB -15.96 dB 3:50 07-B3. Aphrodisiac
DR11 -1.48 dB -15.12 dB 4:58 08-B4. Times Up
––––––––––––––––––––––––––––––––––––––––

Number of tracks: 8
Official DR value: DR12

Samplerate: 44100 Hz
Channels: 2
Bits per sample: 16
Bitrate: 936 kbps
Codec: FLAC


All thanks go to the original releasers


Amanda Lear in my Blog

Download Amanda Lear: Collection (1978 - 1986) [Vinyl Rip 16/44 & mp3-320]: