Subcategories

Amanda Lear ‎- I'm Coming Up (The Remix E.P) (2010)

Posted By: v3122
Amanda Lear ‎- I'm Coming Up (The Remix E.P) (2010)

Amanda Lear ‎- I'm Coming Up (The Remix E.P) (2010)
EAC | Flac(Image) + Cue + Log & MP3 CBR 320Kbps
Edina Music, 000662 | ~ 312 or 115 Mb | Scans Included
House

~ Remixes by Morel, Tommie Sunshine, Nightriders and Special Ops (aka Babydaddy and DJ Sammy Jo of the Scissor Sisters) ~

"I'm Coming Up" is a song by French singer Amanda Lear, released in 2010 by Edina Music and Outsider Music.

The song was the third and the last single from Lear's 2009 EP Brand New Love Affair. It was released as the maxi single containing no less than 7 versions of the title tracks. Amanda Lear worked with Australian producers Peter Wilson and Chris Richards for the original 2009 song. Remixes were produced by the likes of Richard Morel, Tommie Sunshine and Babydaddy of the Scissor Sisters.

~ WIKI
Amanda Lear ‎- I'm Coming Up (The Remix E.P) (2010)


Amanda Lear ‎- I'm Coming Up (The Remix E.P) (2010):

Amanda Lear ‎- I'm Coming Up (The Remix E.P) (2010)

Tracklist:

1. I'm Coming Up (Richard Model Remix)
2. I'm Coming Up (Nightriders Club Mix)
3. I'm Coming Up (Tommie Sunshine’s Quaalude Remix)
4. I'm Coming Up (Special OPS Hello Dali Mix)
5. I'm Coming Up (Richard Model Dub Mix)
6. I'm Coming Up (Nightriders Dub Mix)
7. I'm Coming Up (Richard Model Video Edit)

Exact Audio Copy V0.99 prebeta 5 from 4. May 2009

Отчёт EAC об извлечении, выполненном 1. сентября 2010, 18:51

Amanda Lear / I'm Coming Up

Дисковод: ASUS DRW-24B1ST Adapter: 3 ID: 0

Режим чтения : Достоверность
Использование точного потока : Да
Отключение кэша аудио : Да
Использование указателей C2 : Нет

Коррекция смещения при чтении : 6
Способность читать области Lead-in и Lead-out : Нет
Заполнение пропущенных сэмплов тишиной : Да
Удаление блоков с тишиной в начале и конце : Нет
При вычислениях CRC использовались нулевые сэмплы : Да
Интерфейс : Встроенный Win32-интерфейс для Win NT/2000

Выходной формат : Внутренние WAV-операции
Формат сэмплов : 44.100 Гц; 16 бит; стерео


TOC извлечённого CD

Трек | Старт | Длительность | Начальный сектор | Конечный сектор
––––––––––––––––––––––––––––––––––-
1 | 0:00.00 | 7:39.63 | 0 | 34487
2 | 7:39.63 | 6:39.65 | 34488 | 64477
3 | 14:19.53 | 6:15.11 | 64478 | 92613
4 | 20:34.64 | 5:17.52 | 92614 | 116440
5 | 25:52.41 | 6:53.52 | 116441 | 147467
6 | 32:46.18 | 6:35.18 | 147468 | 177110
7 | 39:21.36 | 4:12.70 | 177111 | 196080


Характеристики диапазона извлечения и сообщения об ошибках

Выбранный диапазон

Имя файла J:\TORRENTS\LOSSLESS\Amanda Lear\27. I'm Coming Up - The Remix EP (2010)\Amanda Lear - I'm Coming Up.wav

Пиковый уровень 100.0 %
Качество диапазона 100.0 %
CRC теста BFB0058A
CRC копии BFB0058A
Копирование… OK

Ошибок не произошло


AccurateRip: сводка

Трек 1 нет в базе данных
Трек 2 нет в базе данных
Трек 3 нет в базе данных
Трек 4 нет в базе данных
Трек 5 нет в базе данных
Трек 6 нет в базе данных
Трек 7 нет в базе данных

Ни одного трека нет в базе AccurateRip

Конец отчёта

foobar2000 1.2.9 / Dynamic Range Meter 1.1.1
log date: 2016-07-27 17:31:48

––––––––––––––––––––––––––––––––––––––––
Analyzed: Amanda Lear / I'm Coming Up
––––––––––––––––––––––––––––––––––––––––

DR Peak RMS Duration Track
––––––––––––––––––––––––––––––––––––––––
DR6 -0.26 dB -7.94 dB 7:40 01-01. I'm Coming Up - Richard Model Remix
DR8 0.00 dB -9.87 dB 6:40 02-02. I'm Coming Up - Nightriders Club Mix
DR7 0.00 dB -7.73 dB 6:15 03-03. I'm Coming Up - Tommie Sunshine's Quaalude Remix
DR7 -0.26 dB -9.41 dB 5:18 04-04. I'm Coming Up - Special OPS Hello Dali Mix
DR8 0.00 dB -10.17 dB 6:54 05-05. I'm Coming Up - Richard Model Dub Mix
DR9 0.00 dB -10.28 dB 6:35 06-06. I'm Coming Up - Nightriders Dub Mix
DR5 -0.26 dB -6.01 dB 4:13 07-07. I'm Coming Up - Richard Model Video Edit
––––––––––––––––––––––––––––––––––––––––

Number of tracks: 7
Official DR value: DR7

Samplerate: 44100 Hz
Channels: 2
Bits per sample: 16
Bitrate: 931 kbps
Codec: FLAC

[CUETools log; Date: 27.07.2016 17:31:54; Version: 2.1.4]
[CTDB TOCID: y_GR8qUzZuX8t8nCERF7oYe12ww-] disk not present in database.
[AccurateRip ID: 000ca509-004ae511-5d0a3607] disk not present in database.

Track Peak [ CRC32 ] [W/O NULL] [ LOG ]
– 100,0 [BFB0058A] [CE77A938] CRC32
01 97,1 [0AF3FEB5] [C913ADA1]
02 100,0 [85CAFC28] [F42DCD1D]
03 100,0 [A9910110] [9B7F9147]
04 97,0 [0E5F0DAD] [5B6105DA]
05 100,0 [0FC2BC24] [01C83EE0]
06 100,0 [07BC0889] [68C575E1]
07 97,1 [30842FCD] [30877A93]

Amanda Lear ‎- I'm Coming Up (The Remix E.P) (2010)

All thanks go to megaboroda70

Amanda Lear in my Blog

Download Amanda Lear ‎- I'm Coming Up (The Remix E.P) (2010):