Subcategories

Amanda Lear - Never Trust A Pretty Face (1978)

Posted By: v3122
Amanda Lear - Never Trust A Pretty Face (1978)

Amanda Lear - Never Trust A Pretty Face (1978)
EAC | Flac(Image) + Cue + Log & MP3 CBR 320Kbps
1997 | Alkor Records, AL MNM 105 | ~ 227 or 102 Mb | Scans Included
Disco

Never Trust a Pretty Face is the third studio album by French singer Amanda Lear, released by West German label Ariola Records in 1979. The album included notable hit singles "The Sphinx" and "Fashion Pack (Studio 54)", and turned out a commercial and critical success…

~ wiki
Amanda Lear - Never Trust A Pretty Face (1978)


Amanda Lear - Never Trust A Pretty Face (1978):

Amanda Lear - Never Trust A Pretty Face (1978)

Tracklist:

1. Fashion Pack (5:10)
2. Forger it (4:14)
3. Lili Marleen (4:44)
4. Never Trust a Pretty Face (4:47)
5. The Sphinx (4:25)
7. Intellectually (4:17)
6. Black Holes (5:06)
8. Miroir (2:00)
9. Dreamer (South Pacific) (5:14)

Exact Audio Copy V0.99 prebeta 5 from 4. May 2009

Отчёт EAC об извлечении, выполненном 10. февраля 2010, 2:14

Amanda Lear / Never Trust A Pretty Face

Дисковод: Optiarc DVD RW AD-7203A Adapter: 1 ID: 1

Режим чтения : Достоверность
Использование точного потока : Да
Отключение кэша аудио : Да
Использование указателей C2 : Нет

Коррекция смещения при чтении : 48
Способность читать области Lead-in и Lead-out : Нет
Заполнение пропущенных сэмплов тишиной : Да
Удаление блоков с тишиной в начале и конце : Нет
При вычислениях CRC использовались нулевые сэмплы : Да
Интерфейс : Установленный внешний ASPI-интерфейс

Выходной формат : Внутренние WAV-операции
Формат сэмплов : 44.100 Гц; 16 бит; стерео


TOC извлечённого CD

Трек | Старт | Длительность | Начальный сектор | Конечный сектор
––––––––––––––––––––––––––––––––––-
1 | 0:00.00 | 5:12.16 | 0 | 23415
2 | 5:12.16 | 4:17.46 | 23416 | 42736
3 | 9:29.62 | 4:47.39 | 42737 | 64300
4 | 14:17.26 | 4:51.11 | 64301 | 86136
5 | 19:08.37 | 4:28.06 | 86137 | 106242
6 | 23:36.43 | 5:09.60 | 106243 | 129477
7 | 28:46.28 | 4:20.29 | 129478 | 149006
8 | 33:06.57 | 2:03.61 | 149007 | 158292
9 | 35:10.43 | 5:15.10 | 158293 | 181927


Характеристики диапазона извлечения и сообщения об ошибках

Выбранный диапазон

Имя файла E:\LOSSLESS\Amanda Lear\04. Never Trust A Pretty Face (1978)\Amanda Lear - Never Trust A Pretty Face.wav

Пиковый уровень 98.5 %
Качество диапазона 100.0 %
CRC копии 434451BC
Копирование… OK

Ошибок не произошло


AccurateRip: сводка

Трек 1 нет в базе данных
Трек 2 нет в базе данных
Трек 3 нет в базе данных
Трек 4 нет в базе данных
Трек 5 нет в базе данных
Трек 6 нет в базе данных
Трек 7 нет в базе данных
Трек 8 нет в базе данных
Трек 9 нет в базе данных

Ни одного трека нет в базе AccurateRip

Конец отчёта

foobar2000 1.2.9 / Dynamic Range Meter 1.1.1
log date: 2016-07-26 16:19:38

––––––––––––––––––––––––––––––––––––––––
Analyzed: Amanda Lear / Never Trust A Pretty Face
––––––––––––––––––––––––––––––––––––––––

DR Peak RMS Duration Track
––––––––––––––––––––––––––––––––––––––––
DR9 -0.13 dB -10.61 dB 5:12 01-Fashion Pack
DR9 -0.29 dB -10.61 dB 4:18 02-Forget It
DR9 -0.19 dB -10.78 dB 4:48 03-Lili Marleen
DR9 -0.17 dB -11.93 dB 4:51 04-Never Trust A Pretty Face
DR9 -0.23 dB -10.86 dB 4:28 05-The Sphynx
DR10 -0.37 dB -12.11 dB 5:10 06-Black Holes
DR10 -0.21 dB -12.00 dB 4:20 07-Intellectually
DR10 -0.27 dB -11.97 dB 2:04 08-Miroir
DR9 -0.24 dB -12.09 dB 5:15 09-Dreamer (South Pacific)
––––––––––––––––––––––––––––––––––––––––

Number of tracks: 9
Official DR value: DR9

Samplerate: 44100 Hz
Channels: 2
Bits per sample: 16
Bitrate: 927 kbps
Codec: FLAC

[CUETools log; Date: 26.07.2016 16:19:28; Version: 2.1.4]
[CTDB TOCID: Rz989uvFwwe_zC8pS6T8Ba4vnVA-] found.
Track | CTDB Status
1 | (1/1) Accurately ripped
2 | (1/1) Accurately ripped
3 | (1/1) Accurately ripped
4 | (1/1) Accurately ripped
5 | (1/1) Accurately ripped
6 | (1/1) Accurately ripped
7 | (1/1) Accurately ripped
8 | (1/1) Accurately ripped
9 | (1/1) Accurately ripped
[AccurateRip ID: 000e5de4-00686956-74097909] found.
Track [ CRC | V2 ] Status
01 [c7270ceb|5bacfcd1] (1+1/2) Accurately ripped
02 [1fb81baa|1814b4a6] (0+1/1) Accurately ripped
03 [ae8876af|974c3892] (0+1/1) Accurately ripped
04 [1e4d1b55|f6a5850c] (0+1/1) Accurately ripped
05 [09c47879|74ebc038] (1+1/2) Accurately ripped
06 [a2ee5d84|b95ee625] (1+1/2) Accurately ripped
07 [aeafee52|e8ec8d60] (1+1/2) Accurately ripped
08 [8e956913|6485eed2] (0+1/1) Accurately ripped
09 [bac616a9|c557f730] (0+1/1) Accurately ripped

Track Peak [ CRC32 ] [W/O NULL] [ LOG ]
– 98,5 [434451BC] [ECAE5C16] CRC32
01 98,5 [BECE216A] [47A19777]
02 96,6 [BCCE4EF4] [81BD6E5E]
03 97,8 [ABD4FABA] [5FBD56E6]
04 98,0 [1E9D45DD] [B17E4A45]
05 97,3 [9F6D20CD] [6ACBFC5A]
06 95,8 [6BB68A09] [F55CD8E2]
07 97,5 [72570804] [5F5C9C93]
08 96,9 [2384029C] [4B7B2F2A]
09 97,2 [8DEC4F5E] [AB14C3D8]

Amanda Lear - Never Trust A Pretty Face (1978)

All thanks go to megaboroda70

Amanda Lear in my Blog

Download Amanda Lear - Never Trust A Pretty Face (1978):