Subcategories

Amanda Lear - Heart (2001)

Posted By: v3122
Amanda Lear - Heart (2001)

Amanda Lear - Heart (2001)
EAC | Flac(Image) + Cue + Log & MP3 CBR 320Kbps
Le Marais Prod., 560008 2-7 | ~ 337 or 113 Mb | Scans Included
Europop

The album was recorded in 2001 at Barouf Studio and Studio Wolf with French producers FX Costello and Laurent Wolf, and was Lear's first album ever to be recorded entirely in France. It was also her first studio release of new material in six years, since 1995's Alter Ego. In an interview, the singer explained that the long gap resulted from her lack of enthusiasm after numerous budget compilations started to appear on the market without her consent. She also revealed that on this album she was given more artistic freedom than before, and decided to include more melodic and sentimental songs. Lear stated that Heart was the album "she has always wanted to make".

The material was an equal mixture of upbeat pop-dance tunes and downtempo compositions, including covers of "Hier Encore" by Charles Aznavour, "The Look of Love" by Burt Bacharach and "L'importante è finire", originally performed by Italian singer Mina, as well as songs based on texts by the likes of Paulo Coelho and Charles Baudelaire. For the third time in her career, Lear recorded the wartime classic "Lili Marleen", this time with updated lyrics, written by Norbert Schultze shortly before his passing. Heart showcases Lear's polyglotism and is the only album to feature her singing in all five languages: English, French, Spanish, Italian and German.

The record yielded two singles. A cover of "Love Boat", the theme song to a popular American TV series of the same title was released in June 2001. It was followed by the new dance track "I Just Wanna Dance Again", released as a single in 2002. Both singles were moderately successful and Heart proved to be Lear's best selling album since the late 1970s in both France and Germany.

The album was first released in late 2001 in a digipak, followed by a standard jewel case reissue. In the same year, the album was again re-released, this time swapping the front picture with the back cover photo. In 2002, Dance Street released Heart in Germany, with a different artwork and slightly rearranged track listing. In 2003, the album was released in Europe as Tendance, with bonus tracks and significant changes to the original track listing. 2004 saw another re-release of the album in Germany, sporting new title Love Boat and new artwork, but retaining the 2002 edition's track listing.

~ wiki
Amanda Lear - Heart (2001)


Amanda Lear - Heart (2001):

Amanda Lear - Heart (2001)

Tracklist:

1. Love Boot
2. Do U Wanna See It
3. Tendance
4. Manuel Do Guerreido Da Luz
5. Lilli Marlene
6. Hier Encore (Yesterday When I Was Young)
7. Porque Me Gusta
8. I Just Wanna Dance Again
9. Vol De Nuit
10. L'invatation Au Voyage
11. The Look Of Love
12. L'importante E Finire

Exact Audio Copy V0.99 prebeta 5 from 4. May 2009

Отчёт EAC об извлечении, выполненном 19. января 2012, 22:39

Amanda Lear / Heart

Дисковод: ASUS DRW-24B1ST Adapter: 3 ID: 0

Режим чтения : Достоверность
Использование точного потока : Да
Отключение кэша аудио : Да
Использование указателей C2 : Нет

Коррекция смещения при чтении : 6
Способность читать области Lead-in и Lead-out : Нет
Заполнение пропущенных сэмплов тишиной : Да
Удаление блоков с тишиной в начале и конце : Нет
При вычислениях CRC использовались нулевые сэмплы : Да
Интерфейс : Встроенный Win32-интерфейс для Win NT/2000

Выходной формат : Внутренние WAV-операции
Формат сэмплов : 44.100 Гц; 16 бит; стерео


TOC извлечённого CD

Трек | Старт | Длительность | Начальный сектор | Конечный сектор
––––––––––––––––––––––––––––––––––-
1 | 0:00.00 | 3:12.08 | 0 | 14407
2 | 3:12.08 | 3:51.15 | 14408 | 31747
3 | 7:03.23 | 4:15.52 | 31748 | 50924
4 | 11:19.00 | 3:46.61 | 50925 | 67935
5 | 15:05.61 | 3:48.72 | 67936 | 85107
6 | 18:54.58 | 3:54.62 | 85108 | 102719
7 | 22:49.45 | 4:00.17 | 102720 | 120736
8 | 26:49.62 | 3:48.51 | 120737 | 137887
9 | 30:38.38 | 4:19.00 | 137888 | 157312
10 | 34:57.38 | 3:58.43 | 157313 | 175205
11 | 38:56.06 | 4:02.03 | 175206 | 193358
12 | 42:58.09 | 3:19.34 | 193359 | 208317


Характеристики диапазона извлечения и сообщения об ошибках

Выбранный диапазон

Имя файла J:\TORRENTS\LOSSLESS\Amanda Lear\28. Heart (France press) (2001)\Amanda Lear - Heart.wav

Пиковый уровень 100.0 %
Качество диапазона 100.0 %
CRC теста 8E49B9B6
CRC копии 8E49B9B6
Копирование… OK

Ошибок не произошло


AccurateRip: сводка

Трек 1 точность не определена (достоверность 1) [C21A2C42], AccurateRip вернул [6616EE09]
Трек 2 точность не определена (достоверность 1) [C5FF6E3F], AccurateRip вернул [277663C1]
Трек 3 точность не определена (достоверность 1) [7450AC56], AccurateRip вернул [D32D6FBC]
Трек 4 точность не определена (достоверность 1) [F3D83AA5], AccurateRip вернул [772F5584]
Трек 5 точность не определена (достоверность 1) [5E09A451], AccurateRip вернул [01ABE96B]
Трек 6 точность не определена (достоверность 1) [EFB5DF3E], AccurateRip вернул [2689AA9D]
Трек 7 точность не определена (достоверность 1) [4533C938], AccurateRip вернул [92DC7752]
Трек 8 точность не определена (достоверность 1) [D60AEC47], AccurateRip вернул [1F5BF885]
Трек 9 точность не определена (достоверность 1) [B11376BC], AccurateRip вернул [46735DB8]
Трек 10 точность не определена (достоверность 1) [112226DB], AccurateRip вернул [28F11601]
Трек 11 точность не определена (достоверность 1) [A6854C19], AccurateRip вернул [240065FF]
Трек 12 точность не определена (достоверность 1) [AC12CEBC], AccurateRip вернул [1E4EB69E]

Ни один трек не прошёл проверки на точность
В вашей базе может быть иной вариант штамповки диска

Конец отчёта

foobar2000 1.2.9 / Dynamic Range Meter 1.1.1
log date: 2016-08-02 13:39:31

––––––––––––––––––––––––––––––––––––––––
Analyzed: Amanda Lear / Heart
––––––––––––––––––––––––––––––––––––––––

DR Peak RMS Duration Track
––––––––––––––––––––––––––––––––––––––––
DR7 0.00 dB -8.68 dB 3:12 01-01. Love Boot
DR6 0.00 dB -7.65 dB 3:51 02-02. Do U Wanna See It
DR7 0.00 dB -8.41 dB 4:16 03-03. Tendance
DR8 0.00 dB -8.84 dB 3:47 04-04. Manuel Do Guerreido Da Luz
DR7 0.00 dB -9.80 dB 3:49 05-05. Lilli Marlene
DR8 0.00 dB -9.86 dB 3:55 06-06. Hier Encore (Yesterday When I Was Young)
DR7 0.00 dB -7.74 dB 4:00 07-07. Porque Me Gusta
DR5 -1.50 dB -7.86 dB 3:49 08-08. I Just Wanna Dance Again
DR7 0.00 dB -9.60 dB 4:19 09-09. Vol De Nuit
DR8 0.00 dB -10.08 dB 3:59 10-10. L'invatation Au Voyage
DR9 0.00 dB -10.97 dB 4:02 11-11. The Look Of Love
DR9 0.00 dB -11.46 dB 3:19 12-12. L'importante E Finire
––––––––––––––––––––––––––––––––––––––––

Number of tracks: 12
Official DR value: DR7

Samplerate: 44100 Hz
Channels: 2
Bits per sample: 16
Bitrate: 975 kbps
Codec: FLAC

[CUETools log; Date: 02.08.2016 13:39:20; Version: 2.1.4]
[CTDB TOCID: 25soJSbf7.uwxNaBY.qJfa3oJjY-] disk not present in database.
[AccurateRip ID: 00148882-00c0c317-9a0ad90c] found.
Track [ CRC | V2 ] Status
01 [c21a2c42|75d72847] (0+0/1) No match
02 [c5ff6e3f|db22f0b6] (0+0/1) No match
03 [7450ac56|3660cc03] (0+0/1) No match
04 [f3d83aa5|6881e374] (0+0/1) No match
05 [5e09a451|60ad9072] (0+0/1) No match
06 [efb5df3e|b58f583c] (0+0/1) No match
07 [4533c938|d32d1499] (0+0/1) No match
08 [d60aec47|3ada11c4] (0+0/1) No match
09 [b11376bc|d20f8f51] (0+0/1) No match
10 [112226db|f2fb574b] (0+0/1) No match
11 [a6854c19|b7f3d2e0] (0+0/1) No match
12 [ac12cebc|5a693370] (0+0/1) No match
Offsetted by -63:
01 [6616ee09] (1/1) Accurately ripped
02 [277663c1] (1/1) Accurately ripped
03 [d32d6fbc] (1/1) Accurately ripped
04 [772f5584] (1/1) Accurately ripped
05 [01abe96b] (1/1) Accurately ripped
06 [2689aa9d] (1/1) Accurately ripped
07 [92dc7752] (1/1) Accurately ripped
08 [1f5bf885] (1/1) Accurately ripped
09 [46735db8] (1/1) Accurately ripped
10 [28f11601] (1/1) Accurately ripped
11 [240065ff] (1/1) Accurately ripped
12 [1e4eb69e] (1/1) Accurately ripped

Track Peak [ CRC32 ] [W/O NULL] [ LOG ]
– 100,0 [8E49B9B6] [F3D9FDB8] CRC32
01 100,0 [0037687F] [D6AC7D00]
02 100,0 [2F29D9C3] [0982F04E]
03 100,0 [A9744C85] [C13B7D51]
04 100,0 [35716923] [D93AD2C5]
05 100,0 [814CCCA8] [05DC78A0]
06 100,0 [DE6F9BEE] [2F23255C]
07 100,0 [5369E5C6] [8B1222D1]
08 84,1 [4C440083] [7D89BE20]
09 100,0 [B2EF68D9] [447DCC5F]
10 100,0 [A629B393] [AAE3C630]
11 100,0 [E353E08D] [F6A9E58E]
12 100,0 [6221E1A1] [22FE5F56]

Amanda Lear - Heart (2001)

All thanks go to megaboroda70

Amanda Lear in my Blog

Download Amanda Lear - Heart (2001):