Subcategories

Dub Syndicate - Ambience In Dub 1982​-​1985 (2017) [5CD Box Set]

Posted By: SERTiL
Dub Syndicate - Ambience In Dub 1982​-​1985 (2017) [5CD Box Set]

Dub Syndicate - Ambience In Dub 1982​-​1985 (2017) [5CD Box Set]
EAC Rip | FLAC (tracks)+cue, log, m3u, front cover | 1.32 GB
Label: On-U Sound – ONUCD137 | Tracks: 50 | Time: 224:40 min
Reggae, Dub

Starting out as a typically loose On-U collective masterminded by Adrian Sherwood, Dub Syndicate evolved over time into a long-term collaboration with the drummer Lincoln Style Scott, a key member of the Roots Radics and Creation Revel. This anthology documents their early years over five discs, featuring four bonus tracks from the original albums and an entire disc of unreleased dubs: The Pounding System (1982) , One Way System (1983), North Of The River Thames (1984) w/ Dr Pablo, Tunes From The Missing Channel (1985), Displaced Masters (9 unreleased versions). Plus 24 page booklet with sleevenotes by Steve Barker (On The Wire)

Drummer Style Scott joined Adrian Sherwood's influential On-U Sound dub label in the late '70s and played on Sherwood's influential releases as part of the New Age Steppers (with vocalist Bim Sherman, horn player Deadly Headley, melodica player Dr. Pablo, and a large guest lineup). Scott later formed his own band, Dub Syndicate, which soon became – with the possible exception of African Headcharge – On-U Sound's most popular act. Though not a group per se, Style Scott and producer Sherwood explore reggae, dub, and dancehall by collaborating with some of reggae and dub's greatest talents, including Lee "Scratch" Perry, Skip McDonald, U-Roy, and, in a bit of posthumous sampling of an old friend, Prince Far I (on 1990's Stoned Immaculate).

Debut album Pounding System (1982) and the following year's One Way System were both reissued in America by ROIR. A project with Dr. Pablo titled North of the River Thames didn't earn a domestic release, but 1985's Tunes from the Missing Channel was licensed to EMI. An import-only project with Lee "Scratch" Perry called Time Boom 'De Devil Dead followed in 1986, but 1990's Strike the Balance appeared on the Island subsidiary Mango. On-U Sound, in conjunction with the American label Restless, began an ambitious reissue effort with three volumes of the Classic Selection series (similar to African Headcharge's Great Vintage series) but continued to make new Dub Syndicate projects such as From the Secret Laboratory and Stoned Immaculate available only on import. Restless, though, did eventually give Stoned Immaculate and 1994's Echomania domestic releases.

In 1996, Dub Syndicate released both an album of new material (Ital Breakfast), and the remix album Research & Development, with reworkings of tracks from the entire Dub Syndicate catalog by Zion Train, Soundclash, Iration Steppas, and the Rootsman. Four years later, the performance album Live at the Maritime Hall was released. The next album, Acres of Space, was recorded in Jamaica and mixed by longtime collaborator Adrian Smith. Murder Tone from 2002 collected classic and unreleased tracks and was followed two years later by the new album No Bed of Roses. Pure Thrill Seekers appeared in 2005 with guest shots from Luciano, Cornell Campbell, and Gregory Isaacs. In 2006 the two-disc set The Rasta Far I was released, and two years later the Collision label released Overdubbed – actually the first disc of The Rasta Far I – featuring 17 Dub Syndicate tracks remixed by Smith & Mighty's Rob Smith. ~ John Bush

Tracklist:

Disc 1 - The Pounding System (1982)
01. Pounding Systems 05:19
02. Hi-Fi Gets A Pounding (Pts. 1 & 2) 05:29
03. “African Head Charge” Don’t Care About Space Invader Machines (Pts. 1 & 2) 06:41
04. Fringe On Top Dub 04:24
05. Humourless Journalist Works To Rules 03:55
06. 10k at 0VU - 60 Hz - Mind Boggles! 04:04
07. Crucial Tony Tries To Resuce The Space Invaders (With Only 10p) 03:22
08. Hi-Fi Gets A Pounding Pt.3 04:09
09. Return To Stage One 03:05
10. Gather At The River (Bonus Track) 04:07

Disc 2 - One Way System (1983)
11. Socca 04:46
12. Overloader 05:02
13. Drilling Equipment 05:29
14. Drainpipe Rats 02:34
15. Schemers 06:45
16. Ascendent Part 4 05:13
17. Synchroniser 04:24
18. Independence 04:24
19. Substyle 05:49
20. Displaced Master 03:54
21. Ascendent Part 6 03:36
22. Blood Shed Dub (Bonus Track) 02:53

Disc 3 - North Of The River Thames (1984) (with Doctor Pablo)
23. Man Of Mystery 05:49
24. Dr Who 05:04
25. Pressurized 03:50
26. Tribute 04:20
27. A Taste Of Honey 03:48
28. North Of The River Thames 07:23
29. Red Sea 06:01
30. We Like It Hot 03:52
31. Can't Stop Jumping 05:01
32. Pablo's African Blood 04:54

Disc 4 - Tunes From The Missing Channel (1985)
33. Ravi Shankar Part 1 03:41
34. The Show Is Coming 04:49
35. Must Be Dreaming 04:25
36. Over Board 03:40
37. Forever More 04:16
38. Geoffrey Boycott 04:32
39. Wellie 02:57
40. Jolly 04:10
41. Out And About 05:46

Disc 5 - Displaced Masters - Unreleased Versions From The Vault
42. Boggled Minds 04:17
43. Honey Version 03:59
44. Money Dealers 05:38
45. No Flash 04:47
46. Subway Style 02:12
47. Haunted Ground 04:08
48. All Other Roads Are Shut Off 04:03
49. Keep You Rocking 04:15
50. Red Sea Dub 04:41

Exact Audio Copy V1.3 from 2. September 2016

EAC extraction logfile from 8. January 2018, 21:20

Dub Syndicate / The Pounding System

Used drive : PIONEER BD-RW BDR-UD02D Adapter: 1 ID: 0

Read mode : Secure
Utilize accurate stream : Yes
Defeat audio cache : Yes
Make use of C2 pointers : No

Read offset correction : 667
Overread into Lead-In and Lead-Out : No
Fill up missing offset samples with silence : Yes
Delete leading and trailing silent blocks : No
Null samples used in CRC calculations : Yes
Used interface : Native Win32 interface for Win NT & 2000
Gap handling : Appended to previous track

Used output format : User Defined Encoder
Selected bitrate : 1024 kBit/s
Quality : High
Add ID3 tag : No
Command line compressor : C:\Program Files (x86)\Exact Audio Copy\Flac\flac.exe
Additional command line options : -8 -e -p -V -T "ARTIST=%artist%" -T "TITLE=%title%" -T "ALBUM=%albumtitle%" -T "DATE=%year%" -T "TRACKNUMBER=%tracknr%" -T "GENRE=%genre%" -T "PERFORMER=%albuminterpret%" -T "COMPOSER=%composer%" %haslyrics%–tag-from-file=LYRICS="%lyricsfile%"%haslyrics% -T "ALBUMARTIST=%albumartist%" -T "DISCNUMBER=%cdnumber%" -T "TOTALDISCS=%totalcds%" -T "TOTALTRACKS=%numtracks%" -T "COMMENT=%comment%" %source% -o %dest%


TOC of the extracted CD

Track | Start | Length | Start sector | End sector
––––––––––––––––––––––––––––-
1 | 0:00.00 | 5:17.57 | 0 | 23831
2 | 5:17.57 | 5:29.20 | 23832 | 48526
3 | 10:47.02 | 6:40.68 | 48527 | 78594
4 | 17:27.70 | 4:23.23 | 78595 | 98342
5 | 21:51.18 | 3:55.28 | 98343 | 115995
6 | 25:46.46 | 4:04.11 | 115996 | 134306
7 | 29:50.57 | 3:22.50 | 134307 | 149506
8 | 33:13.32 | 4:07.30 | 149507 | 168061
9 | 37:20.62 | 3:04.25 | 168062 | 181886
10 | 40:25.12 | 3:06.03 | 181887 | 195839


Track 1

Filename C:\Users\Ivan\Documents\torrent stuff\Dub Syndicate - Ambience In Dub 1982 - 1985 (2017) [CD FLAC] {ONUCD137}\Disc 1 - The Pounding System (1982)\1-01. Pounding System.wav

Pre-gap length 0:00:02.00

Peak level 98.0 %
Extraction speed 2.9 X
Track quality 100.0 %
Test CRC 6942758F
Copy CRC 6942758F
Accurately ripped (confidence 2) [771B34FA] (AR v2)
Copy OK

Track 2

Filename C:\Users\Ivan\Documents\torrent stuff\Dub Syndicate - Ambience In Dub 1982 - 1985 (2017) [CD FLAC] {ONUCD137}\Disc 1 - The Pounding System (1982)\1-02. Hi-Fi Gets A Pounding (Pts. 1 & 2).wav

Pre-gap length 0:00:00.44

Peak level 98.8 %
Extraction speed 3.3 X
Track quality 100.0 %
Test CRC 1816FD2C
Copy CRC 1816FD2C
Accurately ripped (confidence 2) [307B6FA1] (AR v2)
Copy OK

Track 3

Filename C:\Users\Ivan\Documents\torrent stuff\Dub Syndicate - Ambience In Dub 1982 - 1985 (2017) [CD FLAC] {ONUCD137}\Disc 1 - The Pounding System (1982)\1-03. ''African Head Charge'' Don't Care About Space Invader Machines (Pts. 1 & 2).wav

Pre-gap length 0:00:00.67

Peak level 98.6 %
Extraction speed 3.8 X
Track quality 100.0 %
Test CRC 427A8DD2
Copy CRC 427A8DD2
Accurately ripped (confidence 2) [98AA48B1] (AR v2)
Copy OK

Track 4

Filename C:\Users\Ivan\Documents\torrent stuff\Dub Syndicate - Ambience In Dub 1982 - 1985 (2017) [CD FLAC] {ONUCD137}\Disc 1 - The Pounding System (1982)\1-04. Fringe On Top Dub.wav

Pre-gap length 0:00:00.35

Peak level 98.8 %
Extraction speed 3.9 X
Track quality 100.0 %
Test CRC 60A2A085
Copy CRC 60A2A085
Accurately ripped (confidence 2) [312ED40A] (AR v2)
Copy OK

Track 5

Filename C:\Users\Ivan\Documents\torrent stuff\Dub Syndicate - Ambience In Dub 1982 - 1985 (2017) [CD FLAC] {ONUCD137}\Disc 1 - The Pounding System (1982)\1-05. Humourless Journalist Works To Rules.wav

Pre-gap length 0:00:00.47

Peak level 98.8 %
Extraction speed 3.6 X
Track quality 99.9 %
Test CRC 3AE6E975
Copy CRC 3AE6E975
Accurately ripped (confidence 2) [10B288B9] (AR v2)
Copy OK

Track 6

Filename C:\Users\Ivan\Documents\torrent stuff\Dub Syndicate - Ambience In Dub 1982 - 1985 (2017) [CD FLAC] {ONUCD137}\Disc 1 - The Pounding System (1982)\1-06. 10K At 0VU - 60 Hz - Mind Boggles!.wav

Peak level 99.5 %
Extraction speed 4.3 X
Track quality 100.0 %
Test CRC E82366D0
Copy CRC E82366D0
Accurately ripped (confidence 2) [BAC6AB1C] (AR v2)
Copy OK

Track 7

Filename C:\Users\Ivan\Documents\torrent stuff\Dub Syndicate - Ambience In Dub 1982 - 1985 (2017) [CD FLAC] {ONUCD137}\Disc 1 - The Pounding System (1982)\1-07. Crucial Tony Tries To Rescue The Space Invaders (With Only 10P).wav

Pre-gap length 0:00:00.19

Peak level 98.8 %
Extraction speed 4.2 X
Track quality 100.0 %
Test CRC 86073BCE
Copy CRC 86073BCE
Accurately ripped (confidence 2) [6A3AD279] (AR v2)
Copy OK

Track 8

Filename C:\Users\Ivan\Documents\torrent stuff\Dub Syndicate - Ambience In Dub 1982 - 1985 (2017) [CD FLAC] {ONUCD137}\Disc 1 - The Pounding System (1982)\1-08. Hi-Fi Gets A Pounding Pt. 3.wav

Pre-gap length 0:00:00.02

Peak level 99.7 %
Extraction speed 4.5 X
Track quality 100.0 %
Test CRC F640C226
Copy CRC F640C226
Accurately ripped (confidence 2) [F8F69B3D] (AR v2)
Copy OK

Track 9

Filename C:\Users\Ivan\Documents\torrent stuff\Dub Syndicate - Ambience In Dub 1982 - 1985 (2017) [CD FLAC] {ONUCD137}\Disc 1 - The Pounding System (1982)\1-09. Return To Stage One.wav

Pre-gap length 0:00:00.40

Peak level 99.0 %
Extraction speed 4.4 X
Track quality 100.0 %
Test CRC D935C9A9
Copy CRC D935C9A9
Accurately ripped (confidence 2) [449D0DEC] (AR v2)
Copy OK

Track 10

Filename C:\Users\Ivan\Documents\torrent stuff\Dub Syndicate - Ambience In Dub 1982 - 1985 (2017) [CD FLAC] {ONUCD137}\Disc 1 - The Pounding System (1982)\1-10. Gather At The River (Bonus Track).wav

Pre-gap length 0:00:01.13

Peak level 99.0 %
Extraction speed 4.6 X
Track quality 100.0 %
Test CRC 04F8B820
Copy CRC 04F8B820
Accurately ripped (confidence 2) [81C60C02] (AR v2)
Copy OK


All tracks accurately ripped

No errors occurred

End of status report

–– CUETools DB Plugin V2.1.6

[CTDB TOCID: KMeQzUiDw4dWvMXXdd.QhWr5ub4-] found
Submit result: KMeQzUiDw4dWvMXXdd.QhWr5ub4- has been confirmed
Track | CTDB Status
1 | (6/6) Accurately ripped
2 | (6/6) Accurately ripped
3 | (6/6) Accurately ripped
4 | (6/6) Accurately ripped
5 | (6/6) Accurately ripped
6 | (6/6) Accurately ripped
7 | (6/6) Accurately ripped
8 | (6/6) Accurately ripped
9 | (6/6) Accurately ripped
10 | (6/6) Accurately ripped


==== Log checksum EB0164BEDAD16D54AA8BBA6A878DE8C3B3B53619425B85B2DD398A457A861924 ====

Exact Audio Copy V1.3 from 2. September 2016

EAC extraction logfile from 8. January 2018, 21:51

Dub Syndicate / One Way System

Used drive : PIONEER BD-RW BDR-UD02D Adapter: 1 ID: 0

Read mode : Secure
Utilize accurate stream : Yes
Defeat audio cache : Yes
Make use of C2 pointers : No

Read offset correction : 667
Overread into Lead-In and Lead-Out : No
Fill up missing offset samples with silence : Yes
Delete leading and trailing silent blocks : No
Null samples used in CRC calculations : Yes
Used interface : Native Win32 interface for Win NT & 2000
Gap handling : Appended to previous track

Used output format : User Defined Encoder
Selected bitrate : 1024 kBit/s
Quality : High
Add ID3 tag : No
Command line compressor : C:\Program Files (x86)\Exact Audio Copy\Flac\flac.exe
Additional command line options : -8 -e -p -V -T "ARTIST=%artist%" -T "TITLE=%title%" -T "ALBUM=%albumtitle%" -T "DATE=%year%" -T "TRACKNUMBER=%tracknr%" -T "GENRE=%genre%" -T "PERFORMER=%albuminterpret%" -T "COMPOSER=%composer%" %haslyrics%–tag-from-file=LYRICS="%lyricsfile%"%haslyrics% -T "ALBUMARTIST=%albumartist%" -T "DISCNUMBER=%cdnumber%" -T "TOTALDISCS=%totalcds%" -T "TOTALTRACKS=%numtracks%" -T "COMMENT=%comment%" %source% -o %dest%


TOC of the extracted CD

Track | Start | Length | Start sector | End sector
––––––––––––––––––––––––––––-
1 | 0:00.00 | 4:46.20 | 0 | 21469
2 | 4:46.20 | 5:03.03 | 21470 | 44197
3 | 9:49.23 | 5:29.28 | 44198 | 68900
4 | 15:18.51 | 2:34.25 | 68901 | 80475
5 | 17:53.01 | 6:40.44 | 80476 | 110519
6 | 24:33.45 | 5:12.67 | 110520 | 133986
7 | 29:46.37 | 4:25.20 | 133987 | 153881
8 | 34:11.57 | 4:24.23 | 153882 | 173704
9 | 38:36.05 | 5:50.05 | 173705 | 199959
10 | 44:26.10 | 3:55.03 | 199960 | 217587
11 | 48:21.13 | 3:36.18 | 217588 | 233805
12 | 51:57.31 | 2:54.40 | 233806 | 246895


Track 1

Filename C:\Users\Ivan\Documents\torrent stuff\Dub Syndicate - Ambience In Dub 1982 - 1985 (2017) [CD FLAC] {ONUCD137}\Disc 2 - One Way System (1983)\1-01. Socca.wav

Pre-gap length 0:00:02.00

Peak level 100.0 %
Extraction speed 2.5 X
Track quality 99.9 %
Test CRC 7C640AAB
Copy CRC 7C640AAB
Accurately ripped (confidence 2) [20298B64] (AR v2)
Copy OK

Track 2

Filename C:\Users\Ivan\Documents\torrent stuff\Dub Syndicate - Ambience In Dub 1982 - 1985 (2017) [CD FLAC] {ONUCD137}\Disc 2 - One Way System (1983)\1-02. Overloader.wav

Pre-gap length 0:00:00.37

Peak level 100.0 %
Extraction speed 3.3 X
Track quality 100.0 %
Test CRC 4AB8AD66
Copy CRC 4AB8AD66
Accurately ripped (confidence 2) [D78E0C3E] (AR v2)
Copy OK

Track 3

Filename C:\Users\Ivan\Documents\torrent stuff\Dub Syndicate - Ambience In Dub 1982 - 1985 (2017) [CD FLAC] {ONUCD137}\Disc 2 - One Way System (1983)\1-03. Drilling Equipment.wav

Pre-gap length 0:00:00.04

Peak level 100.0 %
Extraction speed 3.6 X
Track quality 100.0 %
Test CRC A0687703
Copy CRC A0687703
Accurately ripped (confidence 2) [2421628E] (AR v2)
Copy OK

Track 4

Filename C:\Users\Ivan\Documents\torrent stuff\Dub Syndicate - Ambience In Dub 1982 - 1985 (2017) [CD FLAC] {ONUCD137}\Disc 2 - One Way System (1983)\1-04. Drainpipe Rats.wav

Pre-gap length 0:00:00.10

Peak level 100.0 %
Extraction speed 2.9 X
Track quality 99.9 %
Test CRC 18B35B88
Copy CRC 18B35B88
Accurately ripped (confidence 2) [9B3A02D4] (AR v2)
Copy OK

Track 5

Filename C:\Users\Ivan\Documents\torrent stuff\Dub Syndicate - Ambience In Dub 1982 - 1985 (2017) [CD FLAC] {ONUCD137}\Disc 2 - One Way System (1983)\1-05. Schemers.wav

Pre-gap length 0:00:00.16

Peak level 100.0 %
Extraction speed 4.2 X
Track quality 100.0 %
Test CRC A7F2213A
Copy CRC A7F2213A
Accurately ripped (confidence 2) [85F2E5D4] (AR v2)
Copy OK

Track 6

Filename C:\Users\Ivan\Documents\torrent stuff\Dub Syndicate - Ambience In Dub 1982 - 1985 (2017) [CD FLAC] {ONUCD137}\Disc 2 - One Way System (1983)\1-06. Ascendant Part 4.wav

Pre-gap length 0:00:01.00

Peak level 100.0 %
Extraction speed 4.3 X
Track quality 100.0 %
Test CRC CA554FFD
Copy CRC CA554FFD
Accurately ripped (confidence 2) [BFBA6D96] (AR v2)
Copy OK

Track 7

Filename C:\Users\Ivan\Documents\torrent stuff\Dub Syndicate - Ambience In Dub 1982 - 1985 (2017) [CD FLAC] {ONUCD137}\Disc 2 - One Way System (1983)\1-07. Synchronizer.wav

Pre-gap length 0:00:00.08

Peak level 100.0 %
Extraction speed 4.0 X
Track quality 99.9 %
Test CRC 913D55F4
Copy CRC 913D55F4
Accurately ripped (confidence 2) [DDB446EB] (AR v2)
Copy OK

Track 8

Filename C:\Users\Ivan\Documents\torrent stuff\Dub Syndicate - Ambience In Dub 1982 - 1985 (2017) [CD FLAC] {ONUCD137}\Disc 2 - One Way System (1983)\1-08. Independence.wav

Pre-gap length 0:00:00.25

Peak level 100.0 %
Extraction speed 4.6 X
Track quality 100.0 %
Test CRC C73897C5
Copy CRC C73897C5
Accurately ripped (confidence 2) [F45DA60D] (AR v2)
Copy OK

Track 9

Filename C:\Users\Ivan\Documents\torrent stuff\Dub Syndicate - Ambience In Dub 1982 - 1985 (2017) [CD FLAC] {ONUCD137}\Disc 2 - One Way System (1983)\1-09. Substyle.wav

Pre-gap length 0:00:00.25

Peak level 100.0 %
Extraction speed 5.0 X
Track quality 100.0 %
Test CRC 2B63628C
Copy CRC 2B63628C
Accurately ripped (confidence 2) [93434F2F] (AR v2)
Copy OK

Track 10

Filename C:\Users\Ivan\Documents\torrent stuff\Dub Syndicate - Ambience In Dub 1982 - 1985 (2017) [CD FLAC] {ONUCD137}\Disc 2 - One Way System (1983)\1-10. Displaced Master.wav

Pre-gap length 0:00:00.49

Peak level 100.0 %
Extraction speed 4.3 X
Track quality 99.9 %
Test CRC 3CBAA731
Copy CRC 3CBAA731
Accurately ripped (confidence 2) [4FCC334B] (AR v2)
Copy OK

Track 11

Filename C:\Users\Ivan\Documents\torrent stuff\Dub Syndicate - Ambience In Dub 1982 - 1985 (2017) [CD FLAC] {ONUCD137}\Disc 2 - One Way System (1983)\1-11. Ascendant Part 6.wav

Pre-gap length 0:00:01.10

Peak level 100.0 %
Extraction speed 5.0 X
Track quality 100.0 %
Test CRC 57B9E378
Copy CRC 57B9E378
Accurately ripped (confidence 2) [9256B248] (AR v2)
Copy OK

Track 12

Filename C:\Users\Ivan\Documents\torrent stuff\Dub Syndicate - Ambience In Dub 1982 - 1985 (2017) [CD FLAC] {ONUCD137}\Disc 2 - One Way System (1983)\1-12. Blood Shed Dub (Bonus Track).wav

Pre-gap length 0:00:01.10

Peak level 97.4 %
Extraction speed 4.9 X
Track quality 100.0 %
Test CRC 5B6BE40F
Copy CRC 5B6BE40F
Accurately ripped (confidence 2) [03FA2961] (AR v2)
Copy OK


All tracks accurately ripped

No errors occurred

End of status report

–– CUETools DB Plugin V2.1.6

[CTDB TOCID: tUVmf3JQjwZ44FXGV0piIf3RdmA-] found
Submit result: tUVmf3JQjwZ44FXGV0piIf3RdmA- has been confirmed
Track | CTDB Status
1 | (6/6) Accurately ripped
2 | (6/6) Accurately ripped
3 | (6/6) Accurately ripped
4 | (6/6) Accurately ripped
5 | (6/6) Accurately ripped
6 | (6/6) Accurately ripped
7 | (6/6) Accurately ripped
8 | (6/6) Accurately ripped
9 | (6/6) Accurately ripped
10 | (6/6) Accurately ripped
11 | (6/6) Accurately ripped
12 | (6/6) Accurately ripped


==== Log checksum 1C13C53670C7CCC590DC0F1AEC83A25771FB7004F4478E76C557DEBE20684B2B ====

Exact Audio Copy V1.3 from 2. September 2016

EAC extraction logfile from 8. January 2018, 23:10

Doctor Pablo & The Dub Syndicate / North Of The River Thames

Used drive : PIONEER BD-RW BDR-UD02D Adapter: 1 ID: 0

Read mode : Secure
Utilize accurate stream : Yes
Defeat audio cache : Yes
Make use of C2 pointers : No

Read offset correction : 667
Overread into Lead-In and Lead-Out : No
Fill up missing offset samples with silence : Yes
Delete leading and trailing silent blocks : No
Null samples used in CRC calculations : Yes
Used interface : Native Win32 interface for Win NT & 2000
Gap handling : Appended to previous track

Used output format : User Defined Encoder
Selected bitrate : 1024 kBit/s
Quality : High
Add ID3 tag : No
Command line compressor : C:\Program Files (x86)\Exact Audio Copy\Flac\flac.exe
Additional command line options : -8 -e -p -V -T "ARTIST=%artist%" -T "TITLE=%title%" -T "ALBUM=%albumtitle%" -T "DATE=%year%" -T "TRACKNUMBER=%tracknr%" -T "GENRE=%genre%" -T "PERFORMER=%albuminterpret%" -T "COMPOSER=%composer%" %haslyrics%–tag-from-file=LYRICS="%lyricsfile%"%haslyrics% -T "ALBUMARTIST=%albumartist%" -T "DISCNUMBER=%cdnumber%" -T "TOTALDISCS=%totalcds%" -T "TOTALTRACKS=%numtracks%" -T "COMMENT=%comment%" %source% -o %dest%


TOC of the extracted CD

Track | Start | Length | Start sector | End sector
––––––––––––––––––––––––––––-
1 | 0:00.00 | 5:50.39 | 0 | 26288
2 | 5:50.39 | 5:03.20 | 26289 | 49033
3 | 10:53.59 | 3:50.51 | 49034 | 66334
4 | 14:44.35 | 4:20.30 | 66335 | 85864
5 | 19:04.65 | 3:48.28 | 85865 | 102992
6 | 22:53.18 | 7:23.40 | 102993 | 136257
7 | 30:16.58 | 6:01.67 | 136258 | 163399
8 | 36:18.50 | 3:51.09 | 163400 | 180733
9 | 40:09.59 | 5:00.37 | 180734 | 203270
10 | 45:10.21 | 4:54.74 | 203271 | 225394


Track 1

Filename C:\Users\Ivan\Documents\torrent stuff\Dub Syndicate - Ambience In Dub 1982 - 1985 (2017) [CD FLAC] {ONUCD137}\Disc 3 - North Of The River Thames (1984) (with Doctor Pablo)\1-01. Man Of Mystery.wav

Pre-gap length 0:00:02.00

Peak level 98.8 %
Extraction speed 1.1 X
Track quality 100.0 %
Test CRC 8FFB0D36
Copy CRC 8FFB0D36
Accurately ripped (confidence 2) [EE149736] (AR v2)
Copy OK

Track 2

Filename C:\Users\Ivan\Documents\torrent stuff\Dub Syndicate - Ambience In Dub 1982 - 1985 (2017) [CD FLAC] {ONUCD137}\Disc 3 - North Of The River Thames (1984) (with Doctor Pablo)\1-02. Dr Who.wav

Pre-gap length 0:00:00.55

Peak level 98.7 %
Extraction speed 1.2 X
Track quality 100.0 %
Test CRC 6D32F355
Copy CRC 6D32F355
Accurately ripped (confidence 2) [47B416BA] (AR v2)
Copy OK

Track 3

Filename C:\Users\Ivan\Documents\torrent stuff\Dub Syndicate - Ambience In Dub 1982 - 1985 (2017) [CD FLAC] {ONUCD137}\Disc 3 - North Of The River Thames (1984) (with Doctor Pablo)\1-03. Pressurized.wav

Pre-gap length 0:00:00.58

Peak level 98.4 %
Extraction speed 1.3 X
Track quality 100.0 %
Test CRC A9D1BBC2
Copy CRC A9D1BBC2
Accurately ripped (confidence 2) [A6AB3CC9] (AR v2)
Copy OK

Track 4

Filename C:\Users\Ivan\Documents\torrent stuff\Dub Syndicate - Ambience In Dub 1982 - 1985 (2017) [CD FLAC] {ONUCD137}\Disc 3 - North Of The River Thames (1984) (with Doctor Pablo)\1-04. Tribute.wav

Pre-gap length 0:00:00.01

Peak level 98.4 %
Extraction speed 1.4 X
Track quality 100.0 %
Test CRC DB676B02
Copy CRC DB676B02
Accurately ripped (confidence 2) [25F7AE35] (AR v2)
Copy OK

Track 5

Filename C:\Users\Ivan\Documents\torrent stuff\Dub Syndicate - Ambience In Dub 1982 - 1985 (2017) [CD FLAC] {ONUCD137}\Disc 3 - North Of The River Thames (1984) (with Doctor Pablo)\1-05. A Taste Of Honey.wav

Pre-gap length 0:00:00.51

Peak level 98.7 %
Extraction speed 1.3 X
Track quality 99.9 %
Test CRC 07352E7A
Copy CRC 07352E7A
Accurately ripped (confidence 2) [25B9F994] (AR v2)
Copy OK

Track 6

Filename C:\Users\Ivan\Documents\torrent stuff\Dub Syndicate - Ambience In Dub 1982 - 1985 (2017) [CD FLAC] {ONUCD137}\Disc 3 - North Of The River Thames (1984) (with Doctor Pablo)\1-06. North Of The River Thames.wav

Peak level 98.8 %
Extraction speed 1.6 X
Track quality 99.9 %
Test CRC DC52EA71
Copy CRC DC52EA71
Accurately ripped (confidence 2) [613D450E] (AR v2)
Copy OK

Track 7

Filename C:\Users\Ivan\Documents\torrent stuff\Dub Syndicate - Ambience In Dub 1982 - 1985 (2017) [CD FLAC] {ONUCD137}\Disc 3 - North Of The River Thames (1984) (with Doctor Pablo)\1-07. Red Sea.wav

Pre-gap length 0:00:00.29

Peak level 98.6 %
Extraction speed 1.6 X
Track quality 99.9 %
Test CRC FB630365
Copy CRC FB630365
Accurately ripped (confidence 2) [3FF24966] (AR v2)
Copy OK

Track 8

Filename C:\Users\Ivan\Documents\torrent stuff\Dub Syndicate - Ambience In Dub 1982 - 1985 (2017) [CD FLAC] {ONUCD137}\Disc 3 - North Of The River Thames (1984) (with Doctor Pablo)\1-08. We Like It Hot.wav

Pre-gap length 0:00:00.02

Peak level 98.4 %
Extraction speed 1.8 X
Track quality 100.0 %
Test CRC ACF9C7A9
Copy CRC ACF9C7A9
Accurately ripped (confidence 2) [0F647DE3] (AR v2)
Copy OK

Track 9

Filename C:\Users\Ivan\Documents\torrent stuff\Dub Syndicate - Ambience In Dub 1982 - 1985 (2017) [CD FLAC] {ONUCD137}\Disc 3 - North Of The River Thames (1984) (with Doctor Pablo)\1-09. Can't Stop Jumping (Bonus Track).wav

Pre-gap length 0:00:00.12

Peak level 98.8 %
Extraction speed 1.9 X
Track quality 100.0 %
Test CRC F4C17EC0
Copy CRC F4C17EC0
Accurately ripped (confidence 2) [2E66DD20] (AR v2)
Copy OK

Track 10

Filename C:\Users\Ivan\Documents\torrent stuff\Dub Syndicate - Ambience In Dub 1982 - 1985 (2017) [CD FLAC] {ONUCD137}\Disc 3 - North Of The River Thames (1984) (with Doctor Pablo)\1-10. Pablo's African Blood (Bonus Track).wav

Pre-gap length 0:00:00.29

Peak level 98.8 %
Extraction speed 2.0 X
Track quality 100.0 %
Test CRC 672EC95B
Copy CRC 672EC95B
Accurately ripped (confidence 2) [5EED7B1D] (AR v2)
Copy OK


All tracks accurately ripped

No errors occurred

End of status report

–– CUETools DB Plugin V2.1.6

[CTDB TOCID: lgQ351s.YTA_18b6yplE.OYo210-] found
Submit result: lgQ351s.YTA_18b6yplE.OYo210- has been confirmed
Track | CTDB Status
1 | (6/6) Accurately ripped
2 | (6/6) Accurately ripped
3 | (6/6) Accurately ripped
4 | (6/6) Accurately ripped
5 | (6/6) Accurately ripped
6 | (6/6) Accurately ripped
7 | (6/6) Accurately ripped
8 | (6/6) Accurately ripped
9 | (6/6) Accurately ripped
10 | (6/6) Accurately ripped


==== Log checksum 46ACBD98AB2E075130D141A80C060B7EB1A38893847FE3C757ABCA987BDBD6D4 ====

Exact Audio Copy V1.3 from 2. September 2016

EAC extraction logfile from 9. January 2018, 11:22

Dub Syndicate / Tunes From the Missing Channel

Used drive : PIONEER BD-RW BDR-UD02D Adapter: 1 ID: 0

Read mode : Secure
Utilize accurate stream : Yes
Defeat audio cache : Yes
Make use of C2 pointers : No

Read offset correction : 667
Overread into Lead-In and Lead-Out : No
Fill up missing offset samples with silence : Yes
Delete leading and trailing silent blocks : No
Null samples used in CRC calculations : Yes
Used interface : Native Win32 interface for Win NT & 2000
Gap handling : Appended to previous track

Used output format : User Defined Encoder
Selected bitrate : 1024 kBit/s
Quality : High
Add ID3 tag : No
Command line compressor : C:\Program Files (x86)\Exact Audio Copy\Flac\flac.exe
Additional command line options : -8 -e -p -V -T "ARTIST=%artist%" -T "TITLE=%title%" -T "ALBUM=%albumtitle%" -T "DATE=%year%" -T "TRACKNUMBER=%tracknr%" -T "GENRE=%genre%" -T "PERFORMER=%albuminterpret%" -T "COMPOSER=%composer%" %haslyrics%–tag-from-file=LYRICS="%lyricsfile%"%haslyrics% -T "ALBUMARTIST=%albumartist%" -T "DISCNUMBER=%cdnumber%" -T "TOTALDISCS=%totalcds%" -T "TOTALTRACKS=%numtracks%" -T "COMMENT=%comment%" %source% -o %dest%


TOC of the extracted CD

Track | Start | Length | Start sector | End sector
––––––––––––––––––––––––––––-
1 | 0:00.00 | 3:41.14 | 0 | 16588
2 | 3:41.14 | 4:49.54 | 16589 | 38317
3 | 8:30.68 | 4:25.46 | 38318 | 58238
4 | 12:56.39 | 3:40.68 | 58239 | 74806
5 | 16:37.32 | 4:16.16 | 74807 | 94022
6 | 20:53.48 | 4:32.51 | 94023 | 114473
7 | 25:26.24 | 2:57.33 | 114474 | 127781
8 | 28:23.57 | 4:10.34 | 127782 | 146565
9 | 32:34.16 | 5:47.55 | 146566 | 172645


Track 1

Filename C:\Users\Ivan\Documents\torrent stuff\Dub Syndicate - Ambience In Dub 1982 - 1985 (2017) [CD FLAC] {ONUCD137}\Disc 4 - Tunes From The Missing Channel (1985)\1-01. Ravi Shankar Pt. 1.wav

Pre-gap length 0:00:02.00

Peak level 96.7 %
Extraction speed 2.7 X
Track quality 100.0 %
Test CRC FD308E4C
Copy CRC FD308E4C
Accurately ripped (confidence 2) [05D178A8] (AR v2)
Copy OK

Track 2

Filename C:\Users\Ivan\Documents\torrent stuff\Dub Syndicate - Ambience In Dub 1982 - 1985 (2017) [CD FLAC] {ONUCD137}\Disc 4 - Tunes From The Missing Channel (1985)\1-02. The Show Is Coming.wav

Peak level 93.0 %
Extraction speed 3.1 X
Track quality 100.0 %
Test CRC 2FB9104C
Copy CRC 2FB9104C
Accurately ripped (confidence 2) [C39A0296] (AR v2)
Copy OK

Track 3

Filename C:\Users\Ivan\Documents\torrent stuff\Dub Syndicate - Ambience In Dub 1982 - 1985 (2017) [CD FLAC] {ONUCD137}\Disc 4 - Tunes From The Missing Channel (1985)\1-03. Must Be Dreaming.wav

Peak level 83.3 %
Extraction speed 3.1 X
Track quality 99.9 %
Test CRC 760CC3AA
Copy CRC 760CC3AA
Accurately ripped (confidence 2) [B963E38B] (AR v2)
Copy OK

Track 4

Filename C:\Users\Ivan\Documents\torrent stuff\Dub Syndicate - Ambience In Dub 1982 - 1985 (2017) [CD FLAC] {ONUCD137}\Disc 4 - Tunes From The Missing Channel (1985)\1-04. Over Board.wav

Peak level 80.0 %
Extraction speed 3.6 X
Track quality 100.0 %
Test CRC 5188A011
Copy CRC 5188A011
Accurately ripped (confidence 2) [0D43EB3D] (AR v2)
Copy OK

Track 5

Filename C:\Users\Ivan\Documents\torrent stuff\Dub Syndicate - Ambience In Dub 1982 - 1985 (2017) [CD FLAC] {ONUCD137}\Disc 4 - Tunes From The Missing Channel (1985)\1-05. Forever More.wav

Pre-gap length 0:00:00.03

Peak level 81.7 %
Extraction speed 3.8 X
Track quality 100.0 %
Test CRC 573933E7
Copy CRC 573933E7
Accurately ripped (confidence 2) [9DC2FE50] (AR v2)
Copy OK

Track 6

Filename C:\Users\Ivan\Documents\torrent stuff\Dub Syndicate - Ambience In Dub 1982 - 1985 (2017) [CD FLAC] {ONUCD137}\Disc 4 - Tunes From The Missing Channel (1985)\1-06. Geoffrey Boycott.wav

Pre-gap length 0:00:00.04

Peak level 96.7 %
Extraction speed 4.1 X
Track quality 100.0 %
Test CRC 65CCAF4A
Copy CRC 65CCAF4A
Accurately ripped (confidence 2) [A0212884] (AR v2)
Copy OK

Track 7

Filename C:\Users\Ivan\Documents\torrent stuff\Dub Syndicate - Ambience In Dub 1982 - 1985 (2017) [CD FLAC] {ONUCD137}\Disc 4 - Tunes From The Missing Channel (1985)\1-07. Wellie.wav

Pre-gap length 0:00:00.04

Peak level 96.8 %
Extraction speed 4.0 X
Track quality 100.0 %
Test CRC 7D525C09
Copy CRC 7D525C09
Accurately ripped (confidence 2) [EEF3D1A3] (AR v2)
Copy OK

Track 8

Filename C:\Users\Ivan\Documents\torrent stuff\Dub Syndicate - Ambience In Dub 1982 - 1985 (2017) [CD FLAC] {ONUCD137}\Disc 4 - Tunes From The Missing Channel (1985)\1-08. Jolly.wav

Pre-gap length 0:00:00.03

Peak level 97.9 %
Extraction speed 4.3 X
Track quality 100.0 %
Test CRC 8CB2B8D9
Copy CRC 8CB2B8D9
Accurately ripped (confidence 2) [2FE29F98] (AR v2)
Copy OK

Track 9

Filename C:\Users\Ivan\Documents\torrent stuff\Dub Syndicate - Ambience In Dub 1982 - 1985 (2017) [CD FLAC] {ONUCD137}\Disc 4 - Tunes From The Missing Channel (1985)\1-09. Out And About.wav

Pre-gap length 0:00:00.02

Peak level 90.9 %
Extraction speed 4.7 X
Track quality 100.0 %
Test CRC C24A44F7
Copy CRC C24A44F7
Accurately ripped (confidence 2) [BAE45111] (AR v2)
Copy OK


All tracks accurately ripped

No errors occurred

End of status report

–– CUETools DB Plugin V2.1.6

[CTDB TOCID: qHEY8yCN8R0URLrXxYAm50XlOVg-] found
Submit result: qHEY8yCN8R0URLrXxYAm50XlOVg- has been confirmed
Track | CTDB Status
1 | (6/6) Accurately ripped
2 | (6/6) Accurately ripped
3 | (6/6) Accurately ripped
4 | (6/6) Accurately ripped
5 | (6/6) Accurately ripped
6 | (6/6) Accurately ripped
7 | (6/6) Accurately ripped
8 | (6/6) Accurately ripped
9 | (6/6) Accurately ripped


==== Log checksum 3B9F4EB5FAF4C908656D5BF4AFC65113743844D772795E3147CAC3952EC4C63C ====

Exact Audio Copy V1.3 from 2. September 2016

EAC extraction logfile from 9. January 2018, 12:03

Dub Syndicate / Displaced Masters

Used drive : PIONEER BD-RW BDR-UD02D Adapter: 1 ID: 0

Read mode : Secure
Utilize accurate stream : Yes
Defeat audio cache : Yes
Make use of C2 pointers : No

Read offset correction : 667
Overread into Lead-In and Lead-Out : No
Fill up missing offset samples with silence : Yes
Delete leading and trailing silent blocks : No
Null samples used in CRC calculations : Yes
Used interface : Native Win32 interface for Win NT & 2000
Gap handling : Appended to previous track

Used output format : User Defined Encoder
Selected bitrate : 1024 kBit/s
Quality : High
Add ID3 tag : No
Command line compressor : C:\Program Files (x86)\Exact Audio Copy\Flac\flac.exe
Additional command line options : -8 -e -p -V -T "ARTIST=%artist%" -T "TITLE=%title%" -T "ALBUM=%albumtitle%" -T "DATE=%year%" -T "TRACKNUMBER=%tracknr%" -T "GENRE=%genre%" -T "PERFORMER=%albuminterpret%" -T "COMPOSER=%composer%" %haslyrics%–tag-from-file=LYRICS="%lyricsfile%"%haslyrics% -T "ALBUMARTIST=%albumartist%" -T "DISCNUMBER=%cdnumber%" -T "TOTALDISCS=%totalcds%" -T "TOTALTRACKS=%numtracks%" -T "COMMENT=%comment%" %source% -o %dest%


TOC of the extracted CD

Track | Start | Length | Start sector | End sector
––––––––––––––––––––––––––––-
1 | 0:00.00 | 4:18.04 | 0 | 19353
2 | 4:18.04 | 4:00.21 | 19354 | 37374
3 | 8:18.25 | 5:39.62 | 37375 | 62861
4 | 13:58.12 | 4:48.31 | 62862 | 84492
5 | 18:46.43 | 2:14.23 | 84493 | 94565
6 | 21:00.66 | 4:07.27 | 94566 | 113117
7 | 25:08.18 | 4:04.70 | 113118 | 131487
8 | 29:13.13 | 4:16.46 | 131488 | 150733
9 | 33:29.59 | 4:42.41 | 150734 | 171924


Track 1

Filename C:\Users\Ivan\Documents\torrent stuff\Dub Syndicate - Ambience In Dub 1982 - 1985 (2017) [CD FLAC] {ONUCD137}\Disc 5 - Displaced Masters - Unreleased Versions From The Vault\1-01. Boggled Minds.wav

Pre-gap length 0:00:02.00

Peak level 97.7 %
Extraction speed 2.5 X
Track quality 99.9 %
Test CRC 2D0B01F0
Copy CRC 2D0B01F0
Accurately ripped (confidence 3) [4C2E18BF] (AR v2)
Copy OK

Track 2

Filename C:\Users\Ivan\Documents\torrent stuff\Dub Syndicate - Ambience In Dub 1982 - 1985 (2017) [CD FLAC] {ONUCD137}\Disc 5 - Displaced Masters - Unreleased Versions From The Vault\1-02. Honey Version.wav

Pre-gap length 0:00:00.30

Peak level 97.7 %
Extraction speed 3.1 X
Track quality 100.0 %
Test CRC 3D77A52C
Copy CRC 3D77A52C
Accurately ripped (confidence 3) [109A0E35] (AR v2)
Copy OK

Track 3

Filename C:\Users\Ivan\Documents\torrent stuff\Dub Syndicate - Ambience In Dub 1982 - 1985 (2017) [CD FLAC] {ONUCD137}\Disc 5 - Displaced Masters - Unreleased Versions From The Vault\1-03. Money Dealers.wav

Pre-gap length 0:00:00.68

Peak level 97.7 %
Extraction speed 3.5 X
Track quality 100.0 %
Test CRC 3B573D77
Copy CRC 3B573D77
Accurately ripped (confidence 3) [07EDC737] (AR v2)
Copy OK

Track 4

Filename C:\Users\Ivan\Documents\torrent stuff\Dub Syndicate - Ambience In Dub 1982 - 1985 (2017) [CD FLAC] {ONUCD137}\Disc 5 - Displaced Masters - Unreleased Versions From The Vault\1-04. No Flash.wav

Pre-gap length 0:00:00.56

Peak level 97.7 %
Extraction speed 3.8 X
Track quality 100.0 %
Test CRC CBE277DD
Copy CRC CBE277DD
Accurately ripped (confidence 3) [D2D77DCE] (AR v2)
Copy OK

Track 5

Filename C:\Users\Ivan\Documents\torrent stuff\Dub Syndicate - Ambience In Dub 1982 - 1985 (2017) [CD FLAC] {ONUCD137}\Disc 5 - Displaced Masters - Unreleased Versions From The Vault\1-05. Subway Style.wav

Pre-gap length 0:00:01.06

Peak level 97.7 %
Extraction speed 3.5 X
Track quality 100.0 %
Test CRC 187E2536
Copy CRC 187E2536
Accurately ripped (confidence 3) [401F3F77] (AR v2)
Copy OK

Track 6

Filename C:\Users\Ivan\Documents\torrent stuff\Dub Syndicate - Ambience In Dub 1982 - 1985 (2017) [CD FLAC] {ONUCD137}\Disc 5 - Displaced Masters - Unreleased Versions From The Vault\1-06. Haunted Ground.wav

Pre-gap length 0:00:01.11

Peak level 97.7 %
Extraction speed 4.0 X
Track quality 100.0 %
Test CRC 99A60828
Copy CRC 99A60828
Accurately ripped (confidence 3) [702D2B4A] (AR v2)
Copy OK

Track 7

Filename C:\Users\Ivan\Documents\torrent stuff\Dub Syndicate - Ambience In Dub 1982 - 1985 (2017) [CD FLAC] {ONUCD137}\Disc 5 - Displaced Masters - Unreleased Versions From The Vault\1-07. All Other Roads Are Shut Off.wav

Pre-gap length 0:00:00.28

Peak level 97.7 %
Extraction speed 4.2 X
Track quality 100.0 %
Test CRC A1FD3FE3
Copy CRC A1FD3FE3
Accurately ripped (confidence 3) [199C576C] (AR v2)
Copy OK

Track 8

Filename C:\Users\Ivan\Documents\torrent stuff\Dub Syndicate - Ambience In Dub 1982 - 1985 (2017) [CD FLAC] {ONUCD137}\Disc 5 - Displaced Masters - Unreleased Versions From The Vault\1-08. Keep You Rocking.wav

Pre-gap length 0:00:01.11

Peak level 97.7 %
Extraction speed 3.9 X
Track quality 99.9 %
Test CRC 435B491C
Copy CRC 435B491C
Accurately ripped (confidence 3) [907998B7] (AR v2)
Copy OK

Track 9

Filename C:\Users\Ivan\Documents\torrent stuff\Dub Syndicate - Ambience In Dub 1982 - 1985 (2017) [CD FLAC] {ONUCD137}\Disc 5 - Displaced Masters - Unreleased Versions From The Vault\1-09. Red Sea Dub.wav

Pre-gap length 0:00:00.31

Peak level 97.7 %
Extraction speed 4.1 X
Track quality 99.9 %
Test CRC ABBEC7A7
Copy CRC ABBEC7A7
Accurately ripped (confidence 3) [740851E1] (AR v2)
Copy OK


All tracks accurately ripped

No errors occurred

End of status report

–– CUETools DB Plugin V2.1.6

[CTDB TOCID: vqfk1RMai1LlOLyv71qkmoIGFQU-] found
Submit result: vqfk1RMai1LlOLyv71qkmoIGFQU- has been confirmed
Track | CTDB Status
1 | (5/5) Accurately ripped
2 | (5/5) Accurately ripped
3 | (5/5) Accurately ripped
4 | (5/5) Accurately ripped
5 | (5/5) Accurately ripped
6 | (5/5) Accurately ripped
7 | (5/5) Accurately ripped
8 | (5/5) Accurately ripped
9 | (5/5) Accurately ripped


==== Log checksum 04DF117F521A15EADFA5BD42674BB66552271CBBE32453E5B27503E23BD6267D ====


Thanks to the Original customer.