Subcategories

Amon Düül II - Pyragony 10th (1976) [Reissue 2004] (Repost)

Posted By: gribovar
Amon Düül II - Pyragony 10th (1976) [Reissue 2004] (Repost)

Amon Düül II - Pyragony 10th (1976) [Reissue 2004]
EAC Rip | WavPack (image+.cue+log) - 436 MB | MP3 CBR 320 kbps (LAME 3.93) - 271 MB | Covers included
Genre: Progressive/Krautrock | RAR 3% Rec. | Label: Garden of Delights (CD 103)

Again losing their way, with only Weinzierl, Karrer and Leopold offering links to the classic band. The group is filled out by Klaus Ebert (formerly of psych-pop act the Petards) and Stefan Zauner (later leader of teenypop act Münchener Freiheit). It's bad enough that Ebert and Zauner, who should have been relegated to sidemen, contributed material to the album, but their tedious and inane pop music actually dominated the songwriting. High points include the group composition "Flower Of The Orient", with its lovely Near East textures, and Weinzierl's instrumental "Crystal Hexagram". Karrer's lone contribution, the lengthy "The Only Thing", sounds more like Southern rock than Krautrock, but it's a lot more vital than Ebert and Zauner's dopey bubblegum.
progarchives
Tracklist:
01. Flower Of The Orient
02. Merlin
03. Crystal Hexagram
04. Lost In Space
05. Sally The Seducer
06. Telly Vision
07. The Only Thing
08. Capuccino

Total time: 38:27

Exact Audio Copy V0.99 prebeta 5 from 4. May 2009

EAC extraction logfile from 16. November 2010, 19:40

Amon Dььl II / Pyragony 10th

Used drive : HL-DT-STDVDRAM GH22NS50 Adapter: 1 ID: 0

Read mode : Secure
Utilize accurate stream : Yes
Defeat audio cache : Yes
Make use of C2 pointers : No

Read offset correction : 667
Overread into Lead-In and Lead-Out : No
Fill up missing offset samples with silence : Yes
Delete leading and trailing silent blocks : No
Null samples used in CRC calculations : Yes
Used interface : Installed external ASPI interface

Used output format : User Defined Encoder
Selected bitrate : 1024 kBit/s
Quality : High
Add ID3 tag : No
Command line compressor : C:\Program Files (x86)\wavpack\wavpack.exe
Additional command line options : -hm -w "Year=%y" -w "Genre=%m" %s %d


TOC of the extracted CD

Track | Start | Length | Start sector | End sector
––––––––––––––––––––––––––––-
1 | 0:00.00 | 6:04.00 | 0 | 27299
2 | 6:04.00 | 4:28.40 | 27300 | 47439
3 | 10:32.40 | 5:41.35 | 47440 | 73049
4 | 16:14.00 | 4:16.12 | 73050 | 92261
5 | 20:30.12 | 3:05.40 | 92262 | 106176
6 | 23:35.52 | 4:09.23 | 106177 | 124874
7 | 27:45.00 | 7:32.27 | 124875 | 158801
8 | 35:17.27 | 3:09.48 | 158802 | 173024


Range status and errors

Selected range

Filename M:\A\Amon Dььl II\Pyragony 10th\LossLess\Amon Dььl II - Pyragony 10th.wav

Peak level 98.8 %
Range quality 100.0 %
Test CRC 23B9AEAA
Copy CRC 23B9AEAA
Copy OK

No errors occurred


AccurateRip summary

Track 1 cannot be verified as accurate (confidence 3) [26537CE8], AccurateRip returned [777A00D8]
Track 2 cannot be verified as accurate (confidence 3) [D8ABD081], AccurateRip returned [1FC74C8D]
Track 3 cannot be verified as accurate (confidence 3) [042769B5], AccurateRip returned [43B2A417]
Track 4 cannot be verified as accurate (confidence 3) [2202B14B], AccurateRip returned [B68D71B3]
Track 5 cannot be verified as accurate (confidence 3) [BE9F59AA], AccurateRip returned [F6BE9632]
Track 6 cannot be verified as accurate (confidence 3) [7078D75C], AccurateRip returned [7A4F9932]
Track 7 cannot be verified as accurate (confidence 3) [62A02A05], AccurateRip returned [D8AD8481]
Track 8 cannot be verified as accurate (confidence 3) [D79FFBC4], AccurateRip returned [3C3B1BBE]

No tracks could be verified as accurate
You may have a different pressing from the one(s) in the database

End of status report

[CUETools log; Date: 03.02.2013 6:46:21; Version: 2.0.9]
[CTDB TOCID: P_7RGwiLWdZb7iJ50CbeSLS._3c-] found.
[ CTDBID ] Status
[c5ac235f] (4/4) Accurately ripped
[AccurateRip ID: 000c4073-0050b52b-6a090308] found.
Track [ CRC ] Status
01 [26537ce8] (0/4) No match
02 [d8abd081] (0/4) No match
03 [042769b5] (0/4) No match
04 [2202b14b] (0/4) No match
05 [be9f59aa] (0/4) No match
06 [7078d75c] (0/4) No match
07 [62a02a05] (0/4) No match
08 [d79ffbc4] (0/4) No match
Offsetted by 86:
01 [777a00d8] (4/4) Accurately ripped
02 [1fc74c8d] (4/4) Accurately ripped
03 [43b2a417] (4/4) Accurately ripped
04 [b68d71b3] (4/4) Accurately ripped
05 [f6be9632] (4/4) Accurately ripped
06 [7a4f9932] (4/4) Accurately ripped
07 [d8ad8481] (4/4) Accurately ripped
08 [3c3b1bbe] (4/4) Accurately ripped

Track Peak [ CRC32 ] [W/O NULL] [ LOG ]
– 98,8 [23B9AEAA] [BCF881E2] CRC32
01 98,8 [97817F8A] [0E48B776]
02 98,8 [AEB5059E] [C0904CC4]
03 98,8 [8E4AD5C2] [461E8C34]
04 98,8 [443C9DE2] [F6160ACA]
05 98,8 [102D7633] [E058A279]
06 98,8 [79BF2462] [01D147CE]
07 98,8 [C66F9610] [C2BCB762]
08 98,8 [20300F77] [AE603F3D]

Thanks to Antikalk

More Garden of Delights releases from my blog:
Garden of Delights

LOSSLESS:
Nitroflare.com
_______________

MP3 320 kbps:
Nitroflare.com


LOSSLESS:
Depositfiles.com
_______________

MP3 320 kbps:
Depositfiles.com