Subcategories

Amon Düül II - Vortex (1981) [Deluxe Edition 2005] (Repost)

Posted By: gribovar
Amon Düül II - Vortex (1981) [Deluxe Edition 2005] (Repost)

Amon Düül II - Vortex (1981) [Deluxe Edition 2005]
EAC Rip | APE (image+.cue+log) - 450 MB | MP3 CBR 320 kbps (LAME 3.93) - 206 MB | Covers included
Genre: Progressive/Krautrock | RAR 3% Rec. | Label: SPV/Revisited Records (SPV 085-304022 CD)

"Vortex" was the first and also the only album the band recorded in the 80th. Renate Knaup, Chris Karrer, Daniel Fichelscher, Jorg Evers and Falk U. Rogener, and the "guests" Lothar Meid, John Weinzierl and Stefan Zauner met 1981 in the studio too try it again. With "Vortex" they wanted to show, that there is still that old magic in the music of Amon Duul II. Songs like `Wings Of The Wind', `We Are Machine', `Vibes In The Air' or `Holy West', are comparable with all the Duul-Classics.
Tracklist:
01. Vortex
02. Holy West
03. Die 7 Fetten Jahr’
04. Wings Of The Wind
05. Mona
06. We Are Machine
07. Das Gestern Ist Das Heute Von Morgen
08. Vibes In The Air
09. Whatever (Bonus track)
10. (Ras)putin In Der Badewanne (Bonus track)

Total time: 59:51

Exact Audio Copy V0.99 prebeta 4 from 23. January 2008

Отчёт EAC об извлечении, выполненном 26. сентября 2009, 8:52

Amon Duul II / Vortex

Дисковод: Optiarc DVD RW AD-5200S Adapter: 0 ID: 0

Режим чтения : Достоверность
Использование точного потока : Да
Отключение кэша аудио : Да
Использование указателей C2 : Нет

Коррекция смещения при чтении : 48
Способность читать области Lead-in и Lead-out : Нет
Заполнение пропущенных сэмплов тишиной : Да
Удаление блоков с тишиной в начале и конце : Нет
При вычислениях CRC использовались нулевые сэмплы : Да
Интерфейс : Установленный внешний ASPI-интерфейс

Выходной формат : Внутренние WAV-операции
Формат сэмплов : 44.100 Гц; 16 бит; стерео


TOC извлечённого CD

Трек | Старт | Длительность | Начальный сектор | Конечный сектор
––––––––––––––––––––––––––––––––––-
1 | 0:00.00 | 5:48.21 | 0 | 26120
2 | 5:48.21 | 5:10.46 | 26121 | 49416
3 | 10:58.67 | 4:32.15 | 49417 | 69831
4 | 15:31.07 | 4:49.26 | 69832 | 91532
5 | 20:20.33 | 5:10.23 | 91533 | 114805
6 | 25:30.56 | 5:19.24 | 114806 | 138754
7 | 30:50.05 | 4:36.55 | 138755 | 159509
8 | 35:26.60 | 6:29.20 | 159510 | 188704
9 | 41:56.05 | 8:36.13 | 188705 | 227417
10 | 50:32.18 | 9:19.02 | 227418 | 269344


Характеристики диапазона извлечения и сообщения об ошибках

Выбранный диапазон

Имя файла D:\3322\Amon Duul II - 1981 - Vortex\Amon Duul II - Vortex.wav

Пиковый уровень 96.6 %
Качество диапазона 99.9 %
CRC копии 10E5B6DC
Копирование… OK

Ошибок не произошло


AccurateRip: сводка

Трек 1 точное извлечение (доверие 1) [BD6012DF]
Трек 2 точное извлечение (доверие 1) [05BE022F]
Трек 3 точное извлечение (доверие 1) [D8038A91]
Трек 4 точное извлечение (доверие 1) [285DAED5]
Трек 5 точное извлечение (доверие 1) [AA0B4F1A]
Трек 6 точное извлечение (доверие 1) [BA013445]
Трек 7 точное извлечение (доверие 1) [48003300]
Трек 8 точное извлечение (доверие 1) [54CB304C]
Трек 9 точное извлечение (доверие 1) [C0F1D99E]
Трек 10 точное извлечение (доверие 1) [EBFDD0D0]

Все треки извлечены точно

Конец отчёта

[CUETools log; Date: 10.02.2013 19:33:34; Version: 2.0.9]
[AccurateRip ID: 00146092-00a4eeb0-6e0e070a] found.
Track [ CRC ] Status
01 [bd6012df] (7/7) Accurately ripped
02 [05be022f] (7/7) Accurately ripped
03 [d8038a91] (7/7) Accurately ripped
04 [285daed5] (7/7) Accurately ripped
05 [aa0b4f1a] (7/7) Accurately ripped
06 [ba013445] (7/7) Accurately ripped
07 [48003300] (7/7) Accurately ripped
08 [54cb304c] (7/7) Accurately ripped
09 [c0f1d99e] (7/7) Accurately ripped
10 [ebfdd0d0] (7/7) Accurately ripped

Track Peak [ CRC32 ] [W/O NULL] [ LOG ]
– 96,6 [10E5B6DC] [A99E65FD] CRC32
01 96,5 [903E7BD6] [5824A0A5]
02 96,6 [F874F02F] [C70F0A84]
03 96,5 [57674506] [70676A96]
04 96,5 [6B55A532] [EB446DC9]
05 96,5 [9E50C8E0] [B1E4FDEF]
06 96,5 [08C66630] [1DC81772]
07 96,6 [6D318184] [14391D47]
08 96,5 [35D25FE7] [7D5E3A69]
09 96,5 [E52986AE] [F6952912]
10 96,6 [B374558A] [FE85E91F]

Thanks to 3322

LOSSLESS:
Nitroflare.com
_______________

MP3 320 kbps:
Nitroflare.com


LOSSLESS:
Depositfiles.com
_______________

MP3 320 kbps:
Depositfiles.com