Subcategories

Amorphis - Eclipse (2006) [Digipack]

Posted By: gribovar
Amorphis - Eclipse (2006) [Digipack]

Amorphis - Eclipse (2006) [Digipack]
EAC Rip | Flac (image+.cue+log) - 350 MB | MP3 CBR 320 kbps - 106 MB | Covers - 28 MB
Genre: Post Doom Metal | RAR 3% Rec.

После выхода "Far From The Sun" (2004) в группе сменился вокалист, и это не могло не сказаться на музыке Amorphis. На "Eclipse" появился какой-то кураж или драйв, которого явно не доставало в предыдущих нескольких альбомах. Никуда не подевалась, естественно, и фирменная мелодичность команды.

Tracklist:
01. Two Moons
02. House Of Sleep
03. Leaves Scar
04. Born To Fire
05. Under A Soil And Black Stone
06. Perkele (The God Of Fire)
07. The Smoke
08. Same Flesh
09. Brother Moon
10. Empty Opening
11. Stone Woman (Bonus Track)

Total Time: 45:29

Exact Audio Copy V0.99 prebeta 4 from 23. January 2008

EAC extraction logfile from 6. December 2008, 19:00

Amorphis / Eclipse

Used drive : TSSTcorpCD/DVDW TS-L632D Adapter: 1 ID: 0

Read mode : Secure
Utilize accurate stream : Yes
Defeat audio cache : Yes
Make use of C2 pointers : No

Read offset correction : 6
Overread into Lead-In and Lead-Out : No
Fill up missing offset samples with silence : Yes
Delete leading and trailing silent blocks : No
Null samples used in CRC calculations : Yes
Used interface : Native Win32 interface for Win NT & 2000

Used output format : Internal WAV Routines
Sample format : 44.100 Hz; 16 Bit; Stereo


TOC of the extracted CD

Track | Start | Length | Start sector | End sector
––––––––––––––––––––––––––––-
1 | 0:00.00 | 3:22.41 | 0 | 15190
2 | 3:22.41 | 4:10.39 | 15191 | 33979
3 | 7:33.05 | 3:38.35 | 33980 | 50364
4 | 11:11.40 | 3:59.74 | 50365 | 68363
5 | 15:11.39 | 4:13.45 | 68364 | 87383
6 | 19:25.09 | 3:31.35 | 87384 | 103243
7 | 22:56.44 | 3:39.16 | 103244 | 119684
8 | 26:35.60 | 4:40.68 | 119685 | 140752
9 | 31:16.53 | 4:47.57 | 140753 | 162334
10 | 36:04.35 | 5:48.74 | 162335 | 188508
11 | 41:53.34 | 3:35.38 | 188509 | 204671


Range status and errors

Selected range

Filename C:\Amorphis - Eclipse\Amorphis - Eclipse.wav

Peak level 97.7 %
Range quality 100.0 %
Copy CRC 1C84661A
Copy OK

No errors occurred


AccurateRip summary

Track 1 accurately ripped (confidence 17) [DE198C18]
Track 2 accurately ripped (confidence 17) [A3D6FD06]
Track 3 accurately ripped (confidence 17) [895A537B]
Track 4 accurately ripped (confidence 17) [867E19F3]
Track 5 accurately ripped (confidence 17) [ECD5057A]
Track 6 accurately ripped (confidence 17) [053DCE22]
Track 7 accurately ripped (confidence 17) [57A6A587]
Track 8 accurately ripped (confidence 17) [C77547AD]
Track 9 accurately ripped (confidence 17) [39830D7A]
Track 10 accurately ripped (confidence 17) [B8C9C387]
Track 11 accurately ripped (confidence 17) [3968CB52]

All tracks accurately ripped

End of status report


LOSSLESS:

Rapidshare.com:
Part 1 | Part 2 | Part 3
Part 4

Letitbit.net:
Download

Hotfile.com:
Download
___________________

MP3 320 kbps:

Rapidshare.com:
Part 1 | Part 2

Letitbit.net:
Download

Hotfile.com:
Download
___________________

Covers (28 mb):

Rapidshare.com

Hotfile.com