Subcategories
Tags
Language
Tags

Amy MacDonald - The Human Demands (2020) {Deluxe Edition}

Posted By: popsakov
Amy MacDonald - The Human Demands (2020) {Deluxe Edition}

Amy MacDonald - The Human Demands (2020) {Deluxe Edition}
EAC Rip | FLAC (Tracks) + Cue + m3u + Log ~ 423 Mb | MP3 CBR320 ~ 155 Mb
Cover | 01:04:22 | RAR 5% Recovery
Soft Rock, Indie Folk, Singer-Songwriter | Infectious Music #INFECT618DCD

Platinum selling artist Amy Macdonald returns with her highly anticipated 5th studio album, The Human Demands. Working with renowned producer Jim Abbiss (Arctic Monkeys’, Kasabian, Ladytron), the new album is Amy’s most authentic sounding record to date. Deluxe CD Album is a casebound book and features an additional 6 acoustic tracks. In April 2020, Amy Macdonald performed via her social media a new song called "A Piece of My Heart", inspired by COVID-19 pandemic and social distancing. After writing songs in July 2020, Macdonald started recording sessions for her fifth studio album. Her album The Human Demands was released on 30th October 2020, following a lead single, The Hudson on 27 August 2020 and Crazy Shade of Blue on 27 September.

***************

Track List:

01. Fire [4:15]
02. Statues [3:45]
03. Crazy Shade of Blue [4:12]
04. The Hudson [5:00]
05. The Human Demands [3:52]
06. We Could Be So Much More [3:56]
07. Young Fire, Old Flame [3:43]
08. Bridges [3:58]
09. Strong Again [4:06]
10. Something in Nothing [3:39]
11. Bridges (acoustic) [3:53]
12. The Hudson (acoustic) [4:38]
13. Fire (acoustic) [4:01]
14. Statues (acoustic) [3:44]
15. We Could Be So Much More (acoustic) [3:53]
16. The Human Demands (acoustic) [3:47]

Exact Audio Copy V1.5 from 20. February 2020

EAC extraction logfile from 5. November 2020, 15:46

Amy Macdonald / The Human Demands

Used drive : PLEXTOR CD-R PX-230A Adapter: 1 ID: 0

Read mode : Secure
Utilize accurate stream : Yes
Defeat audio cache : Yes
Make use of C2 pointers : No

Read offset correction : 738
Overread into Lead-In and Lead-Out : No
Fill up missing offset samples with silence : Yes
Delete leading and trailing silent blocks : No
Null samples used in CRC calculations : Yes
Used interface : Native Win32 interface for Win NT & 2000
Gap handling : Appended to previous track

Used output format : User Defined Encoder
Selected bitrate : 1024 kBit/s
Quality : High
Add ID3 tag : No
Command line compressor : C:\Program Files\Exact Audio Copy\Flac\flac.exe
Additional command line options : -6 -V -T "ARTIST=%artist%" -T "TITLE=%title%" -T "ALBUM=%albumtitle%" -T "DATE=%year%" -T "TRACKNUMBER=%tracknr%" -T "GENRE=%genre%" -T "COMMENT=%comment%" -T "ALBUMARTIST=%albuminterpret%" -T "COMPOSER=%composer%" -T "DISCNUMBER=%cdnumber%" -T "TOTALDISCS=%totalcds%" -T "TOTALTRACKS=%numtracks%" %source% -o %dest%


TOC of the extracted CD

Track | Start | Length | Start sector | End sector
––––––––––––––––––––––––––––-
1 | 0:00.00 | 4:15.52 | 0 | 19176
2 | 4:15.52 | 3:46.66 | 19177 | 36192
3 | 8:02.43 | 4:13.46 | 36193 | 55213
4 | 12:16.14 | 5:01.00 | 55214 | 77788
5 | 17:17.14 | 3:53.21 | 77789 | 95284
6 | 21:10.35 | 3:57.30 | 95285 | 113089
7 | 25:07.65 | 3:43.49 | 113090 | 129863
8 | 28:51.39 | 3:59.66 | 129864 | 147854
9 | 32:51.30 | 4:08.06 | 147855 | 166460
10 | 36:59.36 | 3:41.24 | 166461 | 183059
11 | 40:40.60 | 3:54.22 | 183060 | 200631
12 | 44:35.07 | 4:39.21 | 200632 | 221577
13 | 49:14.28 | 4:02.58 | 221578 | 239785
14 | 53:17.11 | 3:45.32 | 239786 | 256692
15 | 57:02.43 | 3:54.52 | 256693 | 274294
16 | 60:57.20 | 3:47.02 | 274295 | 291321


Track 1

Filename C:\Ripped by Filex\01 - Fire.wav

Pre-gap length 0:00:02.00

Peak level 98.8 %
Extraction speed 5.5 X
Track quality 100.0 %
Test CRC 048A6437
Copy CRC 048A6437
Accurately ripped (confidence 6) [0535FCDE] (AR v2)
Copy OK

Track 2

Filename C:\Ripped by Filex\02 - Statues.wav

Pre-gap length 0:00:00.57

Peak level 98.8 %
Extraction speed 5.6 X
Track quality 100.0 %
Test CRC 4C40A2BC
Copy CRC 4C40A2BC
Accurately ripped (confidence 6) [11A5873B] (AR v2)
Copy OK

Track 3

Filename C:\Ripped by Filex\03 - Crazy Shade of Blue.wav

Pre-gap length 0:00:01.30

Peak level 98.8 %
Extraction speed 5.2 X
Track quality 99.9 %
Test CRC 575DC941
Copy CRC 575DC941
Accurately ripped (confidence 6) [B2869465] (AR v2)
Copy OK

Track 4

Filename C:\Ripped by Filex\04 - The Hudson.wav

Pre-gap length 0:00:01.32

Peak level 100.0 %
Extraction speed 5.7 X
Track quality 100.0 %
Test CRC 22EEF819
Copy CRC 22EEF819
Accurately ripped (confidence 6) [4E972CD6] (AR v2)
Copy OK

Track 5

Filename C:\Ripped by Filex\05 - The Human Demands.wav

Pre-gap length 0:00:01.04

Peak level 98.8 %
Extraction speed 5.6 X
Track quality 100.0 %
Test CRC 70C2A278
Copy CRC 70C2A278
Accurately ripped (confidence 6) [0641D23D] (AR v2)
Copy OK

Track 6

Filename C:\Ripped by Filex\06 - We Could Be So Much More.wav

Pre-gap length 0:00:00.68

Peak level 98.8 %
Extraction speed 3.5 X
Track quality 99.9 %
Test CRC 1E7F52CA
Copy CRC 1E7F52CA
Accurately ripped (confidence 6) [1920AFB5] (AR v2)
Copy OK

Track 7

Filename C:\Ripped by Filex\07 - Young Fire, Old Flame.wav

Pre-gap length 0:00:01.33

Peak level 99.6 %
Extraction speed 3.6 X
Track quality 100.0 %
Test CRC 1EC7D71F
Copy CRC 1EC7D71F
Accurately ripped (confidence 6) [14DF794E] (AR v2)
Copy OK

Track 8

Filename C:\Ripped by Filex\08 - Bridges.wav

Pre-gap length 0:00:00.61

Peak level 98.8 %
Extraction speed 4.9 X
Track quality 100.0 %
Test CRC A924EA03
Copy CRC A924EA03
Accurately ripped (confidence 6) [15A563F2] (AR v2)
Copy OK

Track 9

Filename C:\Ripped by Filex\09 - Strong Again.wav

Pre-gap length 0:00:01.29

Peak level 98.8 %
Extraction speed 5.5 X
Track quality 100.0 %
Test CRC 662D86FF
Copy CRC 662D86FF
Accurately ripped (confidence 6) [5AA87C1A] (AR v2)
Copy OK

Track 10

Filename C:\Ripped by Filex\10 - Something in Nothing.wav

Pre-gap length 0:00:02.07

Peak level 98.8 %
Extraction speed 5.5 X
Track quality 100.0 %
Test CRC 64C73508
Copy CRC 64C73508
Accurately ripped (confidence 6) [F3F3FE9A] (AR v2)
Copy OK

Track 11

Filename C:\Ripped by Filex\11 - Bridges (acoustic).wav

Pre-gap length 0:00:02.00

Peak level 99.6 %
Extraction speed 5.5 X
Track quality 100.0 %
Test CRC A18E1AB8
Copy CRC A18E1AB8
Accurately ripped (confidence 6) [72859813] (AR v2)
Copy OK

Track 12

Filename C:\Ripped by Filex\12 - The Hudson (acoustic).wav

Pre-gap length 0:00:01.46

Peak level 99.6 %
Extraction speed 5.6 X
Track quality 100.0 %
Test CRC F64927BC
Copy CRC F64927BC
Accurately ripped (confidence 6) [C173B542] (AR v2)
Copy OK

Track 13

Filename C:\Ripped by Filex\13 - Fire (acoustic).wav

Pre-gap length 0:00:01.54

Peak level 99.7 %
Extraction speed 5.5 X
Track quality 100.0 %
Test CRC A029FD51
Copy CRC A029FD51
Accurately ripped (confidence 6) [8B8E347E] (AR v2)
Copy OK

Track 14

Filename C:\Ripped by Filex\14 - Statues (acoustic).wav

Pre-gap length 0:00:01.65

Peak level 99.6 %
Extraction speed 4.9 X
Track quality 99.9 %
Test CRC A756A581
Copy CRC A756A581
Accurately ripped (confidence 6) [8A6EF715] (AR v2)
Copy OK

Track 15

Filename C:\Ripped by Filex\15 - We Could Be So Much More (acoustic).wav

Pre-gap length 0:00:01.35

Peak level 99.7 %
Extraction speed 4.9 X
Track quality 99.9 %
Test CRC 0145D9D1
Copy CRC 0145D9D1
Accurately ripped (confidence 6) [30D26C34] (AR v2)
Copy OK

Track 16

Filename C:\Ripped by Filex\16 - The Human Demands (acoustic).wav

Pre-gap length 0:00:01.71

Peak level 99.6 %
Extraction speed 5.2 X
Track quality 100.0 %
Test CRC 7FA9DC03
Copy CRC 7FA9DC03
Accurately ripped (confidence 6) [92D53900] (AR v2)
Copy OK


All tracks accurately ripped

No errors occurred

End of status report

–– CUETools DB Plugin V2.1.6

[CTDB TOCID: Zl31WiWgA1rs4GorE0xDTXvxb44-] found
Submit result: Zl31WiWgA1rs4GorE0xDTXvxb44- has been confirmed
Track | CTDB Status
1 | (51/51) Accurately ripped
2 | (51/51) Accurately ripped
3 | (51/51) Accurately ripped
4 | (51/51) Accurately ripped
5 | (51/51) Accurately ripped
6 | (51/51) Accurately ripped
7 | (51/51) Accurately ripped
8 | (51/51) Accurately ripped
9 | (51/51) Accurately ripped
10 | (51/51) Accurately ripped
11 | (51/51) Accurately ripped
12 | (51/51) Accurately ripped
13 | (51/51) Accurately ripped
14 | (51/51) Accurately ripped
15 | (51/51) Accurately ripped
16 | (51/51) Accurately ripped


==== Log checksum 539A222939480E08028B203B858DCA8B892CACD3B3CFFA65F7DFE53E8BABF808 ====

[CUETools log; Date: 06.11.2020 3:04:55; Version: 2.1.6]
[CTDB TOCID: Zl31WiWgA1rs4GorE0xDTXvxb44-] found.
Track | CTDB Status
1 | (54/54) Accurately ripped
2 | (54/54) Accurately ripped
3 | (54/54) Accurately ripped
4 | (54/54) Accurately ripped
5 | (54/54) Accurately ripped
6 | (54/54) Accurately ripped
7 | (54/54) Accurately ripped
8 | (54/54) Accurately ripped
9 | (54/54) Accurately ripped
10 | (54/54) Accurately ripped
11 | (54/54) Accurately ripped
12 | (54/54) Accurately ripped
13 | (54/54) Accurately ripped
14 | (54/54) Accurately ripped
15 | (54/54) Accurately ripped
16 | (54/54) Accurately ripped
[AccurateRip ID: 00264606-01c9d5a3-f50f2c10] found.
Track [ CRC | V2 ] Status
01 [afc8cf79|0535fcde] (0+6/6) Accurately ripped
02 [c2305681|11a5873b] (0+6/6) Accurately ripped
03 [c422c094|b2869465] (0+6/6) Accurately ripped
04 [4799e0d2|4e972cd6] (0+6/6) Accurately ripped
05 [d90e4e3f|0641d23d] (0+6/6) Accurately ripped
06 [dae13432|1920afb5] (0+6/6) Accurately ripped
07 [e82b4910|14df794e] (0+6/6) Accurately ripped
08 [367d1415|15a563f2] (0+6/6) Accurately ripped
09 [6a30f7b5|5aa87c1a] (0+6/6) Accurately ripped
10 [2d31b8ac|f3f3fe9a] (0+6/6) Accurately ripped
11 [0fd47d1f|72859813] (0+6/6) Accurately ripped
12 [47bfffc0|c173b542] (0+6/6) Accurately ripped
13 [7bd74ae6|8b8e347e] (0+6/6) Accurately ripped
14 [826c0237|8a6ef715] (0+6/6) Accurately ripped
15 [a8fe88ce|30d26c34] (0+6/6) Accurately ripped
16 [ce14b037|92d53900] (0+6/6) Accurately ripped

Track Peak [ CRC32 ] [W/O NULL] [ LOG ]
– 100,0 [2922A9D0] [AD3530C4]
01 98,8 [048A6437] [96F6433B] CRC32
02 98,8 [4C40A2BC] [4C91F38F] CRC32
03 98,8 [575DC941] [213B126B] CRC32
04 100,0 [22EEF819] [9B0D013A] CRC32
05 98,8 [70C2A278] [181525B1] CRC32
06 98,8 [1E7F52CA] [F5B4BC09] CRC32
07 99,6 [1EC7D71F] [590991D2] CRC32
08 98,8 [A924EA03] [23A20A5F] CRC32
09 98,8 [662D86FF] [39201185] CRC32
10 98,8 [64C73508] [09E1C6EA] CRC32
11 99,6 [A18E1AB8] [B70101DB] CRC32
12 99,6 [F64927BC] [E942DE73] CRC32
13 99,7 [A029FD51] [13170FE4] CRC32
14 99,6 [A756A581] [E9ADAF8B] CRC32
15 99,7 [0145D9D1] [37DCC929] CRC32
16 99,6 [7FA9DC03] [2BA5BBD3] CRC32

See also:

Amy Macdonald - Woman Of Th...Best Of 2007 - 2018 (2018)

All thanks go to Filex

>>> My Blog <<<

DOWNLOAD: