Subcategories
Tags
Language
Tags

Amy Macdonald - Woman Of The World: The Best Of 2007 - 2018 (2018)

Posted By: popsakov
Amy Macdonald - Woman Of The World: The Best Of 2007 - 2018 (2018)

Amy Macdonald - Woman Of The World: The Best Of 2007 - 2018 (2018)
EAC Rip | FLAC (Img) + Cue + Log ~ 434 Mb | MP3 CBR320 ~ 171 Mb
Full Scans | 01:00:18 | RAR 5% Recovery
Folk, Pop Rock | Virgin EMI Records #00602567940074

Woman of the World (The Best of 2007–2018) is a compilation album by Scottish singer-songwriter Amy Macdonald. The album was released on 23 November 2018 by Mercury Records. Macdonald announced a European tour in support of the album, which will take place between March and April 2019.

The album includes all of her greatest hits including "Mr Rock & Roll" and "This Is the Life", plus a two new songs, "Woman of the World" and "Come Home", both songs are included on the film Patrick. Talking about the album Macdonald said, "I remember the week of the 30th July 2007 – I released my first ever album This Is The Life, and I wasn’t quite sure how I found myself in that position. My album was number 1 in countries I’d never even been to before and I was so busy that I did not have time to take it in at all. Fast forward to 2017 and I released my fourth album – it was crazy for me. 10 years later people were still interested. I just felt that after such an incredible journey it was time to look back and feel proud of everything that has happened. I hope you enjoy this collection of music."

***************

Amy Macdonald - Woman Of The World: The Best Of 2007 - 2018 (2018)

Track List:

01. This Is The Life [3:05]
02. Mr Rock & Roll [3:35]
03. Slow It Down [3:53]
04. Dream On [3:19]
05. What Happiness Means To Me [4:56]
06. Woman Of The World [3:33]
07. Poison Prince [3:29]
08. From The Ashes [3:35]
09. Pride [3:22]
10. Run [3:49]
11. Down By The Water [Acoustic] [3:28]
12. Don't Tell Me That It's Over [3:16]
13. Give It All Up [Live] [3:31]
14. Come Home [3:14]
15. Left That Body Long Ago [4:47]
16. Let's Start A Band [Live] [5:26]

Exact Audio Copy V1.3 from 2. September 2016

Отчёт EAC об извлечении, выполненном 5. февраля 2019, 16:57

Amy Macdonald / Woman Of The World: The Best Of 2007 - 2018

Дисковод: PLEXTOR DVDR PX-755A Adapter: 1 ID: 0

Режим чтения : Достоверность
Использование точного потока : Да
Отключение кэша аудио : Да
Использование указателей C2 : Нет

Коррекция смещения при чтении : 30
Способность читать области Lead-in и Lead-out : Нет
Заполнение пропущенных сэмплов тишиной : Да
Удаление блоков с тишиной в начале и конце : Нет
При вычислениях CRC использовались нулевые сэмплы : Да
Интерфейс : Встроенный Win32-интерфейс для Win NT/2000

Выходной формат : Пользовательский кодировщик
Выбранный битрейт : 1024 kBit/s
Качество : Высокий
Добавление ID3-тега : Нет
Утилита сжатия : C:\Program Files (x86)\Exact Audio Copy\FLAC\FLAC.EXE
Дополнительные параметры : -6 -V -T "ARTIST=%artist%" -T "TITLE=%title%" -T "ALBUM=%albumtitle%" -T "DATE=%year%" -T "TRACKNUMBER=%tracknr%" -T "GENRE=%genre%" -T "COMMENT=%comment%" -T "BAND=%albuminterpret%" -T "ALBUMARTIST=%albuminterpret%" -T "COMPOSER=%composer%" %haslyrics%–tag-from-file=LYRICS="%lyricsfile%"%haslyrics% -T "DISCNUMBER=%cdnumber%" -T "TOTALDISCS=%totalcds%" -T "TOTALTRACKS=%numtracks%" %hascover%–picture="%coverfile%"%hascover% %source% -o %dest%


TOC извлечённого CD

Трек | Старт | Длительность | Начальный сектор | Конечный сектор
––––––––––––––––––––––––––––––––––-
1 | 0:00.00 | 3:05.19 | 0 | 13893
2 | 3:05.19 | 3:34.61 | 13894 | 30004
3 | 6:40.05 | 3:53.06 | 30005 | 47485
4 | 10:33.11 | 3:19.28 | 47486 | 62438
5 | 13:52.39 | 4:55.61 | 62439 | 84624
6 | 18:48.25 | 3:33.12 | 84625 | 100611
7 | 22:21.37 | 3:28.46 | 100612 | 116257
8 | 25:50.08 | 3:35.36 | 116258 | 132418
9 | 29:25.44 | 3:22.26 | 132419 | 147594
10 | 32:47.70 | 3:48.52 | 147595 | 164746
11 | 36:36.47 | 3:27.68 | 164747 | 180339
12 | 40:04.40 | 3:15.46 | 180340 | 195010
13 | 43:20.11 | 3:31.23 | 195011 | 210858
14 | 46:51.34 | 3:13.60 | 210859 | 225393
15 | 50:05.19 | 4:46.59 | 225394 | 246902
16 | 54:52.03 | 5:26.09 | 246903 | 271361


Характеристики диапазона извлечения и сообщения об ошибках

Выбранный диапазон

Имя файла E:\РАЗДАЧА\Amy Madonald - 2007-2018\Amy Macdonald - Woman Of The World- The Best Of 2007 - 2018.wav

Пиковый уровень 100.0 %
Скорость извлечения 8.2 X
Качество диапазона 99.9 %
CRC теста 0F9FB9FB
CRC копии 0F9FB9FB
Копирование… OK

Ошибок не произошло


AccurateRip: сводка

Трек 1 : извлечено точно (доверие 8) [E76BA016] (AR v2)
Трек 2 : извлечено точно (доверие 8) [C96CD660] (AR v2)
Трек 3 : извлечено точно (доверие 9) [C55AC191] (AR v2)
Трек 4 : извлечено точно (доверие 8) [E61B7C63] (AR v2)
Трек 5 : извлечено точно (доверие 9) [B3AFD8FE] (AR v2)
Трек 6 : извлечено точно (доверие 8) [B7DC9157] (AR v2)
Трек 7 : извлечено точно (доверие 9) [D8D45438] (AR v2)
Трек 8 : извлечено точно (доверие 9) [2B7FEBC4] (AR v2)
Трек 9 : извлечено точно (доверие 9) [9EC8C8CB] (AR v2)
Трек 10 : извлечено точно (доверие 9) [EEEB2F4B] (AR v2)
Трек 11 : извлечено точно (доверие 8) [795C3AFC] (AR v2)
Трек 12 : извлечено точно (доверие 9) [6B35EC2B] (AR v2)
Трек 13 : извлечено точно (доверие 9) [17723E67] (AR v2)
Трек 14 : извлечено точно (доверие 9) [D6A14A52] (AR v2)
Трек 15 : извлечено точно (доверие 9) [16FA2039] (AR v2)
Трек 16 : извлечено точно (доверие 9) [AD368030] (AR v2)

Все треки извлечены точно

Конец отчёта

==== Контрольная сумма отчёта 456BA014CAAB9473B1DDF66339D3FFB650909A423DC71D51C1964C4450AFF240 ====

[CUETools log; Date: 07.02.2019 11:37:32; Version: 2.1.6]
[CTDB TOCID: WZjU.FmHZK6CP_cRG3p1WxwuZk0-] found.
Track | CTDB Status
1 | (67/68) Accurately ripped
2 | (67/68) Accurately ripped
3 | (67/68) Accurately ripped
4 | (67/68) Accurately ripped
5 | (67/68) Accurately ripped
6 | (67/68) Accurately ripped
7 | (67/68) Accurately ripped
8 | (67/68) Accurately ripped
9 | (67/68) Accurately ripped
10 | (67/68) Accurately ripped
11 | (67/68) Accurately ripped
12 | (67/68) Accurately ripped
13 | (67/68) Accurately ripped
14 | (67/68) Accurately ripped
15 | (67/68) Accurately ripped
16 | (66/68) Accurately ripped
[AccurateRip ID: 002206bd-019982ec-d40e2210] found.
Track [ CRC | V2 ] Status
01 [0f67473a|e76ba016] (0+8/8) Accurately ripped
02 [e3487307|c96cd660] (0+8/8) Accurately ripped
03 [9dd3c374|c55ac191] (0+9/9) Accurately ripped
04 [a589d37c|e61b7c63] (0+8/8) Accurately ripped
05 [d13f5797|b3afd8fe] (0+9/9) Accurately ripped
06 [88a58dec|b7dc9157] (0+8/8) Accurately ripped
07 [a305300e|d8d45438] (0+9/9) Accurately ripped
08 [7af044ae|2b7febc4] (0+9/9) Accurately ripped
09 [dc00da0c|9ec8c8cb] (0+9/9) Accurately ripped
10 [57a6b1e6|eeeb2f4b] (0+9/9) Accurately ripped
11 [4387d7dd|795c3afc] (0+8/8) Accurately ripped
12 [2c8ba4af|6b35ec2b] (0+9/9) Accurately ripped
13 [3dc4b71c|17723e67] (0+9/9) Accurately ripped
14 [12c1e9ba|d6a14a52] (0+9/9) Accurately ripped
15 [f48d948b|16fa2039] (0+9/9) Accurately ripped
16 [e2d143fa|ad368030] (0+9/9) Accurately ripped

Track Peak [ CRC32 ] [W/O NULL] [ LOG ]
– 100,0 [0F9FB9FB] [90643B46] CRC32
01 99,9 [3FF650DE] [D9342443]
02 99,9 [517BDCA8] [FA790609]
03 98,0 [CC1E1966] [D929CEF9]
04 98,0 [05624CFA] [638CD39B]
05 100,0 [41785668] [9765DB7F]
06 98,0 [1C987AB6] [BD4E07A6]
07 100,0 [68BE2D0D] [6F8F5CEC]
08 98,0 [BE6A1A40] [2D2DDF96]
09 98,0 [6CF80B5C] [A51E0702]
10 99,9 [4674B696] [47C040A3]
11 98,0 [A18D559C] [54AF6223]
12 100,0 [2D90A7B3] [F4651E1F]
13 99,8 [C856C37B] [02460F75]
14 98,0 [75174578] [88837737]
15 98,0 [91696D86] [D4FE0009]
16 98,0 [274DABFE] [08C0DC7B]

Amy Macdonald - Woman Of The World: The Best Of 2007 - 2018 (2018)


See also:
Amy MacDonald - Under Stars (2017) {Deluxe Edition}

All thanks go to pishin

>>> My Blog <<<

DOWNLOAD: